<?xml version="1.0" standalone="no"?>
<!DOCTYPE svg PUBLIC "-//W3C//DTD SVG 1.1//EN" "http://www.w3.org/Graphics/SVG/1.1/DTD/svg11.dtd" >
<svg xmlns="http://www.w3.org/2000/svg" xmlns:xlink="http://www.w3.org/1999/xlink" version="1.1">
<metadata>
Created by FontForge 20170731 at Tue Oct  5 11:52:14 2021
 By Aleksey,,,
Copyright (c) 2013 by atipo. All rights reserved.
</metadata>
<defs>
<font id="Geomanist-Bold" horiz-adv-x="538" >
  <font-face 
    font-family="Geomanist"
    font-weight="700"
    font-stretch="normal"
    units-per-em="2048"
    panose-1="2 0 5 3 0 0 0 2 0 4"
    ascent="1536"
    descent="-512"
    x-height="1075"
    cap-height="1434"
    bbox="-106 -651 2468 2083"
    underline-thickness="102"
    underline-position="-307"
    unicode-range="U+000D-F6C3"
  />
<missing-glyph horiz-adv-x="1042" 
d="M8 0v1434h1024v-1434h-1024zM520 809l348 522h-696zM582 717l348 -522v1044zM111 195l348 522l-348 522v-1044zM172 102h696l-348 523z" />
    <glyph glyph-name="ellipsis" unicode="&#x2e;&#x2e;&#x2e;" horiz-adv-x="1673" 
d="M266 -27q-84 0 -143.5 59.5t-59.5 143.5q0 85 59 145t144 60t145 -60t60 -145q0 -83 -60 -143t-145 -60zM836 -27q-84 0 -143.5 59.5t-59.5 143.5q0 85 59 145t144 60t144.5 -60t59.5 -145q0 -84 -60 -143.5t-144 -59.5zM1405 -27q-84 0 -143.5 59.5t-59.5 143.5
q0 85 59 145t144 60t145 -60t60 -145q0 -83 -60 -143t-145 -60z" />
    <glyph glyph-name=".notdef" horiz-adv-x="1042" 
d="M8 0v1434h1024v-1434h-1024zM520 809l348 522h-696zM582 717l348 -522v1044zM111 195l348 522l-348 522v-1044zM172 102h696l-348 523z" />
    <glyph glyph-name=".null" horiz-adv-x="0" 
 />
    <glyph glyph-name=".null" horiz-adv-x="0" 
 />
    <glyph glyph-name="nonmarkingreturn" horiz-adv-x="682" 
 />
    <glyph glyph-name="CR" unicode="&#xd;" horiz-adv-x="401" 
 />
    <glyph glyph-name="space" unicode=" " horiz-adv-x="401" 
 />
    <glyph glyph-name="exclam" unicode="!" horiz-adv-x="632" 
d="M315 -27q-84 0 -143 59.5t-59 143.5q0 85 59 145t143 60q85 0 145 -60t60 -145q0 -83 -60 -143t-145 -60zM498 1434l-27 -1002h-309l-27 1002h363z" />
    <glyph glyph-name="quotedbl" unicode="&#x22;" horiz-adv-x="833" 
d="M84 1434h272l-10 -527h-252zM479 1434h273l-11 -527h-252z" />
    <glyph glyph-name="numbersign" unicode="#" horiz-adv-x="1361" 
d="M1212 1434l-73 -353h174l-51 -254h-177l-45 -223h174l-51 -254h-176l-72 -350h-282l72 350h-193l-72 -350h-282l71 350h-180l51 254h183l45 223h-181l52 254h182l74 353h282l-73 -353h192l74 353h282zM610 827l-45 -223h193l45 223h-193z" />
    <glyph glyph-name="dollar" unicode="$" horiz-adv-x="1083" 
d="M453 -176v153q-78 9 -144.5 38t-110.5 65t-79.5 82t-54 82t-29.5 71l293 146q32 -68 89 -114t126 -46q62 0 94.5 26t32.5 74q0 38 -33 70t-85 58.5t-115.5 55t-127 68t-115.5 88t-85 124.5t-33 169q0 170 101.5 281.5t275.5 136.5v117h202v-119q65 -13 121 -42t93 -63
t67 -76.5t46 -75t28 -65.5l-291 -133q-14 30 -26 50t-33 43.5t-51.5 36t-69.5 12.5q-50 0 -81.5 -27.5t-31.5 -69.5q0 -39 33 -71.5t85.5 -59t116.5 -54t128 -64.5t116.5 -83.5t85.5 -118.5t33 -161q0 -170 -98.5 -288.5t-270.5 -153.5v-162h-202z" />
    <glyph glyph-name="percent" unicode="%" horiz-adv-x="1695" 
d="M1552 1434l-1081 -1434h-328l1082 1434h327zM1171 328q0 -49 32 -82t79 -33q51 0 82 33t31 82q0 46 -32 78t-81 32q-50 0 -80.5 -32t-30.5 -78zM918 326q0 149 103.5 251.5t258.5 102.5q160 0 264.5 -102.5t104.5 -251.5q0 -150 -104 -251.5t-263 -101.5t-261.5 100.5
t-102.5 252.5zM299 1108q0 -49 32 -82t79 -33q51 0 81.5 33t30.5 82q0 47 -31.5 79t-80.5 32t-80 -32.5t-31 -78.5zM45 1106q0 149 103.5 251.5t259.5 102.5q159 0 263.5 -102.5t104.5 -251.5q0 -150 -103.5 -251t-262.5 -101t-262 100t-103 252z" />
    <glyph glyph-name="ampersand" unicode="&#x26;" horiz-adv-x="1370" 
d="M1106 -53l-139 147q-67 -54 -163.5 -87.5t-211.5 -33.5q-256 0 -401.5 124t-145.5 323q0 132 58 228t176 179q-99 133 -99 256q0 166 118 271.5t312 105.5q206 0 322.5 -107.5t116.5 -277.5q0 -221 -234 -373l148 -143q22 51 22 129h318q0 -214 -109 -377l139 -151z
M598 281q48 0 87.5 15.5t59.5 37.5l-266 272q-44 -25 -66 -66.5t-22 -88.5q0 -81 61.5 -125.5t145.5 -44.5zM492 1065q0 -50 31.5 -93t92.5 -91q129 88 129 184q0 54 -34.5 88.5t-94.5 34.5q-54 0 -89 -35t-35 -88z" />
    <glyph glyph-name="quotesingle" unicode="'" horiz-adv-x="440" 
d="M84 1434h272l-10 -527h-252z" />
    <glyph glyph-name="parenleft" unicode="(" horiz-adv-x="716" 
d="M72 115v1089q0 228 128.5 350.5t389.5 122.5v-295q-180 0 -180 -172v-1101q0 -172 180 -172v-295q-262 0 -390 122t-128 351z" />
    <glyph glyph-name="parenright" unicode=")" horiz-adv-x="716" 
d="M645 1204v-1089q0 -229 -128 -351t-390 -122v295q180 0 180 172v1101q0 172 -180 172v295q261 0 389.5 -122.5t128.5 -350.5z" />
    <glyph glyph-name="asterisk" unicode="*" horiz-adv-x="894" 
d="M59 1145l113 190l162 -88v187h225v-187l162 88l110 -190l-159 -88l162 -86l-113 -193l-162 90v-188h-225v188l-162 -90l-113 191l162 88z" />
    <glyph glyph-name="plus" unicode="+" horiz-adv-x="1128" 
d="M72 504v270h350v373h285v-373h350v-270h-350v-375h-285v375h-350z" />
    <glyph glyph-name="comma" unicode="," horiz-adv-x="534" 
d="M80 -199q48 27 92.5 76t52.5 100q-76 18 -119 74.5t-43 124.5q0 85 59 145t144 60q89 0 149 -58.5t60 -162.5q0 -153 -71 -288t-191 -218z" />
    <glyph glyph-name="hyphen" unicode="-" horiz-adv-x="788" 
d="M96 473v307h594v-307h-594z" />
    <glyph glyph-name="period" unicode="." horiz-adv-x="534" 
d="M266 -27q-84 0 -143.5 59.5t-59.5 143.5q0 85 59 145t144 60t145 -60t60 -145q0 -83 -60 -143t-145 -60z" />
    <glyph glyph-name="slash" unicode="/" horiz-adv-x="954" 
d="M932 1536l-613 -1757h-296l612 1757h297z" />
    <glyph glyph-name="zero" unicode="0" horiz-adv-x="1202" 
d="M1110 717q0 -379 -122 -561.5t-388 -182.5t-388 182.5t-122 561.5t121.5 561t388.5 182t388.5 -182t121.5 -561zM444 717q0 -227 32 -321.5t124 -94.5t124 94.5t32 321.5t-32 321.5t-124 94.5t-124 -94.5t-32 -321.5z" />
    <glyph glyph-name="one" unicode="1" horiz-adv-x="729" 
d="M596 1434v-1434h-346v1092l-139 -43l-82 290l280 95h287z" />
    <glyph glyph-name="two" unicode="2" horiz-adv-x="1140" 
d="M1065 0h-981v125q0 84 33.5 167t87.5 151t119 133t130 122.5t119 109t87.5 102.5t33.5 94q0 64 -39 99.5t-106 35.5q-126 0 -172 -142l-303 90q12 51 33.5 99t61.5 99t92 89t130.5 62t171.5 24q216 0 352 -118.5t136 -323.5q0 -74 -26.5 -143.5t-70.5 -124.5
t-97.5 -105.5t-110 -94.5t-105.5 -83.5t-87 -81.5t-52 -80h563v-305z" />
    <glyph glyph-name="three" unicode="3" horiz-adv-x="1124" 
d="M557 -27q-93 0 -171.5 24t-130.5 62t-92 89t-61.5 99t-33.5 99l303 90q20 -63 65.5 -102t112.5 -39q72 0 115 42t43 112q0 63 -44 105t-124 42h-199v268l256 264h-469v306h870v-304l-260 -247q324 -67 324 -420q0 -218 -142 -354t-362 -136z" />
    <glyph glyph-name="four" unicode="4" horiz-adv-x="1232" 
d="M1180 319h-160v-319h-342v319h-627v248l557 867h412v-820h160v-295zM678 1059l-270 -445h270v445z" />
    <glyph glyph-name="five" unicode="5" horiz-adv-x="1128" 
d="M539 655q-50 0 -86.5 -20.5t-53.5 -44.5l-286 45l28 799h848v-306h-536l-11 -215q79 37 185 37q87 0 168.5 -31t145 -87t102 -141.5t38.5 -186.5q0 -232 -144.5 -381.5t-363.5 -149.5q-93 0 -173 24t-134.5 62t-96.5 88.5t-65.5 99.5t-35.5 99l303 90q17 -66 65.5 -103.5
t118.5 -37.5q73 0 122.5 50t49.5 130q0 70 -47 125t-141 55z" />
    <glyph glyph-name="six" unicode="6" horiz-adv-x="1167" 
d="M1030 1370l-133 -285q-84 48 -186 48q-63 0 -112.5 -18t-76.5 -44t-44.5 -59t-23 -57.5t-5.5 -45.5q82 60 223 60q90 0 166.5 -30.5t133.5 -89t89.5 -151.5t32.5 -211q0 -226 -138.5 -370t-359.5 -144q-120 0 -210.5 31.5t-149.5 87.5t-95.5 141t-51.5 182.5t-15 221.5
q0 131 17 244t60 222t110.5 186t176 124t248.5 47q197 0 344 -90zM590 657q-88 0 -162 -71q0 -43 1.5 -72.5t7 -66t17 -60t29.5 -45t47 -31.5t68 -10q75 0 113.5 47t38.5 127q0 82 -42 132t-118 50z" />
    <glyph glyph-name="seven" unicode="7" horiz-adv-x="1073" 
d="M1026 1188l-451 -1188h-378l440 1128h-590v306h979v-246z" />
    <glyph glyph-name="eight" unicode="8" horiz-adv-x="1171" 
d="M584 -27q-239 0 -378.5 123.5t-139.5 335.5q0 111 50 197t124 131q-58 42 -99 115.5t-41 166.5q0 182 132 300t354 118q221 0 353 -117.5t132 -300.5q0 -94 -41 -167.5t-100 -114.5q77 -46 126.5 -131t49.5 -197q0 -210 -142 -334.5t-380 -124.5zM586 588q-76 0 -120 -43
t-44 -107q0 -66 43 -106.5t121 -40.5q79 0 121.5 40t42.5 107q0 64 -43.5 107t-120.5 43zM586 1147q-67 0 -103.5 -35.5t-36.5 -91.5q0 -61 38 -95t102 -34t101.5 34t37.5 95q0 56 -36.5 91.5t-102.5 35.5z" />
    <glyph glyph-name="nine" unicode="9" horiz-adv-x="1167" 
d="M137 63l133 285q82 -47 187 -47q63 0 112.5 18t76.5 44t44.5 58.5t23 57t5.5 45.5q-81 -59 -223 -59q-90 0 -166.5 30.5t-133.5 89t-89.5 151t-32.5 210.5q0 226 138 370t359 144q120 0 211 -31.5t149.5 -87.5t95.5 -140.5t52 -182t15 -221.5q0 -130 -17 -243.5
t-60.5 -223t-111 -186.5t-176 -124t-248.5 -47q-197 0 -344 90zM578 776q86 0 161 72q0 43 -1.5 72.5t-7 66t-17 60t-29.5 45t-47 31.5t-68 10q-74 0 -112.5 -47t-38.5 -128q0 -82 42 -132t118 -50z" />
    <glyph glyph-name="colon" unicode=":" horiz-adv-x="534" 
d="M266 -27q-84 0 -143.5 59.5t-59.5 143.5q0 85 59 145t144 60t145 -60t60 -145q0 -83 -60 -143t-145 -60zM266 668q-84 0 -143.5 59t-59.5 143q0 85 59 145t144 60t145 -60t60 -145q0 -83 -60 -142.5t-145 -59.5z" />
    <glyph glyph-name="semicolon" unicode=";" horiz-adv-x="534" 
d="M266 668q-84 0 -143.5 59t-59.5 143q0 85 59 145t144 60t145 -60t60 -145q0 -83 -60 -142.5t-145 -59.5zM80 -199q48 27 92.5 76t52.5 100q-76 18 -119 74.5t-43 124.5q0 85 59 145t144 60q89 0 149 -58.5t60 -162.5q0 -153 -71 -288t-191 -218z" />
    <glyph glyph-name="less" unicode="&#x3c;" horiz-adv-x="1056" 
d="M94 518v244l869 389v-293l-551 -217l551 -217v-295z" />
    <glyph glyph-name="equal" unicode="=" horiz-adv-x="1128" 
d="M72 700v271h985v-271h-985zM72 289v270h985v-270h-985z" />
    <glyph glyph-name="greater" unicode="&#x3e;" horiz-adv-x="1056" 
d="M963 762v-244l-869 -389v295l551 217l-551 217v293z" />
    <glyph glyph-name="question" unicode="?" horiz-adv-x="1003" 
d="M625 512v-80h-332v103q0 56 17.5 105.5t45 86t60.5 69.5t66.5 61t61 55t45 58t17.5 64q0 52 -34.5 87.5t-100.5 35.5q-35 0 -62 -11t-45 -32.5t-27 -36t-20 -37.5l-268 121q13 39 33 76t57 79t83.5 72.5t117.5 51t154 20.5q202 0 331 -111.5t129 -291.5q0 -59 -18 -112
t-47 -92t-64 -74.5t-70.5 -66.5t-64.5 -61.5t-47 -66t-18 -72.5zM457 -27q-84 0 -143.5 59.5t-59.5 143.5q0 85 59 145t144 60t145 -60t60 -145q0 -83 -60 -143t-145 -60z" />
    <glyph glyph-name="at" unicode="@" horiz-adv-x="1867" 
d="M1153 258q-89 -131 -254 -131q-174 0 -278.5 112.5t-104.5 290.5q0 174 105 289t268 115q110 0 192 -64v52h250v-467q0 -57 21.5 -84t70.5 -27q63 0 99.5 74.5t36.5 204.5q0 270 -160 408t-451 138q-188 0 -331.5 -82.5t-219 -224.5t-75.5 -321q0 -285 176.5 -453
t478.5 -168q105 0 207 30t182 77l111 -177q-209 -147 -500 -147q-202 0 -371.5 60.5t-287 169t-183 262.5t-65.5 337q0 250 117.5 445.5t318 301t446.5 105.5q193 0 352.5 -55.5t267.5 -154t167 -237t59 -302.5q0 -232 -106.5 -369t-288.5 -137q-85 0 -151 35t-99 94z
M784 532q0 -74 42.5 -123t109.5 -49q65 0 108 47t43 125q0 69 -42 118.5t-109 49.5q-65 0 -108.5 -47.5t-43.5 -120.5z" />
    <glyph glyph-name="A" unicode="A" horiz-adv-x="1384" 
d="M918 322h-451l-102 -322h-353l496 1434h369l495 -1434h-352zM827 608l-135 455l-135 -455h270z" />
    <glyph glyph-name="B" unicode="B" horiz-adv-x="1202" 
d="M1149 428q0 -106 -38.5 -189t-106 -134.5t-156.5 -78t-193 -26.5h-528v1434h512q219 0 342 -100.5t123 -284.5q0 -94 -42 -175t-114 -122q201 -84 201 -324zM647 594h-172v-293h170q67 0 105 42t38 106q0 66 -36.5 105.5t-104.5 39.5zM621 1135h-146v-261h150q59 0 91 37
t32 97q0 59 -32 93t-95 34z" />
    <glyph glyph-name="C" unicode="C" horiz-adv-x="1290" 
d="M813 -27q-226 0 -400 98.5t-266 267.5t-92 380q0 156 56 293t155 235.5t241 155.5t306 57q242 0 418 -121l-98 -307q-151 101 -308 101q-96 0 -173.5 -33t-127.5 -90.5t-77 -132t-27 -158.5q0 -114 45.5 -207.5t139.5 -152t220 -58.5q165 0 314 100l98 -307
q-176 -121 -424 -121z" />
    <glyph glyph-name="D" unicode="D" horiz-adv-x="1359" 
d="M127 1434h422q348 0 552 -191t204 -526t-204 -526t-552 -191h-422v1434zM549 1130h-72v-827h72q181 0 286 106.5t105 307.5t-105 307t-286 106z" />
    <glyph glyph-name="E" unicode="E" horiz-adv-x="993" 
d="M907 0h-780v1434h764v-314h-414v-239h352v-312h-352v-256h430v-313z" />
    <glyph glyph-name="F" unicode="F" horiz-adv-x="966" 
d="M834 547h-357v-547h-350v1434h758v-314h-408v-262h357v-311z" />
    <glyph glyph-name="G" unicode="G" horiz-adv-x="1542" 
d="M1454 805v-606q-67 -52 -122.5 -86t-135.5 -69.5t-179.5 -53t-217.5 -17.5q-152 0 -287 52.5t-236 147.5t-160 237t-59 311q0 204 93.5 372.5t266 267.5t390.5 99q97 0 183.5 -17.5t147 -43.5t113.5 -62t83.5 -65.5t56.5 -61.5l-222 -229q-15 19 -41.5 42t-69.5 50.5
t-105.5 45.5t-129.5 18q-187 0 -295 -115.5t-108 -294.5q0 -195 114.5 -312.5t288.5 -117.5q117 0 197 30t108 58v127h-247v293h573z" />
    <glyph glyph-name="H" unicode="H" horiz-adv-x="1466" 
d="M1339 1434v-1434h-350v561h-512v-561h-350v1434h350v-557h512v557h350z" />
    <glyph glyph-name="I" unicode="I" horiz-adv-x="604" 
d="M477 1434v-1434h-350v1434h350z" />
    <glyph glyph-name="J" unicode="J" horiz-adv-x="796" 
d="M670 1434v-1061q0 -105 -34.5 -181.5t-96.5 -120t-137 -63.5t-166 -20q-102 0 -197 22l41 309q55 -10 110 -10q64 0 96.5 36t32.5 93v996h351z" />
    <glyph glyph-name="K" unicode="K" horiz-adv-x="1310" 
d="M477 1434v-553l418 553h391l-536 -686l546 -748h-401l-418 578v-578h-350v1434h350z" />
    <glyph glyph-name="L" unicode="L" horiz-adv-x="937" 
d="M907 0h-780v1434h350v-1121h430v-313z" />
    <glyph glyph-name="M" unicode="M" horiz-adv-x="1869" 
d="M1096 117h-322l-315 823v-940h-336v1434h455l356 -908l358 908h455v-1434h-336v940z" />
    <glyph glyph-name="N" unicode="N" horiz-adv-x="1470" 
d="M999 0l-532 879v-879h-344v1434h356l525 -889v889h344v-1434h-349z" />
    <glyph glyph-name="O" unicode="O" horiz-adv-x="1613" 
d="M807 -27q-222 0 -394.5 98.5t-265 268t-92.5 379.5q0 208 92.5 376t265 266.5t394.5 98.5t394.5 -98.5t265 -266.5t92.5 -376q0 -210 -92.5 -379.5t-265 -268t-394.5 -98.5zM807 1133q-170 0 -278.5 -117.5t-108.5 -296.5q0 -182 108.5 -300t278.5 -118t278.5 118
t108.5 300q0 179 -108.5 296.5t-278.5 117.5z" />
    <glyph glyph-name="P" unicode="P" horiz-adv-x="1144" 
d="M1106 971q0 -210 -126.5 -339.5t-334.5 -129.5h-168v-502h-350v1434h516q217 0 340 -124.5t123 -338.5zM596 1133h-119v-330h115q75 0 115.5 46t40.5 122q0 73 -40.5 117.5t-111.5 44.5z" />
    <glyph glyph-name="Q" unicode="Q" horiz-adv-x="1613" 
d="M807 -27q-222 0 -394.5 98.5t-265 268t-92.5 379.5q0 208 92.5 376t265 266.5t394.5 98.5t394.5 -98.5t265 -266.5t92.5 -376q0 -221 -107 -402l127 -110l-207 -240l-139 123q-185 -117 -426 -117zM807 1133q-170 0 -278.5 -117.5t-108.5 -296.5q0 -182 108.5 -300
t278.5 -118q84 0 154 31l-119 104l202 238l125 -109q25 84 25 154q0 179 -108.5 296.5t-278.5 117.5z" />
    <glyph glyph-name="R" unicode="R" horiz-adv-x="1239" 
d="M1096 993q0 -122 -51.5 -224t-147.5 -155l330 -614h-387l-256 530h-107v-530h-350v1434h467q251 0 376.5 -112.5t125.5 -328.5zM565 1133h-88v-310h105q72 0 113.5 42.5t41.5 115.5q0 74 -40 113t-132 39z" />
    <glyph glyph-name="S" unicode="S" horiz-adv-x="1083" 
d="M547 1460q87 0 162 -24.5t123 -60t87 -84t58.5 -86.5t32.5 -77l-291 -133q-14 30 -26 50t-33 43.5t-51.5 36t-69.5 12.5q-50 0 -81.5 -27.5t-31.5 -69.5q0 -39 33 -71.5t85.5 -59t116.5 -54t128 -64.5t116.5 -83.5t85.5 -118.5t33 -161q0 -202 -135.5 -328.5
t-366.5 -126.5q-92 0 -170.5 25.5t-129.5 63t-92 87t-61.5 88.5t-33.5 78l293 146q32 -68 89 -114t126 -46q62 0 94.5 26t32.5 74q0 38 -33 70t-85 58.5t-115.5 55t-127 68t-115.5 88t-85 124.5t-33 169q0 193 128.5 309.5t342.5 116.5z" />
    <glyph glyph-name="T" unicode="T" horiz-adv-x="1046" 
d="M1008 1120h-310v-1120h-350v1120h-309v314h969v-314z" />
    <glyph glyph-name="U" unicode="U" horiz-adv-x="1441" 
d="M721 -25q-283 0 -440.5 157t-157.5 419v883h350v-883q0 -117 66.5 -184.5t183.5 -67.5q118 0 182 67.5t64 186.5v881h350v-881q0 -126 -40.5 -232t-116 -183t-188.5 -120t-253 -43z" />
    <glyph glyph-name="V" unicode="V" horiz-adv-x="1437" 
d="M909 0h-381l-518 1434h385l324 -1020l323 1020h385z" />
    <glyph glyph-name="W" unicode="W" horiz-adv-x="2035" 
d="M1249 0l-231 901l-232 -901h-397l-373 1434h375l217 -1010l252 1010h316l251 -1010l218 1010h374l-372 -1434h-398z" />
    <glyph glyph-name="X" unicode="X" horiz-adv-x="1343" 
d="M426 1434l242 -439l241 439h412l-449 -711l455 -723h-389l-270 461l-271 -461h-389l455 723l-449 711h412z" />
    <glyph glyph-name="Y" unicode="Y" horiz-adv-x="1249" 
d="M799 0h-348v647l-439 787h394l219 -469l225 469h387l-438 -787v-647z" />
    <glyph glyph-name="Z" unicode="Z" horiz-adv-x="1245" 
d="M1176 0h-1113v223l635 901h-618v310h1089v-222l-641 -903h648v-309z" />
    <glyph glyph-name="bracketleft" unicode="[" horiz-adv-x="716" 
d="M72 -358v2035h518v-295h-180v-1445h180v-295h-518z" />
    <glyph glyph-name="backslash" unicode="\" horiz-adv-x="954" 
d="M635 -221l-612 1757h296l613 -1757h-297z" />
    <glyph glyph-name="bracketright" unicode="]" horiz-adv-x="716" 
d="M645 1677v-2035h-518v295h180v1445h-180v295h518z" />
    <glyph glyph-name="asciicircum" unicode="^" horiz-adv-x="1177" 
d="M727 1434l375 -783h-316l-198 459l-199 -459h-315l377 783h276z" />
    <glyph glyph-name="underscore" unicode="_" horiz-adv-x="1265" 
d="M41 -324v265h1184v-265h-1184z" />
    <glyph glyph-name="grave" unicode="`" horiz-adv-x="983" 
d="M248 1485h354l135 -297h-284z" />
    <glyph glyph-name="a" unicode="a" horiz-adv-x="1093" 
d="M41 334q0 161 114 258.5t304 97.5q112 0 207 -39v39q0 52 -42 84.5t-122 32.5q-132 0 -271 -68l-127 230q201 133 439 133q135 0 228.5 -32.5t144 -94.5t71.5 -136.5t21 -172.5v-666h-306l-18 59q-86 -86 -244 -86q-108 0 -197 40.5t-145.5 124.5t-56.5 196zM383 346
q0 -52 41 -81t104 -29q64 0 104 29t40 81q0 54 -41 84.5t-105 30.5q-62 0 -102.5 -31.5t-40.5 -83.5z" />
    <glyph glyph-name="b" unicode="b" horiz-adv-x="1280" 
d="M430 535q0 -112 62.5 -187.5t169.5 -75.5q103 0 167 72t64 191t-63.5 192.5t-167.5 73.5t-168 -70.5t-64 -195.5zM418 84v-84h-320v1481h342v-488q29 34 105 71.5t182 37.5q231 0 369.5 -156t138.5 -409q0 -248 -147 -406t-379 -158q-104 0 -180.5 36.5t-110.5 74.5z" />
    <glyph glyph-name="c" unicode="c" horiz-adv-x="980" 
d="M649 274q111 0 203 76l90 -280q-143 -97 -315 -97q-256 0 -420 158t-164 406q0 246 166 405.5t416 159.5q178 0 319 -98l-92 -289q-96 80 -215 80q-118 0 -185 -72.5t-67 -183.5q0 -119 73 -192t191 -73z" />
    <glyph glyph-name="d" unicode="d" horiz-adv-x="1280" 
d="M850 535q0 125 -64 195.5t-168 70.5t-167.5 -73.5t-63.5 -192.5t64 -191t167 -72q107 0 169.5 75.5t62.5 187.5zM862 0v84q-34 -38 -110.5 -74.5t-180.5 -36.5q-232 0 -379 158t-147 406q0 253 138.5 409t369.5 156q106 0 182 -37.5t105 -71.5v488h342v-1481h-320z" />
    <glyph glyph-name="e" unicode="e" horiz-adv-x="1140" 
d="M1100 449h-705q6 -74 70.5 -126.5t157.5 -52.5q84 0 142.5 38.5t82.5 76.5l225 -174q-14 -29 -46.5 -64.5t-87 -77t-140 -69t-183.5 -27.5q-173 0 -304 74.5t-199 201.5t-68 286q0 157 65.5 286t187 205t275.5 76q255 0 392 -154.5t137 -431.5q0 -42 -2 -67zM580 825
q-79 0 -123 -47.5t-51 -111.5h348q-3 67 -50 113t-124 46z" />
    <glyph glyph-name="f" unicode="f" horiz-adv-x="700" 
d="M496 1098v-23h168v-276h-168v-799h-342v799h-113v276h113v31q0 82 23 147.5t62 108.5t94 71t116 40t131 12q26 0 104 -4v-287q-24 4 -55 4q-133 0 -133 -100z" />
    <glyph glyph-name="g" unicode="g" horiz-adv-x="1269" 
d="M838 55v27q-29 -34 -105 -71.5t-182 -37.5q-231 0 -369.5 156.5t-138.5 409.5q0 248 147 405.5t379 157.5q104 0 180.5 -36.5t110.5 -74.5v84h320v-946q0 -116 -31.5 -206.5t-86 -149t-131.5 -96.5t-162 -54t-185 -16q-108 0 -214 26t-184 66l101 262q144 -65 297 -65
q254 0 254 159zM848 541q0 111 -63.5 185.5t-170.5 74.5q-103 0 -166 -70.5t-63 -189.5t63.5 -193t167.5 -74t168 71t64 196z" />
    <glyph glyph-name="h" unicode="h" horiz-adv-x="1165" 
d="M733 0v641q0 73 -39 113.5t-102 40.5q-69 0 -110.5 -44t-41.5 -110v-641h-342v1481h342v-516q36 56 105 96.5t162 40.5q70 0 126 -17t94 -44.5t66 -69.5t43.5 -83.5t24.5 -96t11.5 -98t2.5 -97.5v-596h-342z" />
    <glyph glyph-name="i" unicode="i" 
d="M440 1075v-1075h-342v1075h342zM266 1141q-82 0 -136 52.5t-54 131.5q0 81 54 133.5t136 52.5t137.5 -52.5t55.5 -133.5q0 -79 -55.5 -131.5t-137.5 -52.5z" />
    <glyph glyph-name="j" unicode="j" 
d="M440 1075v-1079q0 -105 -33.5 -182t-95.5 -121.5t-141.5 -65t-179.5 -20.5l-76 6v289q26 -4 49 -4q135 0 135 114v1063h342zM266 1141q-82 0 -136 52.5t-54 131.5q0 81 54 133.5t136 52.5t137.5 -52.5t55.5 -133.5q0 -79 -55.5 -131.5t-137.5 -52.5z" />
    <glyph glyph-name="k" unicode="k" horiz-adv-x="1144" 
d="M1114 1075l-346 -491l375 -584h-402l-301 502v-502h-342v1481h342v-838l291 432h383z" />
    <glyph glyph-name="l" unicode="l" 
d="M98 0v1481h342v-1481h-342z" />
    <glyph glyph-name="m" unicode="m" horiz-adv-x="1736" 
d="M1042 641v-641h-342v641q0 72 -34 113t-95 41t-96 -40.5t-35 -113.5v-641h-342v1075h334v-110q32 57 99.5 97t166.5 40q188 0 279 -141q111 141 305 141q180 0 272.5 -105t92.5 -282v-715h-342v641q0 72 -35 113t-96 41q-60 0 -96 -42.5t-36 -111.5z" />
    <glyph glyph-name="n" unicode="n" horiz-adv-x="1161" 
d="M729 0v641q0 73 -39 113.5t-102 40.5q-69 0 -108.5 -43.5t-39.5 -110.5v-641h-342v1075h334v-110q36 55 106.5 96t163.5 41q70 0 126 -17t94 -44.5t66 -69.5t43.5 -83.5t25 -96t12 -98t2.5 -97.5v-596h-342z" />
    <glyph glyph-name="o" unicode="o" horiz-adv-x="1259" 
d="M43 535q0 160 76.5 290.5t210 203.5t297.5 73q259 0 424.5 -159t165.5 -404q0 -160 -76 -289.5t-211 -203t-303 -73.5t-302 72.5t-208 201t-74 288.5zM385 535q0 -116 68.5 -188.5t173.5 -72.5q106 0 176.5 75t70.5 190q0 117 -70.5 189.5t-176.5 72.5t-174 -74t-68 -192
z" />
    <glyph glyph-name="p" unicode="p" horiz-adv-x="1280" 
d="M430 541q0 -125 64 -196t168 -71t167.5 74t63.5 193t-64 190.5t-167 71.5q-107 0 -169.5 -75.5t-62.5 -186.5zM418 1075v-84q34 38 110.5 74.5t180.5 36.5q232 0 379 -157.5t147 -405.5q0 -253 -138.5 -409.5t-369.5 -156.5q-106 0 -182 37.5t-105 71.5v-465h-342v1458
h320z" />
    <glyph glyph-name="q" unicode="q" horiz-adv-x="1280" 
d="M850 541q0 111 -62.5 186.5t-169.5 75.5q-103 0 -167 -71.5t-64 -190.5t63.5 -193t167.5 -74t168 71t64 196zM862 991v84h320v-1458h-342v465q-29 -34 -105 -71.5t-182 -37.5q-231 0 -369.5 156.5t-138.5 409.5q0 248 147 405.5t379 157.5q104 0 180.5 -36.5t110.5 -74.5
z" />
    <glyph glyph-name="r" unicode="r" horiz-adv-x="755" 
d="M717 1102v-348q-28 4 -55 4q-222 0 -222 -283v-475h-342v1075h334v-143q39 80 113 125t172 45z" />
    <glyph glyph-name="s" unicode="s" horiz-adv-x="909" 
d="M442 -27q-141 0 -249.5 55t-163.5 130l192 186q105 -94 238 -94q96 0 96 59q0 24 -27 43t-70.5 34t-96 32.5t-105 45t-96 65t-70.5 99.5t-27 142q0 152 117.5 242t296.5 90q250 0 385 -184l-221 -175q-84 84 -178 84q-37 0 -57.5 -14t-20.5 -39q0 -27 27.5 -46.5
t71 -33.5t96.5 -29.5t106 -40.5t96.5 -60.5t71 -96t27.5 -139.5q0 -161 -125 -258t-314 -97z" />
    <glyph glyph-name="t" unicode="t" horiz-adv-x="720" 
d="M469 1303v-228h182v-276h-182v-396q0 -116 133 -116q34 0 57 2v-293q-45 -12 -131 -12q-198 0 -299.5 102.5t-101.5 333.5v379h-104v276h104v228h342z" />
    <glyph glyph-name="u" unicode="u" horiz-adv-x="1153" 
d="M432 1075v-641q0 -73 39 -113t102 -40q69 0 108.5 43t39.5 110v641h342v-1075h-334v111q-36 -55 -106.5 -96.5t-163.5 -41.5q-70 0 -126 17t-94 44.5t-66 69.5t-43.5 83.5t-25 96t-12 98t-2.5 97.5v596h342z" />
    <glyph glyph-name="v" unicode="v" horiz-adv-x="1142" 
d="M373 1075l202 -713l203 713h357l-363 -1075h-397l-369 1075h367z" />
    <glyph glyph-name="w" unicode="w" horiz-adv-x="1708" 
d="M1008 0l-154 608l-154 -608h-385l-301 1075h373l145 -702l162 702h320l162 -702l145 702h373l-301 -1075h-385z" />
    <glyph glyph-name="x" unicode="x" horiz-adv-x="1118" 
d="M748 0l-189 289l-188 -289h-367l367 545l-357 530h381l164 -289l164 289h381l-356 -530l366 -545h-366z" />
    <glyph glyph-name="y" unicode="y" horiz-adv-x="1138" 
d="M1124 1075l-532 -1442h-324l146 402l-402 1040h367l190 -618l199 618h356z" />
    <glyph glyph-name="z" unicode="z" horiz-adv-x="964" 
d="M903 868l-420 -583h424v-285h-852v205l418 586h-407v284h837v-207z" />
    <glyph glyph-name="braceleft" unicode="{" horiz-adv-x="843" 
d="M360 659q19 -4 45.5 -20t57.5 -45.5t52.5 -82.5t21.5 -118v-284q0 -172 180 -172v-295q-261 0 -389.5 122.5t-128.5 350.5v213q0 51 -15 87t-39 53t-47 23.5t-47 6.5v323q24 0 47 6.5t47 23.5t39 53t15 87v213q0 228 128.5 350.5t389.5 122.5v-295q-180 0 -180 -172v-284
q0 -65 -21.5 -118t-52.5 -83t-57.5 -46t-45.5 -20z" />
    <glyph glyph-name="bar" unicode="|" horiz-adv-x="608" 
d="M465 1731v-2243h-322v2243h322z" />
    <glyph glyph-name="braceright" unicode="}" horiz-adv-x="843" 
d="M483 659q-19 4 -45.5 20t-57.5 46t-52 83t-21 118v284q0 172 -180 172v295q261 0 389.5 -122.5t128.5 -350.5v-213q0 -51 15 -87t39 -53t47 -23.5t47 -6.5v-323q-24 0 -47 -6.5t-47 -23.5t-39 -53t-15 -87v-213q0 -228 -128.5 -350.5t-389.5 -122.5v295q180 0 180 172
v284q0 65 21 118t52 82.5t57.5 45.5t45.5 20z" />
    <glyph glyph-name="asciitilde" unicode="~" horiz-adv-x="1128" 
d="M741 426q-68 0 -179.5 43t-153.5 43q-39 0 -61.5 -24t-22.5 -64h-263q0 180 88.5 289.5t235.5 109.5q58 0 121 -21.5t118 -43t95 -21.5q39 0 61.5 24t22.5 64h262q0 -180 -88.5 -289.5t-235.5 -109.5z" />
    <glyph glyph-name="exclamdown" unicode="&#xa1;" horiz-adv-x="632" 
d="M315 1147q85 0 145 -60t60 -143q0 -85 -60 -145t-145 -60q-84 0 -143 60t-59 145q0 84 59 143.5t143 59.5zM471 688l27 -1001h-363l27 1001h309z" />
    <glyph glyph-name="cent" unicode="&#xa2;" horiz-adv-x="980" 
d="M530 0v135q-219 29 -353 180.5t-134 374.5q0 221 135.5 374.5t351.5 182.5v187h203v-189q118 -22 211 -88l-92 -289q-96 80 -215 80q-118 0 -185 -72.5t-67 -183.5q0 -118 72.5 -191t191.5 -73q111 0 203 76l90 -281q-92 -64 -209 -86v-137h-203z" />
    <glyph glyph-name="sterling" unicode="&#xa3;" horiz-adv-x="1191" 
d="M524 995v-161h305v-259h-305v-270h600v-305h-1056v305h110v270h-98v259h98v180q0 199 127.5 322.5t349.5 123.5q80 0 149 -22t114.5 -55t82 -77.5t55.5 -83.5t31 -79l-282 -121q-14 45 -49 80t-97 35t-98.5 -39.5t-36.5 -102.5z" />
    <glyph glyph-name="yen" unicode="&#xa5;" horiz-adv-x="1249" 
d="M799 0h-348v303h-299v219h299v127h-299v219h176l-316 566h394l219 -469l225 469h387l-315 -566h176v-219h-299v-127h299v-219h-299v-303z" />
    <glyph glyph-name="section" unicode="&#xa7;" horiz-adv-x="1081" 
d="M1014 485q0 -176 -172 -266q74 -60 114.5 -130t40.5 -163q0 -175 -121.5 -284t-326.5 -109q-86 0 -163 24.5t-129 60.5t-94 83t-65 87t-35 77l287 125q25 -55 78.5 -98.5t120.5 -43.5q42 0 70 21.5t28 60.5q0 40 -28.5 70t-88.5 66l-239 143q-111 65 -168 146t-57 194
q0 176 172 266q-74 60 -115 130t-41 163q0 175 121.5 284t326.5 109q86 0 163 -24.5t129 -60.5t94 -83t65 -87t35 -77l-287 -125q-25 55 -78.5 98.5t-120.5 43.5q-42 0 -70 -21.5t-28 -60.5q0 -40 28 -69.5t89 -65.5l239 -144q111 -66 168.5 -146.5t57.5 -193.5zM694 479
q0 53 -49 78l-158 84q-49 0 -75.5 -24.5t-26.5 -61.5q0 -53 49 -78l158 -84q49 0 75.5 24.5t26.5 61.5z" />
    <glyph glyph-name="dieresis" unicode="&#xa8;" horiz-adv-x="983" 
d="M285 1180q-69 0 -113.5 45.5t-44.5 111.5t44.5 112t113.5 46q68 0 112.5 -46t44.5 -112t-44.5 -111.5t-112.5 -45.5zM696 1180q-69 0 -113 45.5t-44 111.5t44 112t113 46q68 0 113 -46t45 -112q0 -65 -45 -111t-113 -46z" />
    <glyph glyph-name="copyright" unicode="&#xa9;" horiz-adv-x="1605" 
d="M803 168q231 0 375.5 155t144.5 396q0 237 -144.5 391t-375.5 154t-375.5 -154t-144.5 -391q0 -241 144.5 -396t375.5 -155zM436 717q0 167 105 280t268 113q61 0 114 -16.5t89 -44t58.5 -51.5t39.5 -50l-178 -139q-45 72 -121 72q-57 0 -91 -45.5t-34 -118.5t34 -118.5
t91 -45.5q76 0 121 72l178 -140q-17 -26 -39.5 -50t-58.5 -51t-89 -43.5t-114 -16.5q-163 0 -268 113t-105 280zM803 1460q209 0 378.5 -98.5t264 -269t94.5 -379.5q0 -206 -94.5 -375.5t-264 -268t-378.5 -98.5t-378.5 98.5t-264 268t-94.5 375.5q0 209 94.5 379.5t264 269
t378.5 98.5z" />
    <glyph glyph-name="ordfeminine" unicode="&#xaa;" horiz-adv-x="845" 
d="M59 885q0 121 85.5 193.5t228.5 72.5q83 0 155 -29v29q0 39 -31.5 63.5t-90.5 24.5q-103 0 -203 -51l-97 172q151 100 330 100q100 0 170 -24.5t108 -71t54 -102.5t16 -129v-498h-229l-14 43q-64 -64 -183 -64q-125 0 -212 72.5t-87 198.5zM315 893q0 -38 31.5 -60
t77.5 -22q47 0 77.5 21.5t30.5 60.5q0 40 -30.5 63t-77.5 23t-78 -23.5t-31 -62.5z" />
    <glyph glyph-name="guillemotleft" unicode="&#xab;" horiz-adv-x="1067" 
d="M600 217h-301l-248 389l248 389h301l-250 -389zM1016 217h-299l-250 389l250 389h299l-250 -389z" />
    <glyph glyph-name="registered" unicode="&#xae;" horiz-adv-x="925" 
d="M455 1022h-35v-148h-133v443h200q74 0 115 -40t41 -106q0 -95 -70 -124l82 -173h-137zM467 1206h-47v-80h47q17 0 28 11t11 30q0 18 -10.5 28.5t-28.5 10.5zM29 1092q0 182 120 305t308 123q197 0 317.5 -121t120.5 -305q0 -181 -120 -304.5t-314 -123.5t-313 121
t-119 305zM152 1092q0 -136 84.5 -225t224.5 -89q143 0 226 88t83 228t-83.5 225.5t-229.5 85.5q-138 0 -221.5 -87.5t-83.5 -225.5z" />
    <glyph glyph-name="macron" unicode="&#xaf;" horiz-adv-x="905" 
d="M164 1210v244h575v-244h-575z" />
    <glyph glyph-name="degree" unicode="&#xb0;" horiz-adv-x="798" 
d="M399 776q-152 0 -252 98t-100 242t100.5 244t251.5 100t252 -100t101 -244t-100.5 -242t-252.5 -98zM399 1233q-53 0 -83.5 -33.5t-30.5 -81.5q0 -49 30 -81.5t84 -32.5t84.5 32.5t30.5 81.5q0 48 -31 81.5t-84 33.5z" />
    <glyph glyph-name="twosuperior" unicode="&#xb2;" horiz-adv-x="757" 
d="M702 616h-636v105q0 49 20 94t52.5 79t71.5 65t78 57t71.5 49.5t52.5 48t20 47.5q0 30 -19.5 48t-52.5 18q-40 0 -63.5 -23.5t-40.5 -62.5l-201 71q10 37 31 74t57 76t95.5 63.5t132.5 24.5q138 0 229.5 -73.5t91.5 -205.5q0 -57 -28 -105.5t-70 -82.5t-85.5 -60.5
t-82 -52.5t-51.5 -47h327v-207z" />
    <glyph glyph-name="threesuperior" unicode="&#xb3;" horiz-adv-x="749" 
d="M92 1434h572v-160l-168 -160q88 -9 142 -72t54 -163q0 -132 -91.5 -205.5t-229.5 -73.5q-73 0 -132.5 24.5t-95.5 63.5t-57 76t-31 74l201 71q17 -39 40.5 -62.5t63.5 -23.5q34 0 55 19.5t21 52.5q0 35 -25 54.5t-67 19.5h-100v157l102 103h-254v205z" />
    <glyph glyph-name="acute" unicode="&#xb4;" horiz-adv-x="983" 
d="M381 1485h354l-205 -297h-284z" />
    <glyph glyph-name="paragraph" unicode="&#xb6;" horiz-adv-x="1159" 
d="M713 -92h-260v747q-162 2 -273.5 114t-111.5 278q0 167 112 277t281 110h252v-1526zM1090 1434v-1526h-261v1526h261z" />
    <glyph glyph-name="periodcentered" unicode="&#xb7;" horiz-adv-x="534" 
d="M266 440q-84 0 -143.5 59.5t-59.5 143.5q0 85 59 145t144 60t145 -60t60 -145q0 -83 -60 -143t-145 -60z" />
    <glyph glyph-name="cedilla" unicode="&#xb8;" horiz-adv-x="905" 
d="M373 -485q-65 0 -135 24l41 164q40 -10 69 -10q33 0 54.5 15.5t21.5 41.5q0 28 -28 40.5t-64 12.5l-37 -2l37 226h168l-15 -99q73 -17 112.5 -67t39.5 -127q0 -108 -73 -163.5t-191 -55.5z" />
    <glyph glyph-name="onesuperior" unicode="&#xb9;" horiz-adv-x="618" 
d="M473 1434v-818h-252v570l-80 -27l-61 213l184 62h209z" />
    <glyph glyph-name="ordmasculine" unicode="&#xba;" horiz-adv-x="997" 
d="M59 1034q0 184 125.5 305t313.5 121q194 0 317 -119t123 -303q0 -183 -125 -303.5t-315 -120.5q-193 0 -316 119t-123 301zM317 1034q0 -85 51 -138.5t130 -53.5t131.5 55t52.5 141t-53 140.5t-131 54.5q-80 0 -130.5 -55t-50.5 -144z" />
    <glyph glyph-name="guillemotright" unicode="&#xbb;" horiz-adv-x="1067" 
d="M768 217h-301l250 389l-250 389h301l248 -389zM350 217h-299l250 389l-250 389h299l250 -389z" />
    <glyph glyph-name="onequarter" unicode="&#xbc;" horiz-adv-x="1746" 
d="M1368 1518l-754 -1602h-288l751 1602h291zM1692 143h-93v-143h-243v143h-375v187l346 487h272v-461h93v-213zM1356 573l-146 -217h146v217zM473 1434v-818h-252v570l-80 -27l-61 213l184 62h209z" />
    <glyph glyph-name="onehalf" unicode="&#xbd;" horiz-adv-x="1771" 
d="M1343 1518l-753 -1602h-289l752 1602h290zM473 1434v-818h-252v570l-80 -27l-61 213l184 62h209zM1692 0h-637v104q0 57 27 108.5t68 88t88 71.5t88 61.5t68 56t27 55.5q0 30 -19 47.5t-52 17.5q-67 0 -105 -86l-201 72q10 37 31 74t57 76t95.5 63.5t132.5 24.5
q138 0 229.5 -73.5t91.5 -205.5q0 -57 -28 -105.5t-70 -82.5t-85.5 -60.5t-82 -52.5t-51.5 -47h328v-207z" />
    <glyph glyph-name="threequarters" unicode="&#xbe;" horiz-adv-x="1828" 
d="M92 1434h572v-160l-168 -160q88 -9 142 -72t54 -163q0 -132 -91.5 -205.5t-229.5 -73.5q-73 0 -132.5 24.5t-95.5 63.5t-57 76t-31 74l201 71q17 -39 40.5 -62.5t63.5 -23.5q34 0 55 19.5t21 52.5q0 35 -25 54.5t-67 19.5h-100v157l102 103h-254v205zM1454 1518
l-754 -1602h-288l751 1602h291zM1765 143h-92v-143h-243v143h-375v187l346 487h272v-461h92v-213zM1430 573l-146 -217h146v217z" />
    <glyph glyph-name="questiondown" unicode="&#xbf;" horiz-adv-x="1003" 
d="M379 608v80h332v-102q0 -76 -32.5 -141t-78.5 -109t-92 -82.5t-78.5 -81t-32.5 -86.5q0 -52 34.5 -87.5t100.5 -35.5q35 0 62 11t45 32.5t27 36t20 37.5l268 -121q-13 -40 -33 -76.5t-56.5 -78.5t-83.5 -72.5t-117.5 -51t-153.5 -20.5q-203 0 -332 111.5t-129 291.5
q0 69 24.5 129t61 101t79.5 82.5t79.5 74t61 74t24.5 84.5zM547 1147q84 0 143.5 -59.5t59.5 -143.5q0 -85 -59 -145t-144 -60t-145 60t-60 145q0 83 60 143t145 60z" />
    <glyph glyph-name="Agrave" unicode="&#xc0;" horiz-adv-x="1384" 
d="M918 322h-451l-102 -322h-353l496 1434h369l495 -1434h-352zM827 608l-135 455l-135 -455h270zM358 1802h355l135 -297h-285z" />
    <glyph glyph-name="Aacute" unicode="&#xc1;" horiz-adv-x="1384" 
d="M918 322h-451l-102 -322h-353l496 1434h369l495 -1434h-352zM827 608l-135 455l-135 -455h270zM657 1802h355l-205 -297h-285z" />
    <glyph glyph-name="Acircumflex" unicode="&#xc2;" horiz-adv-x="1384" 
d="M918 322h-451l-102 -322h-353l496 1434h369l495 -1434h-352zM827 608l-135 455l-135 -455h270zM522 1802h344l197 -297h-283l-84 133l-86 -133h-284z" />
    <glyph glyph-name="Atilde" unicode="&#xc3;" horiz-adv-x="1384" 
d="M918 322h-451l-102 -322h-353l496 1434h369l495 -1434h-352zM827 608l-135 455l-135 -455h270zM836 1509q-62 0 -145 34t-109 34q-29 0 -45.5 -18t-16.5 -52h-209q0 135 66.5 219t175.5 84q65 0 146 -33.5t106 -33.5q59 0 59 69h209q0 -139 -64.5 -221t-172.5 -82z" />
    <glyph glyph-name="Adieresis" unicode="&#xc4;" horiz-adv-x="1384" 
d="M918 322h-451l-102 -322h-353l496 1434h369l495 -1434h-352zM827 608l-135 455l-135 -455h270zM485 1507q-69 0 -113 46t-44 112t44 112t113 46q68 0 113 -46t45 -112t-45 -112t-113 -46zM897 1507q-69 0 -113.5 46t-44.5 112t44.5 112t113.5 46q68 0 113 -46t45 -112
t-45 -112t-113 -46z" />
    <glyph glyph-name="Aring" unicode="&#xc5;" horiz-adv-x="1384" 
d="M918 322h-451l-102 -322h-353l496 1434h369l495 -1434h-352zM827 608l-135 455l-135 -455h270zM690 1491q-100 0 -167.5 60.5t-67.5 154.5q0 95 67.5 156t167.5 61q102 0 170 -60.5t68 -154.5q0 -96 -68 -156.5t-170 -60.5zM692 1630q33 0 53.5 21.5t20.5 56.5
q0 34 -21 55t-53 21q-34 0 -54 -21t-20 -55q0 -35 20 -56.5t54 -21.5z" />
    <glyph glyph-name="AE" unicode="&#xc6;" horiz-adv-x="1804" 
d="M1718 0h-780v322h-379l-162 -322h-381l758 1434h928v-314h-414v-239h352v-312h-352v-256h430v-313zM686 608h252v500z" />
    <glyph glyph-name="Ccedilla" unicode="&#xc7;" horiz-adv-x="1290" 
d="M666 -485q-66 0 -136 24l41 164q40 -10 70 -10q33 0 54.5 15.5t21.5 41.5q0 28 -28 40.5t-64 12.5l-37 -2l30 193q-172 37 -300.5 140.5t-195.5 254t-67 330.5q0 156 56 293t155 235.5t241 155.5t306 57q242 0 418 -121l-98 -307q-151 101 -308 101q-96 0 -173.5 -33
t-127.5 -90.5t-77 -132t-27 -158.5q0 -114 45.5 -207.5t139.5 -152t220 -58.5q165 0 314 100l98 -307q-176 -121 -424 -121l-29 2l-6 -47q73 -17 112.5 -67t39.5 -127q0 -108 -73 -163.5t-191 -55.5z" />
    <glyph glyph-name="Egrave" unicode="&#xc8;" horiz-adv-x="993" 
d="M907 0h-780v1434h764v-314h-414v-239h352v-312h-352v-256h430v-313zM213 1802h354l135 -297h-284z" />
    <glyph glyph-name="Eacute" unicode="&#xc9;" horiz-adv-x="993" 
d="M907 0h-780v1434h764v-314h-414v-239h352v-312h-352v-256h430v-313zM473 1802h354l-204 -297h-285z" />
    <glyph glyph-name="Ecircumflex" unicode="&#xca;" horiz-adv-x="993" 
d="M907 0h-780v1434h764v-314h-414v-239h352v-312h-352v-256h430v-313zM340 1802h344l197 -297h-283l-84 133l-86 -133h-285z" />
    <glyph glyph-name="Edieresis" unicode="&#xcb;" horiz-adv-x="993" 
d="M907 0h-780v1434h764v-314h-414v-239h352v-312h-352v-256h430v-313zM301 1507q-69 0 -113.5 46t-44.5 112t44.5 112t113.5 46q68 0 113 -46t45 -112t-45 -112t-113 -46zM713 1507q-69 0 -113.5 46t-44.5 112t44.5 112t113.5 46q68 0 112.5 -46t44.5 -112t-44.5 -112
t-112.5 -46z" />
    <glyph glyph-name="Igrave" unicode="&#xcc;" horiz-adv-x="604" 
d="M477 1434v-1434h-350v1434h350zM2 1802h354l136 -297h-285z" />
    <glyph glyph-name="Iacute" unicode="&#xcd;" horiz-adv-x="604" 
d="M477 1434v-1434h-350v1434h350zM268 1802h355l-205 -297h-285z" />
    <glyph glyph-name="Icircumflex" unicode="&#xce;" horiz-adv-x="604" 
d="M477 1434v-1434h-350v1434h350zM131 1802h344l197 -297h-283l-84 133l-86 -133h-285z" />
    <glyph glyph-name="Idieresis" unicode="&#xcf;" horiz-adv-x="604" 
d="M477 1434v-1434h-350v1434h350zM106 1507q-69 0 -113 46t-44 112t44 112t113 46q68 0 113 -46t45 -112t-45 -112t-113 -46zM518 1507q-69 0 -113.5 46t-44.5 112t44.5 112t113.5 46q68 0 113 -46t45 -112t-45 -112t-113 -46z" />
    <glyph glyph-name="Eth" unicode="&#xd0;" horiz-adv-x="1388" 
d="M156 1434h422q348 0 551.5 -191t203.5 -526t-203.5 -526t-551.5 -191h-422v567h-111v305h111v562zM506 1130v-258h188v-305h-188v-264h72q181 0 286 106.5t105 307.5t-105 307t-286 106h-72z" />
    <glyph glyph-name="Ntilde" unicode="&#xd1;" horiz-adv-x="1470" 
d="M999 0l-532 879v-879h-344v1434h356l525 -889v889h344v-1434h-349zM879 1509q-61 0 -145 34t-109 34q-29 0 -45.5 -18t-16.5 -52h-209q0 135 66.5 219t175.5 84q65 0 146 -33.5t106 -33.5q59 0 59 69h209q0 -139 -64.5 -221t-172.5 -82z" />
    <glyph glyph-name="Ograve" unicode="&#xd2;" horiz-adv-x="1613" 
d="M807 -27q-222 0 -394.5 98.5t-265 268t-92.5 379.5q0 208 92.5 376t265 266.5t394.5 98.5t394.5 -98.5t265 -266.5t92.5 -376q0 -210 -92.5 -379.5t-265 -268t-394.5 -98.5zM807 1133q-170 0 -278.5 -117.5t-108.5 -296.5q0 -182 108.5 -300t278.5 -118t278.5 118
t108.5 300q0 179 -108.5 296.5t-278.5 117.5zM485 1802h355l135 -297h-285z" />
    <glyph glyph-name="Oacute" unicode="&#xd3;" horiz-adv-x="1613" 
d="M807 -27q-222 0 -394.5 98.5t-265 268t-92.5 379.5q0 208 92.5 376t265 266.5t394.5 98.5t394.5 -98.5t265 -266.5t92.5 -376q0 -210 -92.5 -379.5t-265 -268t-394.5 -98.5zM807 1133q-170 0 -278.5 -117.5t-108.5 -296.5q0 -182 108.5 -300t278.5 -118t278.5 118
t108.5 300q0 179 -108.5 296.5t-278.5 117.5zM774 1802h354l-204 -297h-285z" />
    <glyph glyph-name="Ocircumflex" unicode="&#xd4;" horiz-adv-x="1613" 
d="M807 -27q-222 0 -394.5 98.5t-265 268t-92.5 379.5q0 208 92.5 376t265 266.5t394.5 98.5t394.5 -98.5t265 -266.5t92.5 -376q0 -210 -92.5 -379.5t-265 -268t-394.5 -98.5zM807 1133q-170 0 -278.5 -117.5t-108.5 -296.5q0 -182 108.5 -300t278.5 -118t278.5 118
t108.5 300q0 179 -108.5 296.5t-278.5 117.5zM631 1802h344l196 -297h-282l-84 133l-86 -133h-285z" />
    <glyph glyph-name="Otilde" unicode="&#xd5;" horiz-adv-x="1613" 
d="M807 -27q-222 0 -394.5 98.5t-265 268t-92.5 379.5q0 208 92.5 376t265 266.5t394.5 98.5t394.5 -98.5t265 -266.5t92.5 -376q0 -210 -92.5 -379.5t-265 -268t-394.5 -98.5zM807 1133q-170 0 -278.5 -117.5t-108.5 -296.5q0 -182 108.5 -300t278.5 -118t278.5 118
t108.5 300q0 179 -108.5 296.5t-278.5 117.5zM950 1509q-62 0 -145 34t-109 34q-61 0 -61 -70h-209q0 135 66.5 219t175.5 84q65 0 146 -33.5t106 -33.5q59 0 59 69h209q0 -139 -65 -221t-173 -82z" />
    <glyph glyph-name="Odieresis" unicode="&#xd6;" horiz-adv-x="1613" 
d="M807 -27q-222 0 -394.5 98.5t-265 268t-92.5 379.5q0 208 92.5 376t265 266.5t394.5 98.5t394.5 -98.5t265 -266.5t92.5 -376q0 -210 -92.5 -379.5t-265 -268t-394.5 -98.5zM807 1133q-170 0 -278.5 -117.5t-108.5 -296.5q0 -182 108.5 -300t278.5 -118t278.5 118
t108.5 300q0 179 -108.5 296.5t-278.5 117.5zM600 1507q-69 0 -113.5 46t-44.5 112t44.5 112t113.5 46q68 0 113 -46t45 -112t-45 -112t-113 -46zM1012 1507q-69 0 -113.5 46t-44.5 112t44.5 112t113.5 46q68 0 112.5 -46t44.5 -112t-44.5 -112t-112.5 -46z" />
    <glyph glyph-name="multiply" unicode="&#xd7;" horiz-adv-x="1081" 
d="M55 948l191 191l293 -310l297 310l188 -191l-297 -311l297 -311l-188 -189l-295 307l-295 -309l-191 191l297 311z" />
    <glyph glyph-name="Oslash" unicode="&#xd8;" horiz-adv-x="1613" 
d="M807 -27q-209 0 -381 90l-94 -116l-180 143l92 115q-189 208 -189 514q0 208 92.5 376t265 266.5t394.5 98.5q200 0 369 -86l92 115l180 -143l-88 -111q96 -101 147.5 -233t51.5 -283q0 -210 -92.5 -379.5t-265 -268t-394.5 -98.5zM807 301q170 0 278.5 118t108.5 300
q0 128 -61 231l-490 -614q75 -35 164 -35zM807 1133q-170 0 -278.5 -117.5t-108.5 -296.5q0 -130 53 -225l485 608q-70 31 -151 31z" />
    <glyph glyph-name="Ugrave" unicode="&#xd9;" horiz-adv-x="1441" 
d="M721 -25q-283 0 -440.5 157t-157.5 419v883h350v-883q0 -117 66.5 -184.5t183.5 -67.5q118 0 182 67.5t64 186.5v881h350v-881q0 -126 -40.5 -232t-116 -183t-188.5 -120t-253 -43zM399 1802h355l135 -297h-285z" />
    <glyph glyph-name="Uacute" unicode="&#xda;" horiz-adv-x="1441" 
d="M721 -25q-283 0 -440.5 157t-157.5 419v883h350v-883q0 -117 66.5 -184.5t183.5 -67.5q118 0 182 67.5t64 186.5v881h350v-881q0 -126 -40.5 -232t-116 -183t-188.5 -120t-253 -43zM696 1802h355l-205 -297h-285z" />
    <glyph glyph-name="Ucircumflex" unicode="&#xdb;" horiz-adv-x="1441" 
d="M721 -25q-283 0 -440.5 157t-157.5 419v883h350v-883q0 -117 66.5 -184.5t183.5 -67.5q118 0 182 67.5t64 186.5v881h350v-881q0 -126 -40.5 -232t-116 -183t-188.5 -120t-253 -43zM549 1802h344l197 -297h-283l-84 133l-86 -133h-285z" />
    <glyph glyph-name="Udieresis" unicode="&#xdc;" horiz-adv-x="1441" 
d="M721 -25q-283 0 -440.5 157t-157.5 419v883h350v-883q0 -117 66.5 -184.5t183.5 -67.5q118 0 182 67.5t64 186.5v881h350v-881q0 -126 -40.5 -232t-116 -183t-188.5 -120t-253 -43zM520 1507q-69 0 -113.5 46t-44.5 112t44.5 112t113.5 46q68 0 113 -46t45 -112t-45 -112
t-113 -46zM932 1507q-69 0 -113.5 46t-44.5 112t44.5 112t113.5 46q68 0 113 -46t45 -112t-45 -112t-113 -46z" />
    <glyph glyph-name="Yacute" unicode="&#xdd;" horiz-adv-x="1249" 
d="M799 0h-348v647l-439 787h394l219 -469l225 469h387l-438 -787v-647zM606 1802h355l-205 -297h-285z" />
    <glyph glyph-name="Thorn" unicode="&#xde;" horiz-adv-x="1191" 
d="M1137 733q0 -213 -127 -343t-336 -130h-197v-260h-350v1434h350v-238h197q216 0 339.5 -125t123.5 -338zM627 895h-150v-330h146q75 0 115 45t40 121q0 75 -40 119.5t-111 44.5z" />
    <glyph glyph-name="germandbls" unicode="&#xdf;" horiz-adv-x="1169" 
d="M545 1485q229 0 355 -91.5t126 -267.5q0 -79 -36 -140.5t-81 -88.5q65 -41 110 -89t76 -129t31 -183q0 -230 -158.5 -363t-435.5 -133v274q117 2 185.5 62.5t68.5 163.5q0 100 -68.5 156.5t-185.5 56.5v266q164 0 164 117q0 40 -34 71t-97 31t-94 -31.5t-31 -83.5v-1083
h-342v1106q0 82 24.5 147.5t65.5 108.5t99 71t121.5 40t136.5 12z" />
    <glyph glyph-name="agrave" unicode="&#xe0;" horiz-adv-x="1093" 
d="M41 334q0 161 114 258.5t304 97.5q112 0 207 -39v39q0 52 -42 84.5t-122 32.5q-132 0 -271 -68l-127 230q201 133 439 133q135 0 228.5 -32.5t144 -94.5t71.5 -136.5t21 -172.5v-666h-306l-18 59q-86 -86 -244 -86q-108 0 -197 40.5t-145.5 124.5t-56.5 196zM383 346
q0 -52 41 -81t104 -29q64 0 104 29t40 81q0 54 -41 84.5t-105 30.5q-62 0 -102.5 -31.5t-40.5 -83.5zM244 1485h354l135 -297h-284z" />
    <glyph glyph-name="aacute" unicode="&#xe1;" horiz-adv-x="1093" 
d="M41 334q0 161 114 258.5t304 97.5q112 0 207 -39v39q0 52 -42 84.5t-122 32.5q-132 0 -271 -68l-127 230q201 133 439 133q135 0 228.5 -32.5t144 -94.5t71.5 -136.5t21 -172.5v-666h-306l-18 59q-86 -86 -244 -86q-108 0 -197 40.5t-145.5 124.5t-56.5 196zM383 346
q0 -52 41 -81t104 -29q64 0 104 29t40 81q0 54 -41 84.5t-105 30.5q-62 0 -102.5 -31.5t-40.5 -83.5zM522 1485h355l-205 -297h-285z" />
    <glyph glyph-name="acircumflex" unicode="&#xe2;" horiz-adv-x="1093" 
d="M41 334q0 161 114 258.5t304 97.5q112 0 207 -39v39q0 52 -42 84.5t-122 32.5q-132 0 -271 -68l-127 230q201 133 439 133q135 0 228.5 -32.5t144 -94.5t71.5 -136.5t21 -172.5v-666h-306l-18 59q-86 -86 -244 -86q-108 0 -197 40.5t-145.5 124.5t-56.5 196zM383 346
q0 -52 41 -81t104 -29q64 0 104 29t40 81q0 54 -41 84.5t-105 30.5q-62 0 -102.5 -31.5t-40.5 -83.5zM375 1485h344l196 -297h-282l-84 133l-86 -133h-285z" />
    <glyph glyph-name="atilde" unicode="&#xe3;" horiz-adv-x="1093" 
d="M41 334q0 161 114 258.5t304 97.5q112 0 207 -39v39q0 52 -42 84.5t-122 32.5q-132 0 -271 -68l-127 230q201 133 439 133q135 0 228.5 -32.5t144 -94.5t71.5 -136.5t21 -172.5v-666h-306l-18 59q-86 -86 -244 -86q-108 0 -197 40.5t-145.5 124.5t-56.5 196zM383 346
q0 -52 41 -81t104 -29q64 0 104 29t40 81q0 54 -41 84.5t-105 30.5q-62 0 -102.5 -31.5t-40.5 -83.5zM678 1188q-62 0 -145 33.5t-109 33.5q-62 0 -62 -69h-208q0 135 66.5 219t174.5 84q65 0 146 -34t106 -34q29 0 44.5 18.5t15.5 51.5h208q0 -139 -64.5 -221t-172.5 -82z
" />
    <glyph glyph-name="adieresis" unicode="&#xe4;" horiz-adv-x="1093" 
d="M41 334q0 161 114 258.5t304 97.5q112 0 207 -39v39q0 52 -42 84.5t-122 32.5q-132 0 -271 -68l-127 230q201 133 439 133q135 0 228.5 -32.5t144 -94.5t71.5 -136.5t21 -172.5v-666h-306l-18 59q-86 -86 -244 -86q-108 0 -197 40.5t-145.5 124.5t-56.5 196zM383 346
q0 -52 41 -81t104 -29q64 0 104 29t40 81q0 54 -41 84.5t-105 30.5q-62 0 -102.5 -31.5t-40.5 -83.5zM348 1180q-69 0 -113.5 45.5t-44.5 111.5t44.5 112t113.5 46q68 0 113 -46t45 -112q0 -65 -45 -111t-113 -46zM760 1180q-69 0 -113.5 45.5t-44.5 111.5t44.5 112
t113.5 46q68 0 113 -46t45 -112q0 -65 -45 -111t-113 -46z" />
    <glyph glyph-name="aring" unicode="&#xe5;" horiz-adv-x="1093" 
d="M41 334q0 161 114 258.5t304 97.5q112 0 207 -39v39q0 52 -42 84.5t-122 32.5q-132 0 -271 -68l-127 230q201 133 439 133q135 0 228.5 -32.5t144 -94.5t71.5 -136.5t21 -172.5v-666h-306l-18 59q-86 -86 -244 -86q-108 0 -197 40.5t-145.5 124.5t-56.5 196zM383 346
q0 -52 41 -81t104 -29q64 0 104 29t40 81q0 54 -41 84.5t-105 30.5q-62 0 -102.5 -31.5t-40.5 -83.5zM561 1145q-100 0 -167.5 60.5t-67.5 154.5q0 95 67.5 156t167.5 61q102 0 170 -60.5t68 -154.5q0 -96 -68 -156.5t-170 -60.5zM563 1284q33 0 53.5 21.5t20.5 56.5
q0 34 -21 55t-53 21q-34 0 -54 -21t-20 -55q0 -35 20 -56.5t54 -21.5z" />
    <glyph glyph-name="ae" unicode="&#xe6;" horiz-adv-x="1753" 
d="M1712 449h-704q6 -74 70 -126.5t157 -52.5q84 0 142.5 38.5t82.5 76.5l226 -174q-14 -29 -46.5 -64.5t-87 -77t-140 -69t-183.5 -27.5q-257 0 -414 154q-58 -75 -146.5 -114.5t-228.5 -39.5q-108 0 -197 40.5t-145.5 124.5t-56.5 196q0 161 114 258.5t304 97.5
q112 0 207 -39v39q0 52 -42 84.5t-122 32.5q-132 0 -271 -68l-127 230q201 133 439 133q212 0 331 -101q135 101 312 101q254 0 391 -154t137 -432q0 -42 -2 -67zM383 346q0 -52 41 -81t104 -29q64 0 104 29t40 81q0 54 -41 84.5t-105 30.5q-62 0 -102.5 -31.5t-40.5 -83.5z
M1192 825q-79 0 -123 -47.5t-51 -111.5h348q-3 67 -50 113t-124 46z" />
    <glyph glyph-name="ccedilla" unicode="&#xe7;" horiz-adv-x="980" 
d="M510 -485q-65 0 -135 24l41 164q40 -10 69 -10q33 0 54.5 15.5t21.5 41.5q0 28 -28 40.5t-64 12.5l-37 -2l31 193q-190 45 -305 192t-115 351q0 246 166 405.5t416 159.5q178 0 319 -98l-92 -289q-96 80 -215 80q-118 0 -185 -72.5t-67 -183.5q0 -119 73 -192t191 -73
q111 0 203 76l90 -280q-143 -97 -313 -97l-6 -45q73 -17 112 -67t39 -127q0 -108 -73 -163.5t-191 -55.5z" />
    <glyph glyph-name="egrave" unicode="&#xe8;" horiz-adv-x="1140" 
d="M1100 449h-705q6 -74 70.5 -126.5t157.5 -52.5q84 0 142.5 38.5t82.5 76.5l225 -174q-14 -29 -46.5 -64.5t-87 -77t-140 -69t-183.5 -27.5q-173 0 -304 74.5t-199 201.5t-68 286q0 157 65.5 286t187 205t275.5 76q255 0 392 -154.5t137 -431.5q0 -42 -2 -67zM580 825
q-79 0 -123 -47.5t-51 -111.5h348q-3 67 -50 113t-124 46zM266 1485h355l135 -297h-285z" />
    <glyph glyph-name="eacute" unicode="&#xe9;" horiz-adv-x="1140" 
d="M1100 449h-705q6 -74 70.5 -126.5t157.5 -52.5q84 0 142.5 38.5t82.5 76.5l225 -174q-14 -29 -46.5 -64.5t-87 -77t-140 -69t-183.5 -27.5q-173 0 -304 74.5t-199 201.5t-68 286q0 157 65.5 286t187 205t275.5 76q255 0 392 -154.5t137 -431.5q0 -42 -2 -67zM580 825
q-79 0 -123 -47.5t-51 -111.5h348q-3 67 -50 113t-124 46zM543 1485h354l-205 -297h-284z" />
    <glyph glyph-name="ecircumflex" unicode="&#xea;" horiz-adv-x="1140" 
d="M1100 449h-705q6 -74 70.5 -126.5t157.5 -52.5q84 0 142.5 38.5t82.5 76.5l225 -174q-14 -29 -46.5 -64.5t-87 -77t-140 -69t-183.5 -27.5q-173 0 -304 74.5t-199 201.5t-68 286q0 157 65.5 286t187 205t275.5 76q255 0 392 -154.5t137 -431.5q0 -42 -2 -67zM580 825
q-79 0 -123 -47.5t-51 -111.5h348q-3 67 -50 113t-124 46zM414 1485h344l196 -297h-282l-84 133l-86 -133h-285z" />
    <glyph glyph-name="edieresis" unicode="&#xeb;" horiz-adv-x="1140" 
d="M1100 449h-705q6 -74 70.5 -126.5t157.5 -52.5q84 0 142.5 38.5t82.5 76.5l225 -174q-14 -29 -46.5 -64.5t-87 -77t-140 -69t-183.5 -27.5q-173 0 -304 74.5t-199 201.5t-68 286q0 157 65.5 286t187 205t275.5 76q255 0 392 -154.5t137 -431.5q0 -42 -2 -67zM580 825
q-79 0 -123 -47.5t-51 -111.5h348q-3 67 -50 113t-124 46zM379 1180q-69 0 -113.5 45.5t-44.5 111.5t44.5 112t113.5 46q68 0 113 -46t45 -112q0 -65 -45 -111t-113 -46zM791 1180q-69 0 -113.5 45.5t-44.5 111.5t44.5 112t113.5 46q68 0 112.5 -46t44.5 -112t-44.5 -111.5
t-112.5 -45.5z" />
    <glyph glyph-name="igrave" unicode="&#xec;" 
d="M440 1075v-1075h-342v1075h342zM-33 1485h355l135 -297h-285z" />
    <glyph glyph-name="iacute" unicode="&#xed;" 
d="M440 1075v-1075h-342v1075h342zM217 1485h354l-204 -297h-285z" />
    <glyph glyph-name="icircumflex" unicode="&#xee;" 
d="M440 1075v-1075h-342v1075h342zM104 1485h345l196 -297h-283l-83 133l-86 -133h-285z" />
    <glyph glyph-name="idieresis" unicode="&#xef;" 
d="M440 1075v-1075h-342v1075h342zM72 1180q-69 0 -113.5 45.5t-44.5 111.5t44.5 112t113.5 46q68 0 112.5 -46t44.5 -112t-44.5 -111.5t-112.5 -45.5zM483 1180q-69 0 -113 45.5t-44 111.5t44 112t113 46q68 0 113 -46t45 -112q0 -65 -45 -111t-113 -46z" />
    <glyph glyph-name="eth" unicode="&#xf0;" horiz-adv-x="1202" 
d="M190 1366l191 172q130 -53 289 -156l280 103l29 -215l-131 -47q305 -294 305 -650q0 -119 -33 -224t-99 -190.5t-176 -135.5t-251 -50q-165 0 -292.5 73.5t-194 196t-66.5 271.5q0 115 41 210t111.5 158.5t166 98.5t203.5 35q35 0 53 -2q-29 52 -86 100
q-219 -75 -323 -110l-29 208l160 56q-32 23 -148 98zM383 514q0 -103 55.5 -171.5t153.5 -68.5q108 0 163.5 66.5t55.5 173.5q0 97 -57.5 164t-151.5 67q-104 0 -161.5 -65t-57.5 -166z" />
    <glyph glyph-name="ntilde" unicode="&#xf1;" horiz-adv-x="1161" 
d="M729 0v641q0 73 -39 113.5t-102 40.5q-69 0 -108.5 -43.5t-39.5 -110.5v-641h-342v1075h334v-110q36 55 106.5 96t163.5 41q70 0 126 -17t94 -44.5t66 -69.5t43.5 -83.5t25 -96t12 -98t2.5 -97.5v-596h-342zM723 1188q-61 0 -145 33.5t-109 33.5q-61 0 -61 -69h-209
q0 135 66.5 219t174.5 84q65 0 146 -34t106 -34q29 0 44.5 18.5t15.5 51.5h209q0 -139 -65 -221t-173 -82z" />
    <glyph glyph-name="ograve" unicode="&#xf2;" horiz-adv-x="1259" 
d="M43 535q0 160 76.5 290.5t210 203.5t297.5 73q259 0 424.5 -159t165.5 -404q0 -160 -76 -289.5t-211 -203t-303 -73.5t-302 72.5t-208 201t-74 288.5zM385 535q0 -116 68.5 -188.5t173.5 -72.5q106 0 176.5 75t70.5 190q0 117 -70.5 189.5t-176.5 72.5t-174 -74t-68 -192
zM311 1485h355l135 -297h-285z" />
    <glyph glyph-name="oacute" unicode="&#xf3;" horiz-adv-x="1259" 
d="M43 535q0 160 76.5 290.5t210 203.5t297.5 73q259 0 424.5 -159t165.5 -404q0 -160 -76 -289.5t-211 -203t-303 -73.5t-302 72.5t-208 201t-74 288.5zM385 535q0 -116 68.5 -188.5t173.5 -72.5q106 0 176.5 75t70.5 190q0 117 -70.5 189.5t-176.5 72.5t-174 -74t-68 -192
zM592 1485h354l-205 -297h-284z" />
    <glyph glyph-name="ocircumflex" unicode="&#xf4;" horiz-adv-x="1259" 
d="M43 535q0 160 76.5 290.5t210 203.5t297.5 73q259 0 424.5 -159t165.5 -404q0 -160 -76 -289.5t-211 -203t-303 -73.5t-302 72.5t-208 201t-74 288.5zM385 535q0 -116 68.5 -188.5t173.5 -72.5q106 0 176.5 75t70.5 190q0 117 -70.5 189.5t-176.5 72.5t-174 -74t-68 -192
zM465 1485h344l197 -297h-283l-84 133l-86 -133h-285z" />
    <glyph glyph-name="otilde" unicode="&#xf5;" horiz-adv-x="1259" 
d="M43 535q0 160 76.5 290.5t210 203.5t297.5 73q259 0 424.5 -159t165.5 -404q0 -160 -76 -289.5t-211 -203t-303 -73.5t-302 72.5t-208 201t-74 288.5zM385 535q0 -116 68.5 -188.5t173.5 -72.5q106 0 176.5 75t70.5 190q0 117 -70.5 189.5t-176.5 72.5t-174 -74t-68 -192
zM776 1188q-62 0 -145 33.5t-109 33.5q-61 0 -61 -69h-209q0 135 66.5 219t175.5 84q65 0 145.5 -34t105.5 -34q29 0 44.5 18.5t15.5 51.5h209q0 -139 -65 -221t-173 -82z" />
    <glyph glyph-name="odieresis" unicode="&#xf6;" horiz-adv-x="1259" 
d="M43 535q0 160 76.5 290.5t210 203.5t297.5 73q259 0 424.5 -159t165.5 -404q0 -160 -76 -289.5t-211 -203t-303 -73.5t-302 72.5t-208 201t-74 288.5zM385 535q0 -116 68.5 -188.5t173.5 -72.5q106 0 176.5 75t70.5 190q0 117 -70.5 189.5t-176.5 72.5t-174 -74t-68 -192
zM428 1180q-69 0 -113.5 45.5t-44.5 111.5t44.5 112t113.5 46q68 0 113 -46t45 -112q0 -65 -45 -111t-113 -46zM840 1180q-69 0 -113.5 45.5t-44.5 111.5t44.5 112t113.5 46q68 0 112.5 -46t44.5 -112t-44.5 -111.5t-112.5 -45.5z" />
    <glyph glyph-name="divide" unicode="&#xf7;" horiz-adv-x="1130" 
d="M563 879q-69 0 -117.5 48.5t-48.5 116.5q0 71 48.5 120.5t117.5 49.5q71 0 120.5 -50t49.5 -120q0 -68 -50 -116.5t-120 -48.5zM563 63q-69 0 -117.5 49t-48.5 117q0 71 48.5 120.5t117.5 49.5q71 0 120.5 -49.5t49.5 -120.5q0 -68 -50 -117t-120 -49zM74 504v270h985
v-270h-985z" />
    <glyph glyph-name="oslash" unicode="&#xf8;" horiz-adv-x="1259" 
d="M43 535q0 160 76.5 290.5t210 203.5t297.5 73q145 0 278 -60l76 97l156 -121l-72 -90q152 -158 152 -389q0 -160 -76 -289.5t-211 -203t-303 -73.5q-146 0 -271 58l-82 -105l-153 121l76 94q-154 157 -154 394zM385 535q0 -65 25 -123l295 376q-41 13 -78 13
q-106 0 -174 -74t-68 -192zM874 539q0 63 -24 116l-293 -372q30 -9 70 -9q106 0 176.5 75t70.5 190z" />
    <glyph glyph-name="ugrave" unicode="&#xf9;" horiz-adv-x="1153" 
d="M432 1075v-641q0 -73 39 -113t102 -40q69 0 108.5 43t39.5 110v641h342v-1075h-334v111q-36 -55 -106.5 -96.5t-163.5 -41.5q-70 0 -126 17t-94 44.5t-66 69.5t-43.5 83.5t-25 96t-12 98t-2.5 97.5v596h342zM270 1485h355l135 -297h-285z" />
    <glyph glyph-name="uacute" unicode="&#xfa;" horiz-adv-x="1153" 
d="M432 1075v-641q0 -73 39 -113t102 -40q69 0 108.5 43t39.5 110v641h342v-1075h-334v111q-36 -55 -106.5 -96.5t-163.5 -41.5q-70 0 -126 17t-94 44.5t-66 69.5t-43.5 83.5t-25 96t-12 98t-2.5 97.5v596h342zM543 1485h354l-205 -297h-284z" />
    <glyph glyph-name="ucircumflex" unicode="&#xfb;" horiz-adv-x="1153" 
d="M432 1075v-641q0 -73 39 -113t102 -40q69 0 108.5 43t39.5 110v641h342v-1075h-334v111q-36 -55 -106.5 -96.5t-163.5 -41.5q-70 0 -126 17t-94 44.5t-66 69.5t-43.5 83.5t-25 96t-12 98t-2.5 97.5v596h342zM410 1485h344l196 -297h-282l-84 133l-86 -133h-285z" />
    <glyph glyph-name="udieresis" unicode="&#xfc;" horiz-adv-x="1153" 
d="M432 1075v-641q0 -73 39 -113t102 -40q69 0 108.5 43t39.5 110v641h342v-1075h-334v111q-36 -55 -106.5 -96.5t-163.5 -41.5q-70 0 -126 17t-94 44.5t-66 69.5t-43.5 83.5t-25 96t-12 98t-2.5 97.5v596h342zM381 1180q-69 0 -113.5 45.5t-44.5 111.5t44.5 112t113.5 46
q68 0 113 -46t45 -112q0 -65 -45 -111t-113 -46zM793 1180q-69 0 -113.5 45.5t-44.5 111.5t44.5 112t113.5 46q68 0 112.5 -46t44.5 -112t-44.5 -111.5t-112.5 -45.5z" />
    <glyph glyph-name="yacute" unicode="&#xfd;" horiz-adv-x="1138" 
d="M1124 1075l-532 -1442h-324l146 402l-402 1040h367l190 -618l199 618h356zM545 1485h354l-205 -297h-284z" />
    <glyph glyph-name="thorn" unicode="&#xfe;" horiz-adv-x="1280" 
d="M98 -383v1864h342v-469q41 36 110.5 63t158.5 27q232 0 379 -157.5t147 -405.5q0 -253 -138.5 -409.5t-369.5 -156.5q-106 0 -182 37.5t-105 71.5v-465h-342zM430 541q0 -125 64 -196t168 -71t167.5 74t63.5 193t-64 190.5t-167 71.5q-107 0 -169.5 -75.5t-62.5 -186.5z
" />
    <glyph glyph-name="ydieresis" unicode="&#xff;" horiz-adv-x="1138" 
d="M1124 1075l-532 -1442h-324l146 402l-402 1040h367l190 -618l199 618h356zM371 1180q-69 0 -113.5 45.5t-44.5 111.5t44.5 112t113.5 46q68 0 112.5 -46t44.5 -112t-44.5 -111.5t-112.5 -45.5zM782 1180q-69 0 -113 45.5t-44 111.5t44 112t113 46q68 0 113 -46t45 -112
q0 -65 -45 -111t-113 -46z" />
    <glyph glyph-name="Amacron" unicode="&#x100;" horiz-adv-x="1384" 
d="M918 322h-451l-102 -322h-353l496 1434h369l495 -1434h-352zM827 608l-135 455l-135 -455h270zM403 1528v244h576v-244h-576z" />
    <glyph glyph-name="amacron" unicode="&#x101;" horiz-adv-x="1093" 
d="M41 334q0 161 114 258.5t304 97.5q112 0 207 -39v39q0 52 -42 84.5t-122 32.5q-132 0 -271 -68l-127 230q201 133 439 133q135 0 228.5 -32.5t144 -94.5t71.5 -136.5t21 -172.5v-666h-306l-18 59q-86 -86 -244 -86q-108 0 -197 40.5t-145.5 124.5t-56.5 196zM383 346
q0 -52 41 -81t104 -29q64 0 104 29t40 81q0 54 -41 84.5t-105 30.5q-62 0 -102.5 -31.5t-40.5 -83.5zM270 1210v244h576v-244h-576z" />
    <glyph glyph-name="Abreve" unicode="&#x102;" horiz-adv-x="1384" 
d="M918 322h-451l-102 -322h-353l496 1434h369l495 -1434h-352zM827 608l-135 455l-135 -455h270zM690 1513q-155 0 -244.5 86.5t-89.5 225.5h240q0 -117 94 -117q96 0 96 117h240q0 -139 -89.5 -225.5t-246.5 -86.5z" />
    <glyph glyph-name="abreve" unicode="&#x103;" horiz-adv-x="1093" 
d="M41 334q0 161 114 258.5t304 97.5q112 0 207 -39v39q0 52 -42 84.5t-122 32.5q-132 0 -271 -68l-127 230q201 133 439 133q135 0 228.5 -32.5t144 -94.5t71.5 -136.5t21 -172.5v-666h-306l-18 59q-86 -86 -244 -86q-108 0 -197 40.5t-145.5 124.5t-56.5 196zM383 346
q0 -52 41 -81t104 -29q64 0 104 29t40 81q0 54 -41 84.5t-105 30.5q-62 0 -102.5 -31.5t-40.5 -83.5zM545 1184q-156 0 -245 86t-89 225h240q0 -117 94 -117q96 0 96 117h240q0 -139 -89.5 -225t-246.5 -86z" />
    <glyph glyph-name="Aogonek" unicode="&#x104;" horiz-adv-x="1384" 
d="M877 1434l495 -1434q-96 -43 -96 -113q0 -40 28.5 -58.5t63.5 -18.5v-226q-43 -16 -137 -16q-98 0 -166 51t-68 152q0 81 50.5 141t109.5 88h-137l-102 322h-451l-102 -322h-353l496 1434h369zM827 608l-135 455l-135 -455h270z" />
    <glyph glyph-name="aogonek" unicode="&#x105;" horiz-adv-x="1093" 
d="M793 0h-91l-18 59q-86 -86 -244 -86q-108 0 -197 40.5t-145.5 124.5t-56.5 196q0 161 114 258.5t304 97.5q135 0 207 -39v39q0 52 -42 84.5t-122 32.5q-132 0 -271 -68l-127 230q201 133 439 133q135 0 228.5 -32.5t144 -94.5t71.5 -136.5t21 -172.5v-666
q-97 -43 -97 -113q0 -40 29 -58.5t64 -18.5v-226q-43 -16 -138 -16q-98 0 -165.5 51t-67.5 152q0 81 50.5 141t109.5 88zM383 346q0 -52 41 -81t104 -29q64 0 104 29t40 81q0 54 -41 84.5t-105 30.5q-62 0 -102.5 -31.5t-40.5 -83.5z" />
    <glyph glyph-name="Cacute" unicode="&#x106;" horiz-adv-x="1290" 
d="M813 -27q-226 0 -400 98.5t-266 267.5t-92 380q0 156 56 293t155 235.5t241 155.5t306 57q242 0 418 -121l-98 -307q-151 101 -308 101q-96 0 -173.5 -33t-127.5 -90.5t-77 -132t-27 -158.5q0 -114 45.5 -207.5t139.5 -152t220 -58.5q165 0 314 100l98 -307
q-176 -121 -424 -121zM735 1802h355l-205 -297h-285z" />
    <glyph glyph-name="cacute" unicode="&#x107;" horiz-adv-x="980" 
d="M649 274q111 0 203 76l90 -280q-143 -97 -315 -97q-256 0 -420 158t-164 406q0 246 166 405.5t416 159.5q178 0 319 -98l-92 -289q-96 80 -215 80q-118 0 -185 -72.5t-67 -183.5q0 -119 73 -192t191 -73zM541 1485h354l-205 -297h-284z" />
    <glyph glyph-name="Ccircumflex" unicode="&#x108;" horiz-adv-x="1290" 
d="M813 -27q-226 0 -400 98.5t-266 267.5t-92 380q0 156 56 293t155 235.5t241 155.5t306 57q242 0 418 -121l-98 -307q-151 101 -308 101q-96 0 -173.5 -33t-127.5 -90.5t-77 -132t-27 -158.5q0 -114 45.5 -207.5t139.5 -152t220 -58.5q165 0 314 100l98 -307
q-176 -121 -424 -121zM627 1802h344l196 -297h-282l-84 133l-86 -133h-285z" />
    <glyph glyph-name="ccircumflex" unicode="&#x109;" horiz-adv-x="980" 
d="M649 274q111 0 203 76l90 -280q-143 -97 -315 -97q-256 0 -420 158t-164 406q0 246 166 405.5t416 159.5q178 0 319 -98l-92 -289q-96 80 -215 80q-118 0 -185 -72.5t-67 -183.5q0 -119 73 -192t191 -73zM434 1485h344l197 -297h-283l-84 133l-86 -133h-284z" />
    <glyph glyph-name="Cdotaccent" unicode="&#x10a;" horiz-adv-x="1290" 
d="M813 -27q-226 0 -400 98.5t-266 267.5t-92 380q0 156 56 293t155 235.5t241 155.5t306 57q242 0 418 -121l-98 -307q-151 101 -308 101q-96 0 -173.5 -33t-127.5 -90.5t-77 -132t-27 -158.5q0 -114 45.5 -207.5t139.5 -152t220 -58.5q165 0 314 100l98 -307
q-176 -121 -424 -121zM813 1489q-72 0 -124 52.5t-52 123.5q0 73 52 125.5t124 52.5q73 0 125.5 -52.5t52.5 -125.5q0 -71 -52.5 -123.5t-125.5 -52.5z" />
    <glyph glyph-name="cdotaccent" unicode="&#x10b;" horiz-adv-x="980" 
d="M645 274q111 0 203 76l90 -280q-143 -97 -315 -97q-256 0 -420 158t-164 406q0 246 166 405.5t416 159.5q178 0 319 -98l-92 -289q-96 80 -215 80q-118 0 -185 -72.5t-67 -183.5q0 -119 73 -192t191 -73zM618 1157q-72 0 -124 52.5t-52 123.5q0 73 52 125.5t124 52.5
q74 0 126.5 -52.5t52.5 -125.5q0 -71 -53 -123.5t-126 -52.5z" />
    <glyph glyph-name="Ccaron" unicode="&#x10c;" horiz-adv-x="1290" 
d="M813 -27q-226 0 -400 98.5t-266 267.5t-92 380q0 156 56 293t155 235.5t241 155.5t306 57q242 0 418 -121l-98 -307q-151 101 -308 101q-96 0 -173.5 -33t-127.5 -90.5t-77 -132t-27 -158.5q0 -114 45.5 -207.5t139.5 -152t220 -58.5q165 0 314 100l98 -307
q-176 -121 -424 -121zM977 1505h-344l-197 297h285l86 -133l84 133h283z" />
    <glyph glyph-name="ccaron" unicode="&#x10d;" horiz-adv-x="980" 
d="M649 274q111 0 203 76l90 -280q-143 -97 -315 -97q-256 0 -420 158t-164 406q0 246 166 405.5t416 159.5q178 0 319 -98l-92 -289q-96 80 -215 80q-118 0 -185 -72.5t-67 -183.5q0 -119 73 -192t191 -73zM778 1188h-344l-196 297h284l86 -133l84 133h283z" />
    <glyph glyph-name="Dcaron" unicode="&#x10e;" horiz-adv-x="1359" 
d="M127 1434h422q348 0 552 -191t204 -526t-204 -526t-552 -191h-422v1434zM549 1130h-72v-827h72q181 0 286 106.5t105 307.5t-105 307t-286 106zM758 1505h-344l-197 297h285l86 -133l84 133h282z" />
    <glyph glyph-name="dcaron" unicode="&#x10f;" horiz-adv-x="1282" 
d="M1249 1124l15 357h282l-94 -357h-203zM850 535q0 125 -64 195.5t-168 70.5t-167.5 -73.5t-63.5 -192.5t64 -191t167 -72q107 0 169.5 75.5t62.5 187.5zM862 0v84q-34 -38 -110.5 -74.5t-180.5 -36.5q-232 0 -379 158t-147 406q0 253 138.5 409t369.5 156q106 0 182 -37.5
t105 -71.5v488h342v-1481h-320z" />
    <glyph glyph-name="Dcroat" unicode="&#x110;" horiz-adv-x="1359" 
d="M156 1434h422q348 0 551.5 -191t203.5 -526t-203.5 -526t-551.5 -191h-422v567h-111v305h111v562zM506 1130v-258h188v-305h-188v-264h72q181 0 286 106.5t105 307.5t-105 307t-286 106h-72z" />
    <glyph glyph-name="dcroat" unicode="&#x111;" horiz-adv-x="1280" 
d="M862 0v84q-34 -38 -110.5 -74.5t-180.5 -36.5q-232 0 -379 158t-147 406q0 253 138.5 409t369.5 156q106 0 182 -37.5t105 -71.5v158h-258v211h258v119h342v-119h112v-211h-112v-1151h-320zM850 535q0 125 -64 195.5t-168 70.5t-167.5 -73.5t-63.5 -192.5t64 -191
t167 -72q107 0 169.5 75.5t62.5 187.5z" />
    <glyph glyph-name="Emacron" unicode="&#x112;" horiz-adv-x="993" 
d="M907 0h-780v1434h764v-314h-414v-239h352v-312h-352v-256h430v-313zM233 1528v244h576v-244h-576z" />
    <glyph glyph-name="emacron" unicode="&#x113;" horiz-adv-x="1140" 
d="M1100 449h-705q6 -74 70.5 -126.5t157.5 -52.5q84 0 142.5 38.5t82.5 76.5l225 -174q-14 -29 -46.5 -64.5t-87 -77t-140 -69t-183.5 -27.5q-173 0 -304 74.5t-199 201.5t-68 286q0 157 65.5 286t187 205t275.5 76q255 0 392 -154.5t137 -431.5q0 -42 -2 -67zM580 825
q-79 0 -123 -47.5t-51 -111.5h348q-3 67 -50 113t-124 46zM303 1210v244h576v-244h-576z" />
    <glyph glyph-name="Ebreve" unicode="&#x114;" horiz-adv-x="993" 
d="M907 0h-780v1434h764v-314h-414v-239h352v-312h-352v-256h430v-313zM516 1513q-155 0 -244.5 86.5t-89.5 225.5h240q0 -117 94 -117q96 0 96 117h240q0 -139 -89.5 -225.5t-246.5 -86.5z" />
    <glyph glyph-name="ebreve" unicode="&#x115;" horiz-adv-x="1140" 
d="M1100 449h-705q6 -74 70.5 -126.5t157.5 -52.5q84 0 142.5 38.5t82.5 76.5l225 -174q-14 -29 -46.5 -64.5t-87 -77t-140 -69t-183.5 -27.5q-173 0 -304 74.5t-199 201.5t-68 286q0 157 65.5 286t187 205t275.5 76q255 0 392 -154.5t137 -431.5q0 -42 -2 -67zM580 825
q-79 0 -123 -47.5t-51 -111.5h348q-3 67 -50 113t-124 46zM578 1184q-156 0 -245 86t-89 225h239q0 -117 95 -117q96 0 96 117h239q0 -139 -89 -225t-246 -86z" />
    <glyph glyph-name="Edotaccent" unicode="&#x116;" horiz-adv-x="993" 
d="M907 0h-780v1434h764v-314h-414v-239h352v-312h-352v-256h430v-313zM524 1489q-72 0 -124 52.5t-52 123.5q0 73 52 125.5t124 52.5q74 0 126 -52.5t52 -125.5q0 -71 -52.5 -123.5t-125.5 -52.5z" />
    <glyph glyph-name="edotaccent" unicode="&#x117;" horiz-adv-x="1140" 
d="M1100 449h-705q6 -74 70.5 -126.5t157.5 -52.5q84 0 142.5 38.5t82.5 76.5l225 -174q-14 -29 -46.5 -64.5t-87 -77t-140 -69t-183.5 -27.5q-173 0 -304 74.5t-199 201.5t-68 286q0 157 65.5 286t187 205t275.5 76q255 0 392 -154.5t137 -431.5q0 -42 -2 -67zM580 825
q-79 0 -123 -47.5t-51 -111.5h348q-3 67 -50 113t-124 46zM584 1157q-72 0 -124 52.5t-52 123.5q0 73 52 125.5t124 52.5q74 0 126 -52.5t52 -125.5q0 -71 -52.5 -123.5t-125.5 -52.5z" />
    <glyph glyph-name="Eogonek" unicode="&#x118;" horiz-adv-x="993" 
d="M692 0h-565v1434h764v-314h-414v-239h352v-312h-352v-256h430v-313q-96 -43 -96 -113q0 -40 28.5 -58.5t63.5 -18.5v-226q-43 -16 -137 -16q-98 0 -166 51t-68 152q0 81 50.5 141t109.5 88z" />
    <glyph glyph-name="eogonek" unicode="&#x119;" horiz-adv-x="1140" 
d="M1100 449h-705q6 -74 70.5 -126.5t157.5 -52.5q84 0 142.5 38.5t82.5 76.5l225 -174q-26 -52 -98 -114.5t-180 -96.5q-97 -43 -97 -113q0 -40 29 -58.5t64 -18.5v-226q-43 -16 -138 -16q-98 0 -165.5 51t-67.5 152q0 122 119 206q-228 24 -361 178.5t-133 379.5
q0 157 65.5 286t187 205t275.5 76q255 0 392 -154.5t137 -431.5q0 -42 -2 -67zM580 825q-79 0 -123 -47.5t-51 -111.5h348q-3 67 -50 113t-124 46z" />
    <glyph glyph-name="Ecaron" unicode="&#x11a;" horiz-adv-x="993" 
d="M907 0h-780v1434h764v-314h-414v-239h352v-312h-352v-256h430v-313zM702 1505h-344l-196 297h284l86 -133l84 133h283z" />
    <glyph glyph-name="ecaron" unicode="&#x11b;" horiz-adv-x="1140" 
d="M1100 449h-705q6 -74 70.5 -126.5t157.5 -52.5q84 0 142.5 38.5t82.5 76.5l225 -174q-14 -29 -46.5 -64.5t-87 -77t-140 -69t-183.5 -27.5q-173 0 -304 74.5t-199 201.5t-68 286q0 157 65.5 286t187 205t275.5 76q255 0 392 -154.5t137 -431.5q0 -42 -2 -67zM580 825
q-79 0 -123 -47.5t-51 -111.5h348q-3 67 -50 113t-124 46zM752 1188h-344l-197 297h285l86 -133l84 133h282z" />
    <glyph glyph-name="Gcircumflex" unicode="&#x11c;" horiz-adv-x="1542" 
d="M1454 805v-606q-67 -52 -122.5 -86t-135.5 -69.5t-179.5 -53t-217.5 -17.5q-152 0 -287 52.5t-236 147.5t-160 237t-59 311q0 204 93.5 372.5t266 267.5t390.5 99q97 0 183.5 -17.5t147 -43.5t113.5 -62t83.5 -65.5t56.5 -61.5l-222 -229q-15 19 -41.5 42t-69.5 50.5
t-105.5 45.5t-129.5 18q-187 0 -295 -115.5t-108 -294.5q0 -195 114.5 -312.5t288.5 -117.5q117 0 197 30t108 58v127h-247v293h573zM641 1802h344l197 -297h-283l-84 133l-86 -133h-285z" />
    <glyph glyph-name="gcircumflex" unicode="&#x11d;" horiz-adv-x="1269" 
d="M838 55v27q-29 -34 -105 -71.5t-182 -37.5q-231 0 -369.5 156.5t-138.5 409.5q0 248 147 405.5t379 157.5q104 0 180.5 -36.5t110.5 -74.5v84h320v-946q0 -116 -31.5 -206.5t-86 -149t-131.5 -96.5t-162 -54t-185 -16q-108 0 -214 26t-184 66l101 262q144 -65 297 -65
q254 0 254 159zM848 541q0 111 -63.5 185.5t-170.5 74.5q-103 0 -166 -70.5t-63 -189.5t63.5 -193t167.5 -74t168 71t64 196zM463 1485h344l197 -297h-283l-84 133l-86 -133h-285z" />
    <glyph glyph-name="Gbreve" unicode="&#x11e;" horiz-adv-x="1542" 
d="M1454 805v-606q-67 -52 -122.5 -86t-135.5 -69.5t-179.5 -53t-217.5 -17.5q-152 0 -287 52.5t-236 147.5t-160 237t-59 311q0 204 93.5 372.5t266 267.5t390.5 99q97 0 183.5 -17.5t147 -43.5t113.5 -62t83.5 -65.5t56.5 -61.5l-222 -229q-15 19 -41.5 42t-69.5 50.5
t-105.5 45.5t-129.5 18q-187 0 -295 -115.5t-108 -294.5q0 -195 114.5 -312.5t288.5 -117.5q117 0 197 30t108 58v127h-247v293h573zM817 1513q-155 0 -244.5 86.5t-89.5 225.5h240q0 -117 94 -117q96 0 96 117h240q0 -139 -89.5 -225.5t-246.5 -86.5z" />
    <glyph glyph-name="gbreve" unicode="&#x11f;" horiz-adv-x="1269" 
d="M838 55v27q-29 -34 -105 -71.5t-182 -37.5q-231 0 -369.5 156.5t-138.5 409.5q0 248 147 405.5t379 157.5q104 0 180.5 -36.5t110.5 -74.5v84h320v-946q0 -116 -31.5 -206.5t-86 -149t-131.5 -96.5t-162 -54t-185 -16q-108 0 -214 26t-184 66l101 262q144 -65 297 -65
q254 0 254 159zM848 541q0 111 -63.5 185.5t-170.5 74.5q-103 0 -166 -70.5t-63 -189.5t63.5 -193t167.5 -74t168 71t64 196zM633 1184q-156 0 -245 86t-89 225h240q0 -117 94 -117q96 0 96 117h240q0 -139 -89.5 -225t-246.5 -86z" />
    <glyph glyph-name="Gdotaccent" unicode="&#x120;" horiz-adv-x="1542" 
d="M1454 805v-606q-67 -52 -122.5 -86t-135.5 -69.5t-179.5 -53t-217.5 -17.5q-152 0 -287 52.5t-236 147.5t-160 237t-59 311q0 204 93.5 372.5t266 267.5t390.5 99q97 0 183.5 -17.5t147 -43.5t113.5 -62t83.5 -65.5t56.5 -61.5l-222 -229q-15 19 -41.5 42t-69.5 50.5
t-105.5 45.5t-129.5 18q-187 0 -295 -115.5t-108 -294.5q0 -195 114.5 -312.5t288.5 -117.5q117 0 197 30t108 58v127h-247v293h573zM823 1489q-72 0 -124 52.5t-52 123.5q0 73 52 125.5t124 52.5q73 0 125.5 -52.5t52.5 -125.5q0 -71 -52.5 -123.5t-125.5 -52.5z" />
    <glyph glyph-name="gdotaccent" unicode="&#x121;" horiz-adv-x="1269" 
d="M838 55v27q-29 -34 -105 -71.5t-182 -37.5q-231 0 -369.5 156.5t-138.5 409.5q0 248 147 405.5t379 157.5q104 0 180.5 -36.5t110.5 -74.5v84h320v-946q0 -116 -31.5 -206.5t-86 -149t-131.5 -96.5t-162 -54t-185 -16q-108 0 -214 26t-184 66l101 262q144 -65 297 -65
q254 0 254 159zM848 541q0 111 -63.5 185.5t-170.5 74.5q-103 0 -166 -70.5t-63 -189.5t63.5 -193t167.5 -74t168 71t64 196zM635 1157q-72 0 -124 52.5t-52 123.5q0 73 52 125.5t124 52.5q73 0 125.5 -52.5t52.5 -125.5q0 -71 -52.5 -123.5t-125.5 -52.5z" />
    <glyph glyph-name="Gcommaaccent" unicode="&#x122;" horiz-adv-x="1542" 
d="M1454 805v-606q-67 -52 -122.5 -86t-135.5 -69.5t-179.5 -53t-217.5 -17.5q-152 0 -287 52.5t-236 147.5t-160 237t-59 311q0 204 93.5 372.5t266 267.5t390.5 99q97 0 183.5 -17.5t147 -43.5t113.5 -62t83.5 -65.5t56.5 -61.5l-222 -229q-15 19 -41.5 42t-69.5 50.5
t-105.5 45.5t-129.5 18q-187 0 -295 -115.5t-108 -294.5q0 -195 114.5 -312.5t288.5 -117.5q117 0 197 30t108 58v127h-247v293h573zM686 -526q84 60 105 131q-64 14 -99 62t-35 106q0 72 52.5 122t124.5 50q80 0 132 -56t52 -147q0 -115 -61 -222t-158 -171z" />
    <glyph glyph-name="gcommaaccent" unicode="&#x123;" horiz-adv-x="1269" 
d="M838 55v27q-29 -34 -105 -71.5t-182 -37.5q-231 0 -369.5 156.5t-138.5 409.5q0 248 147 405.5t379 157.5q104 0 180.5 -36.5t110.5 -74.5v84h320v-946q0 -116 -31.5 -206.5t-86 -149t-131.5 -96.5t-162 -54t-185 -16q-108 0 -214 26t-184 66l101 262q144 -65 297 -65
q254 0 254 159zM848 541q0 111 -63.5 185.5t-170.5 74.5q-103 0 -166 -70.5t-63 -189.5t63.5 -193t167.5 -74t168 71t64 196zM778 1634q-83 -59 -104 -131q64 -14 98.5 -62t34.5 -106q0 -72 -52 -122t-124 -50q-81 0 -133 56t-52 147q0 115 61.5 222t158.5 171z" />
    <glyph glyph-name="Hcircumflex" unicode="&#x124;" horiz-adv-x="1466" 
d="M1339 1434v-1434h-350v561h-512v-561h-350v1434h350v-557h512v557h350zM569 1802h344l197 -297h-283l-84 133l-86 -133h-284z" />
    <glyph glyph-name="hcircumflex" unicode="&#x125;" horiz-adv-x="1165" 
d="M733 0v641q0 73 -39 113.5t-102 40.5q-69 0 -110.5 -44t-41.5 -110v-641h-342v1481h342v-516q36 56 105 96.5t162 40.5q70 0 126 -17t94 -44.5t66 -69.5t43.5 -83.5t24.5 -96t11.5 -98t2.5 -97.5v-596h-342zM440 1833h344l197 -297h-283l-84 133l-86 -133h-284z" />
    <glyph glyph-name="Hbar" unicode="&#x126;" horiz-adv-x="1466" 
d="M1339 1434v-160h115v-232h-115v-1042h-350v561h-512v-561h-350v1042h-115v232h115v160h350v-160h512v160h350zM477 877h512v165h-512v-165z" />
    <glyph glyph-name="hbar" unicode="&#x127;" horiz-adv-x="1165" 
d="M6 1165v211h92v105h342v-105h269v-211h-269v-200q36 56 105 96.5t162 40.5q70 0 126 -17t94 -44.5t66 -69.5t43.5 -83.5t24.5 -96t11.5 -98t2.5 -97.5v-596h-342v641q0 73 -39 113.5t-102 40.5q-69 0 -110.5 -44t-41.5 -110v-641h-342v1165h-92z" />
    <glyph glyph-name="Itilde" unicode="&#x128;" horiz-adv-x="604" 
d="M477 1434v-1434h-350v1434h350zM446 1509q-48 0 -97.5 17t-90 34t-65.5 17q-29 0 -45.5 -18t-16.5 -52h-209q0 135 66.5 219t175.5 84q65 0 146 -33.5t106 -33.5q59 0 59 69h209q0 -139 -65 -221t-173 -82z" />
    <glyph glyph-name="itilde" unicode="&#x129;" 
d="M440 1075v-1075h-342v1075h342zM418 1188q-62 0 -145 33.5t-109 33.5q-62 0 -62 -69h-208q0 135 66.5 219t174.5 84q65 0 146 -34t106 -34q59 0 59 70h209q0 -139 -64.5 -221t-172.5 -82z" />
    <glyph glyph-name="Imacron" unicode="&#x12a;" horiz-adv-x="604" 
d="M477 1434v-1434h-350v1434h350zM12 1528v244h576v-244h-576z" />
    <glyph glyph-name="imacron" unicode="&#x12b;" 
d="M440 1075v-1075h-342v1075h342zM-16 1210v244h575v-244h-575z" />
    <glyph glyph-name="Ibreve" unicode="&#x12c;" horiz-adv-x="604" 
d="M477 1434v-1434h-350v1434h350zM303 1513q-155 0 -244.5 86.5t-89.5 225.5h240q0 -117 94 -117q96 0 96 117h240q0 -139 -89.5 -225.5t-246.5 -86.5z" />
    <glyph glyph-name="ibreve" unicode="&#x12d;" 
d="M440 1075v-1075h-342v1075h342zM272 1184q-155 0 -244 86t-89 225h239q0 -117 94 -117q97 0 97 117h239q0 -139 -89.5 -225t-246.5 -86z" />
    <glyph glyph-name="Iogonek" unicode="&#x12e;" horiz-adv-x="604" 
d="M262 0h-135v1434h350v-1434q-96 -43 -96 -113q0 -40 28.5 -58.5t63.5 -18.5v-226q-43 -16 -137 -16q-98 0 -166 51t-68 152q0 81 50.5 141t109.5 88z" />
    <glyph glyph-name="iogonek" unicode="&#x12f;" 
d="M225 0h-127v1075h342v-1075q-96 -43 -96 -113q0 -40 28.5 -58.5t63.5 -18.5v-226q-43 -16 -137 -16q-98 0 -165.5 51t-67.5 152q0 81 50 141t109 88zM266 1126q-81 0 -137.5 57.5t-56.5 137.5q0 82 56.5 139.5t137.5 57.5q82 0 139.5 -57.5t57.5 -139.5q0 -80 -58 -137.5
t-139 -57.5z" />
    <glyph glyph-name="Idotaccent" unicode="&#x130;" horiz-adv-x="604" 
d="M477 1434v-1434h-350v1434h350zM307 1489q-72 0 -124 52.5t-52 123.5q0 73 52 125.5t124 52.5q73 0 125.5 -52.5t52.5 -125.5q0 -71 -52.5 -123.5t-125.5 -52.5z" />
    <glyph glyph-name="dotlessi" unicode="&#x131;" 
d="M440 1075v-1075h-342v1075h342z" />
    <glyph glyph-name="IJ" unicode="&#x132;" horiz-adv-x="1400" 
d="M477 1434v-1434h-350v1434h350zM1274 1434v-1061q0 -105 -34.5 -181.5t-96.5 -120t-137 -63.5t-166 -20q-102 0 -197 22l41 309q55 -10 111 -10q64 0 96.5 36t32.5 93v996h350z" />
    <glyph glyph-name="ij" unicode="&#x133;" horiz-adv-x="1077" 
d="M440 1075v-1075h-342v1075h342zM266 1141q-82 0 -136 52.5t-54 131.5q0 81 54 133.5t136 52.5t137.5 -52.5t55.5 -133.5q0 -79 -55.5 -131.5t-137.5 -52.5zM979 1075v-1079q0 -105 -33.5 -182t-96 -121.5t-142 -65t-179.5 -20.5l-75 6v289q26 -4 49 -4q135 0 135 114
v1063h342zM805 1141q-82 0 -136.5 52.5t-54.5 131.5q0 81 54.5 133.5t136.5 52.5t137 -52.5t55 -133.5q0 -79 -55 -131.5t-137 -52.5z" />
    <glyph glyph-name="Jcircumflex" unicode="&#x134;" horiz-adv-x="796" 
d="M670 1434v-1061q0 -105 -34.5 -181.5t-96.5 -120t-137 -63.5t-166 -20q-102 0 -197 22l41 309q55 -10 110 -10q64 0 96.5 36t32.5 93v996h351zM291 1802h344l196 -297h-282l-84 133l-86 -133h-285z" />
    <glyph glyph-name="jcircumflex" unicode="&#x135;" 
d="M440 1075v-1079q0 -105 -33.5 -182t-95.5 -121.5t-141.5 -65t-179.5 -20.5l-76 6v289q26 -4 49 -4q135 0 135 114v1063h342zM98 1485h344l197 -297h-283l-84 133l-86 -133h-284z" />
    <glyph glyph-name="Kcommaaccent" unicode="&#x136;" horiz-adv-x="1310" 
d="M477 1434v-553l418 553h391l-536 -686l546 -748h-401l-418 578v-578h-350v1434h350zM504 -526q83 59 104 131q-64 14 -98.5 62t-34.5 106q0 72 52 122t124 50q81 0 133 -56t52 -147q0 -115 -61.5 -222t-158.5 -171z" />
    <glyph glyph-name="kcommaaccent" unicode="&#x137;" horiz-adv-x="1144" 
d="M1114 1075l-346 -491l375 -584h-402l-301 502v-502h-342v1481h342v-838l291 432h383zM420 -526q83 59 104 131q-64 14 -98.5 62t-34.5 106q0 72 52 122t124 50q81 0 133 -56t52 -147q0 -115 -61.5 -222t-158.5 -171z" />
    <glyph glyph-name="kgreenlandic" unicode="&#x138;" horiz-adv-x="1144" 
d="M1114 1075l-346 -504l375 -571h-402l-301 489v-489h-342v1075h342v-444l291 444h383z" />
    <glyph glyph-name="Lacute" unicode="&#x139;" horiz-adv-x="937" 
d="M907 0h-780v1434h350v-1121h430v-313zM293 1802h354l-205 -297h-284z" />
    <glyph glyph-name="lacute" unicode="&#x13a;" 
d="M98 0v1481h342v-1481h-342zM262 1833h354l-204 -297h-285z" />
    <glyph glyph-name="Lcommaaccent" unicode="&#x13b;" horiz-adv-x="937" 
d="M907 0h-780v1434h350v-1121h430v-313zM340 -526q83 59 104 131q-64 14 -98.5 62t-34.5 106q0 72 52 122t124 50q81 0 133 -56t52 -147q0 -115 -61 -222t-158 -171z" />
    <glyph glyph-name="lcommaaccent" unicode="&#x13c;" 
d="M98 0v1481h342v-1481h-342zM119 -526q83 59 104 131q-64 14 -98.5 62t-34.5 106q0 72 52 122t124 50q81 0 133 -56t52 -147q0 -115 -61.5 -222t-158.5 -171z" />
    <glyph glyph-name="Lcaron" unicode="&#x13d;" horiz-adv-x="940" 
d="M596 1077l14 357h283l-94 -357h-203zM907 0h-780v1434h350v-1121h430v-313z" />
    <glyph glyph-name="lcaron" unicode="&#x13e;" horiz-adv-x="544" 
d="M514 1124l14 357h283l-94 -357h-203zM98 0v1481h342v-1481h-342z" />
    <glyph glyph-name="Ldot" unicode="&#x13f;" horiz-adv-x="937" 
d="M907 0h-780v1434h350v-1121h430v-313zM778 551q-84 0 -143.5 59.5t-59.5 143.5q0 85 59 144.5t144 59.5t145 -59.5t60 -144.5q0 -83 -60 -143t-145 -60z" />
    <glyph glyph-name="ldot" unicode="&#x140;" horiz-adv-x="905" 
d="M98 0v1481h342v-1481h-342zM739 551q-84 0 -143 59.5t-59 143.5q0 85 58.5 144.5t143.5 59.5t145 -59.5t60 -144.5q0 -83 -60 -143t-145 -60z" />
    <glyph glyph-name="Lslash" unicode="&#x141;" horiz-adv-x="937" 
d="M907 0h-780v408l-113 -60v320l113 61v705h350v-512l203 112v-329l-203 -109v-283h430v-313z" />
    <glyph glyph-name="lslash" unicode="&#x142;" horiz-adv-x="657" 
d="M150 805v676h342v-477l116 67v-330l-116 -67v-674h-342v481l-99 -55v324z" />
    <glyph glyph-name="Nacute" unicode="&#x143;" horiz-adv-x="1470" 
d="M999 0l-532 879v-879h-344v1434h356l525 -889v889h344v-1434h-349zM723 1802h354l-205 -297h-284z" />
    <glyph glyph-name="nacute" unicode="&#x144;" horiz-adv-x="1161" 
d="M729 0v641q0 73 -39 113.5t-102 40.5q-69 0 -108.5 -43.5t-39.5 -110.5v-641h-342v1075h334v-110q36 55 106.5 96t163.5 41q70 0 126 -17t94 -44.5t66 -69.5t43.5 -83.5t25 -96t12 -98t2.5 -97.5v-596h-342zM563 1485h355l-205 -297h-285z" />
    <glyph glyph-name="Ncommaaccent" unicode="&#x145;" horiz-adv-x="1470" 
d="M999 0l-532 879v-879h-344v1434h356l525 -889v889h344v-1434h-349zM584 -526q83 59 104 131q-64 14 -98.5 62t-34.5 106q0 72 52 122t124 50q80 0 132 -56t52 -147q0 -115 -61 -222t-158 -171z" />
    <glyph glyph-name="ncommaaccent" unicode="&#x146;" horiz-adv-x="1161" 
d="M729 0v641q0 73 -39 113.5t-102 40.5q-69 0 -108.5 -43.5t-39.5 -110.5v-641h-342v1075h334v-110q36 55 106.5 96t163.5 41q70 0 126 -17t94 -44.5t66 -69.5t43.5 -83.5t25 -96t12 -98t2.5 -97.5v-596h-342zM430 -526q84 60 105 131q-64 14 -99 62t-35 106q0 72 52.5 122
t124.5 50q80 0 132 -56t52 -147q0 -115 -61 -222t-158 -171z" />
    <glyph glyph-name="Ncaron" unicode="&#x147;" horiz-adv-x="1470" 
d="M999 0l-532 879v-879h-344v1434h356l525 -889v889h344v-1434h-349zM924 1505h-344l-197 297h285l86 -133l84 133h282z" />
    <glyph glyph-name="ncaron" unicode="&#x148;" horiz-adv-x="1161" 
d="M729 0v641q0 73 -39 113.5t-102 40.5q-69 0 -108.5 -43.5t-39.5 -110.5v-641h-342v1075h334v-110q36 55 106.5 96t163.5 41q70 0 126 -17t94 -44.5t66 -69.5t43.5 -83.5t25 -96t12 -98t2.5 -97.5v-596h-342zM752 1188h-344l-197 297h285l86 -133l84 133h282z" />
    <glyph glyph-name="napostrophe" unicode="&#x149;" horiz-adv-x="1368" 
d="M936 0v641q0 73 -39 113.5t-102 40.5q-69 0 -108.5 -43.5t-39.5 -110.5v-641h-342v1075h334v-110q36 55 106.5 96t163.5 41q70 0 126 -17t94 -44.5t66 -69.5t43.5 -83.5t25 -96t12 -98t2.5 -97.5v-596h-342zM-57 1032q83 59 104 131q-64 14 -98.5 62t-34.5 106
q0 72 52 122t124 50q80 0 132 -56t52 -147q0 -115 -61 -222t-158 -171z" />
    <glyph glyph-name="Eng" unicode="&#x14a;" horiz-adv-x="1470" 
d="M1348 1434v-1442q0 -105 -35 -181.5t-97 -120t-137 -63.5t-166 -20q-101 0 -196 22l41 310q74 -11 110 -11q110 0 131 72l-532 879v-879h-344v1434h356l525 -889v889h344z" />
    <glyph glyph-name="eng" unicode="&#x14b;" horiz-adv-x="1161" 
d="M729 0v641q0 73 -39 113.5t-102 40.5q-69 0 -108.5 -43.5t-39.5 -110.5v-641h-342v1075h334v-110q36 55 106.5 96t163.5 41q70 0 126 -17t94 -44.5t66 -69.5t43.5 -83.5t25 -96t12 -98t2.5 -97.5v-600q0 -105 -33.5 -182t-95.5 -121.5t-141.5 -65t-179.5 -20.5
q-22 0 -48 2t-28 2v287h49q126 0 135 102z" />
    <glyph glyph-name="Omacron" unicode="&#x14c;" horiz-adv-x="1613" 
d="M807 -27q-222 0 -394.5 98.5t-265 268t-92.5 379.5q0 208 92.5 376t265 266.5t394.5 98.5t394.5 -98.5t265 -266.5t92.5 -376q0 -210 -92.5 -379.5t-265 -268t-394.5 -98.5zM807 1133q-170 0 -278.5 -117.5t-108.5 -296.5q0 -182 108.5 -300t278.5 -118t278.5 118
t108.5 300q0 179 -108.5 296.5t-278.5 117.5zM518 1528v244h576v-244h-576z" />
    <glyph glyph-name="omacron" unicode="&#x14d;" horiz-adv-x="1259" 
d="M43 535q0 160 76.5 290.5t210 203.5t297.5 73q259 0 424.5 -159t165.5 -404q0 -160 -76 -289.5t-211 -203t-303 -73.5t-302 72.5t-208 201t-74 288.5zM385 535q0 -116 68.5 -188.5t173.5 -72.5q106 0 176.5 75t70.5 190q0 117 -70.5 189.5t-176.5 72.5t-174 -74t-68 -192
zM342 1210v244h576v-244h-576z" />
    <glyph glyph-name="Obreve" unicode="&#x14e;" horiz-adv-x="1613" 
d="M807 -27q-222 0 -394.5 98.5t-265 268t-92.5 379.5q0 208 92.5 376t265 266.5t394.5 98.5t394.5 -98.5t265 -266.5t92.5 -376q0 -210 -92.5 -379.5t-265 -268t-394.5 -98.5zM807 1133q-170 0 -278.5 -117.5t-108.5 -296.5q0 -182 108.5 -300t278.5 -118t278.5 118
t108.5 300q0 179 -108.5 296.5t-278.5 117.5zM805 1513q-155 0 -244.5 86.5t-89.5 225.5h240q0 -117 94 -117q96 0 96 117h240q0 -139 -89.5 -225.5t-246.5 -86.5z" />
    <glyph glyph-name="obreve" unicode="&#x14f;" horiz-adv-x="1259" 
d="M43 535q0 160 76.5 290.5t210 203.5t297.5 73q259 0 424.5 -159t165.5 -404q0 -160 -76 -289.5t-211 -203t-303 -73.5t-302 72.5t-208 201t-74 288.5zM385 535q0 -116 68.5 -188.5t173.5 -72.5q106 0 176.5 75t70.5 190q0 117 -70.5 189.5t-176.5 72.5t-174 -74t-68 -192
zM629 1184q-156 0 -245 86t-89 225h240q0 -117 94 -117q96 0 96 117h240q0 -139 -89.5 -225t-246.5 -86z" />
    <glyph glyph-name="Ohungarumlaut" unicode="&#x150;" horiz-adv-x="1613" 
d="M807 -27q-222 0 -394.5 98.5t-265 268t-92.5 379.5q0 208 92.5 376t265 266.5t394.5 98.5t394.5 -98.5t265 -266.5t92.5 -376q0 -210 -92.5 -379.5t-265 -268t-394.5 -98.5zM807 1133q-170 0 -278.5 -117.5t-108.5 -296.5q0 -182 108.5 -300t278.5 -118t278.5 118
t108.5 300q0 179 -108.5 296.5t-278.5 117.5zM600 1802h322l-205 -297h-252zM995 1802h322l-205 -297h-252z" />
    <glyph glyph-name="ohungarumlaut" unicode="&#x151;" horiz-adv-x="1259" 
d="M43 535q0 160 76.5 290.5t210 203.5t297.5 73q259 0 424.5 -159t165.5 -404q0 -160 -76 -289.5t-211 -203t-303 -73.5t-302 72.5t-208 201t-74 288.5zM385 535q0 -116 68.5 -188.5t173.5 -72.5q106 0 176.5 75t70.5 190q0 117 -70.5 189.5t-176.5 72.5t-174 -74t-68 -192
zM432 1485h322l-205 -297h-252zM827 1485h322l-205 -297h-252z" />
    <glyph glyph-name="OE" unicode="&#x152;" horiz-adv-x="2064" 
d="M807 -27q-222 0 -394.5 98.5t-265 268t-92.5 379.5q0 208 92.5 376t265 266.5t394.5 98.5q106 0 213 -26h942v-314h-512q69 -116 92 -239h359v-312h-355q-22 -132 -96 -256h528v-313h-958q-111 -27 -213 -27zM807 1133q-170 0 -278.5 -117.5t-108.5 -296.5
q0 -182 108.5 -300t278.5 -118t278.5 118t108.5 300q0 179 -108.5 296.5t-278.5 117.5z" />
    <glyph glyph-name="oe" unicode="&#x153;" horiz-adv-x="1957" 
d="M1917 449h-705q6 -74 70.5 -126.5t157.5 -52.5q84 0 142.5 38.5t82.5 76.5l225 -174q-11 -22 -32.5 -49t-61.5 -61.5t-89.5 -62t-121.5 -46.5t-151 -19q-249 0 -400 148q-164 -148 -407 -148q-168 0 -302 72.5t-208 201t-74 288.5t76.5 290.5t210 203.5t297.5 73
q245 0 407 -146q143 146 357 146q254 0 391 -154t137 -432q0 -42 -2 -67zM385 535q0 -116 68.5 -188.5t173.5 -72.5q106 0 176.5 75t70.5 190q0 117 -70.5 189.5t-176.5 72.5t-174 -74t-68 -192zM1397 825q-79 0 -123 -47.5t-51 -111.5h348q-3 67 -50 113t-124 46z" />
    <glyph glyph-name="Racute" unicode="&#x154;" horiz-adv-x="1239" 
d="M1096 993q0 -122 -51.5 -224t-147.5 -155l330 -614h-387l-256 530h-107v-530h-350v1434h467q251 0 376.5 -112.5t125.5 -328.5zM565 1133h-88v-310h105q72 0 113.5 42.5t41.5 115.5q0 74 -40 113t-132 39zM524 1802h355l-205 -297h-285z" />
    <glyph glyph-name="racute" unicode="&#x155;" horiz-adv-x="755" 
d="M717 1102v-348q-28 4 -55 4q-222 0 -222 -283v-475h-342v1075h334v-143q39 80 113 125t172 45zM383 1485h354l-205 -297h-284z" />
    <glyph glyph-name="Rcommaaccent" unicode="&#x156;" horiz-adv-x="1239" 
d="M1096 993q0 -122 -51.5 -224t-147.5 -155l330 -614h-387l-256 530h-107v-530h-350v1434h467q251 0 376.5 -112.5t125.5 -328.5zM565 1133h-88v-310h105q72 0 113.5 42.5t41.5 115.5q0 74 -40 113t-132 39zM467 -526q83 59 104 131q-64 14 -98.5 62t-34.5 106q0 72 52 122
t124 50q81 0 133 -56t52 -147q0 -115 -61 -222t-158 -171z" />
    <glyph glyph-name="rcommaaccent" unicode="&#x157;" horiz-adv-x="755" 
d="M717 1102v-348q-28 4 -55 4q-222 0 -222 -283v-475h-342v1075h334v-143q39 80 113 125t172 45zM174 -526q84 60 105 131q-64 14 -99 62t-35 106q0 72 52.5 122t124.5 50q80 0 132 -56t52 -147q0 -115 -61 -222t-158 -171z" />
    <glyph glyph-name="Rcaron" unicode="&#x158;" horiz-adv-x="1239" 
d="M1096 993q0 -122 -51.5 -224t-147.5 -155l330 -614h-387l-256 530h-107v-530h-350v1434h467q251 0 376.5 -112.5t125.5 -328.5zM565 1133h-88v-310h105q72 0 113.5 42.5t41.5 115.5q0 74 -40 113t-132 39zM735 1505h-344l-196 297h284l86 -133l84 133h283z" />
    <glyph glyph-name="rcaron" unicode="&#x159;" horiz-adv-x="755" 
d="M717 1102v-348q-28 4 -55 4q-222 0 -222 -283v-475h-342v1075h334v-143q39 80 113 125t172 45zM551 1188h-344l-197 297h285l86 -133l84 133h283z" />
    <glyph glyph-name="Sacute" unicode="&#x15a;" horiz-adv-x="1083" 
d="M547 1460q87 0 162 -24.5t123 -60t87 -84t58.5 -86.5t32.5 -77l-291 -133q-14 30 -26 50t-33 43.5t-51.5 36t-69.5 12.5q-50 0 -81.5 -27.5t-31.5 -69.5q0 -39 33 -71.5t85.5 -59t116.5 -54t128 -64.5t116.5 -83.5t85.5 -118.5t33 -161q0 -202 -135.5 -328.5
t-366.5 -126.5q-92 0 -170.5 25.5t-129.5 63t-92 87t-61.5 88.5t-33.5 78l293 146q32 -68 89 -114t126 -46q62 0 94.5 26t32.5 74q0 38 -33 70t-85 58.5t-115.5 55t-127 68t-115.5 88t-85 124.5t-33 169q0 193 128.5 309.5t342.5 116.5zM506 1802h354l-205 -297h-284z" />
    <glyph glyph-name="sacute" unicode="&#x15b;" horiz-adv-x="909" 
d="M442 -27q-141 0 -249.5 55t-163.5 130l192 186q105 -94 238 -94q96 0 96 59q0 24 -27 43t-70.5 34t-96 32.5t-105 45t-96 65t-70.5 99.5t-27 142q0 152 117.5 242t296.5 90q250 0 385 -184l-221 -175q-84 84 -178 84q-37 0 -57.5 -14t-20.5 -39q0 -27 27.5 -46.5
t71 -33.5t96.5 -29.5t106 -40.5t96.5 -60.5t71 -96t27.5 -139.5q0 -161 -125 -258t-314 -97zM426 1485h354l-205 -297h-284z" />
    <glyph glyph-name="Scircumflex" unicode="&#x15c;" horiz-adv-x="1083" 
d="M547 1460q87 0 162 -24.5t123 -60t87 -84t58.5 -86.5t32.5 -77l-291 -133q-14 30 -26 50t-33 43.5t-51.5 36t-69.5 12.5q-50 0 -81.5 -27.5t-31.5 -69.5q0 -39 33 -71.5t85.5 -59t116.5 -54t128 -64.5t116.5 -83.5t85.5 -118.5t33 -161q0 -202 -135.5 -328.5
t-366.5 -126.5q-92 0 -170.5 25.5t-129.5 63t-92 87t-61.5 88.5t-33.5 78l293 146q32 -68 89 -114t126 -46q62 0 94.5 26t32.5 74q0 38 -33 70t-85 58.5t-115.5 55t-127 68t-115.5 88t-85 124.5t-33 169q0 193 128.5 309.5t342.5 116.5zM379 1802h344l197 -297h-283l-84 133
l-86 -133h-285z" />
    <glyph glyph-name="scircumflex" unicode="&#x15d;" horiz-adv-x="909" 
d="M442 -27q-141 0 -249.5 55t-163.5 130l192 186q105 -94 238 -94q96 0 96 59q0 24 -27 43t-70.5 34t-96 32.5t-105 45t-96 65t-70.5 99.5t-27 142q0 152 117.5 242t296.5 90q250 0 385 -184l-221 -175q-84 84 -178 84q-37 0 -57.5 -14t-20.5 -39q0 -27 27.5 -46.5
t71 -33.5t96.5 -29.5t106 -40.5t96.5 -60.5t71 -96t27.5 -139.5q0 -161 -125 -258t-314 -97zM309 1485h344l197 -297h-283l-84 133l-86 -133h-284z" />
    <glyph glyph-name="Scedilla" unicode="&#x15e;" horiz-adv-x="1083" 
d="M547 1460q87 0 162 -24.5t123 -60t87 -84t58.5 -86.5t32.5 -77l-291 -133q-14 30 -26 50t-33 43.5t-51.5 36t-69.5 12.5q-50 0 -81.5 -27.5t-31.5 -69.5q0 -39 33 -71.5t85.5 -59t116.5 -54t128 -64.5t116.5 -83.5t85.5 -118.5t33 -161q0 -181 -110.5 -303t-301.5 -145
l-6 -52q73 -17 112.5 -67t39.5 -127q0 -108 -73 -163.5t-191 -55.5q-66 0 -136 24l41 164q40 -10 70 -10q33 0 54.5 15.5t21.5 41.5q0 28 -28 40.5t-64 12.5l-37 -2l28 179q-76 9 -141.5 38t-108.5 65t-77.5 81t-52.5 80.5t-29 70.5l293 146q32 -68 89 -114t126 -46
q62 0 94.5 26t32.5 74q0 38 -33 70t-85 58.5t-115.5 55t-127 68t-115.5 88t-85 124.5t-33 169q0 193 128.5 309.5t342.5 116.5z" />
    <glyph glyph-name="scedilla" unicode="&#x15f;" horiz-adv-x="909" 
d="M412 -485q-66 0 -136 24l41 164q40 -10 70 -10q33 0 54.5 15.5t21.5 41.5q0 28 -28 40.5t-64 12.5l-37 -2l28 179q-114 14 -200.5 64t-132.5 114l192 186q105 -94 238 -94q96 0 96 59q0 24 -27 43t-70.5 34t-96 32.5t-105 45t-96 65t-70.5 99.5t-27 142q0 152 117.5 242
t296.5 90q250 0 385 -184l-221 -175q-84 84 -178 84q-37 0 -57.5 -14t-20.5 -39q0 -27 27.5 -46.5t71 -33.5t96.5 -29.5t106 -40.5t96.5 -60.5t71 -96t27.5 -139.5q0 -141 -97.5 -233.5t-253.5 -114.5l-6 -52q73 -17 112.5 -67t39.5 -127q0 -108 -73 -163.5t-191 -55.5z" />
    <glyph glyph-name="Scaron" unicode="&#x160;" horiz-adv-x="1083" 
d="M547 1460q87 0 162 -24.5t123 -60t87 -84t58.5 -86.5t32.5 -77l-291 -133q-14 30 -26 50t-33 43.5t-51.5 36t-69.5 12.5q-50 0 -81.5 -27.5t-31.5 -69.5q0 -39 33 -71.5t85.5 -59t116.5 -54t128 -64.5t116.5 -83.5t85.5 -118.5t33 -161q0 -202 -135.5 -328.5
t-366.5 -126.5q-92 0 -170.5 25.5t-129.5 63t-92 87t-61.5 88.5t-33.5 78l293 146q32 -68 89 -114t126 -46q62 0 94.5 26t32.5 74q0 38 -33 70t-85 58.5t-115.5 55t-127 68t-115.5 88t-85 124.5t-33 169q0 193 128.5 309.5t342.5 116.5zM713 1505h-344l-197 297h285l86 -133
l84 133h282z" />
    <glyph glyph-name="scaron" unicode="&#x161;" horiz-adv-x="909" 
d="M442 -27q-141 0 -249.5 55t-163.5 130l192 186q105 -94 238 -94q96 0 96 59q0 24 -27 43t-70.5 34t-96 32.5t-105 45t-96 65t-70.5 99.5t-27 142q0 152 117.5 242t296.5 90q250 0 385 -184l-221 -175q-84 84 -178 84q-37 0 -57.5 -14t-20.5 -39q0 -27 27.5 -46.5
t71 -33.5t96.5 -29.5t106 -40.5t96.5 -60.5t71 -96t27.5 -139.5q0 -161 -125 -258t-314 -97zM643 1188h-344l-197 297h285l86 -133l84 133h283z" />
    <glyph glyph-name="Tcommaaccent" unicode="&#x162;" horiz-adv-x="1046" 
d="M1008 1120h-310v-1120h-137l-10 -72q73 -17 112 -67t39 -127q0 -108 -73 -163.5t-191 -55.5q-65 0 -135 24l41 164q40 -10 70 -10q33 0 54 15.5t21 41.5q0 28 -28 40.5t-64 12.5l-37 -2l33 199h-45v1120h-309v314h969v-314z" />
    <glyph glyph-name="tcommaaccent" unicode="&#x163;" horiz-adv-x="720" 
d="M469 1303v-228h182v-276h-182v-396q0 -116 133 -116q34 0 57 2v-293q-45 -12 -131 -12q-25 0 -61 4l-8 -60q73 -17 112 -67t39 -127q0 -108 -73 -163.5t-191 -55.5q-65 0 -135 24l41 164q40 -10 70 -10q33 0 54 15.5t21 41.5q0 28 -28 40.5t-64 12.5l-37 -2l37 228
q-178 91 -178 391v379h-104v276h104v228h342z" />
    <glyph glyph-name="Tcaron" unicode="&#x164;" horiz-adv-x="1046" 
d="M1008 1120h-310v-1120h-350v1120h-309v314h969v-314zM700 1505h-344l-196 297h284l86 -133l84 133h283z" />
    <glyph glyph-name="tcaron" unicode="&#x165;" horiz-adv-x="722" 
d="M575 1124l15 357h282l-94 -357h-203zM469 1303v-228h182v-276h-182v-396q0 -116 133 -116q34 0 57 2v-293q-45 -12 -131 -12q-198 0 -299.5 102.5t-101.5 333.5v379h-104v276h104v228h342z" />
    <glyph glyph-name="Tbar" unicode="&#x166;" horiz-adv-x="1046" 
d="M1008 1120h-310v-266h234v-252h-234v-602h-350v602h-227v252h227v266h-309v314h969v-314z" />
    <glyph glyph-name="tbar" unicode="&#x167;" horiz-adv-x="720" 
d="M469 1303v-228h182v-276h-182v-127h162v-219h-162v-50q0 -69 40.5 -92.5t111.5 -23.5h38v-291q-45 -12 -131 -12q-198 0 -299.5 102.5t-101.5 333.5v33h-115v219h115v127h-104v276h104v228h342z" />
    <glyph glyph-name="Utilde" unicode="&#x168;" horiz-adv-x="1441" 
d="M721 -25q-283 0 -440.5 157t-157.5 419v883h350v-883q0 -117 66.5 -184.5t183.5 -67.5q118 0 182 67.5t64 186.5v881h350v-881q0 -126 -40.5 -232t-116 -183t-188.5 -120t-253 -43zM879 1509q-61 0 -145 34t-109 34q-29 0 -45.5 -18t-16.5 -52h-209q0 135 66.5 219
t175.5 84q65 0 146 -33.5t106 -33.5q59 0 59 69h209q0 -139 -64.5 -221t-172.5 -82z" />
    <glyph glyph-name="utilde" unicode="&#x169;" horiz-adv-x="1153" 
d="M432 1075v-641q0 -73 39 -113t102 -40q69 0 108.5 43t39.5 110v641h342v-1075h-334v111q-36 -55 -106.5 -96.5t-163.5 -41.5q-70 0 -126 17t-94 44.5t-66 69.5t-43.5 83.5t-25 96t-12 98t-2.5 97.5v596h342zM725 1188q-61 0 -145 33.5t-109 33.5q-61 0 -61 -69h-209
q0 135 66.5 219t174.5 84q65 0 146 -34t106 -34q29 0 44.5 18.5t15.5 51.5h209q0 -139 -65 -221t-173 -82z" />
    <glyph glyph-name="Umacron" unicode="&#x16a;" horiz-adv-x="1441" 
d="M721 -25q-283 0 -440.5 157t-157.5 419v883h350v-883q0 -117 66.5 -184.5t183.5 -67.5q118 0 182 67.5t64 186.5v881h350v-881q0 -126 -40.5 -232t-116 -183t-188.5 -120t-253 -43zM432 1528v244h576v-244h-576z" />
    <glyph glyph-name="umacron" unicode="&#x16b;" horiz-adv-x="1153" 
d="M432 1075v-641q0 -73 39 -113t102 -40q69 0 108.5 43t39.5 110v641h342v-1075h-334v111q-36 -55 -106.5 -96.5t-163.5 -41.5q-70 0 -126 17t-94 44.5t-66 69.5t-43.5 83.5t-25 96t-12 98t-2.5 97.5v596h342zM297 1210v244h575v-244h-575z" />
    <glyph glyph-name="Ubreve" unicode="&#x16c;" horiz-adv-x="1441" 
d="M721 -25q-283 0 -440.5 157t-157.5 419v883h350v-883q0 -117 66.5 -184.5t183.5 -67.5q118 0 182 67.5t64 186.5v881h350v-881q0 -126 -40.5 -232t-116 -183t-188.5 -120t-253 -43zM735 1513q-155 0 -244.5 86.5t-89.5 225.5h240q0 -117 94 -117q96 0 96 117h240
q0 -139 -89.5 -225.5t-246.5 -86.5z" />
    <glyph glyph-name="ubreve" unicode="&#x16d;" horiz-adv-x="1153" 
d="M432 1075v-641q0 -73 39 -113t102 -40q69 0 108.5 43t39.5 110v641h342v-1075h-334v111q-36 -55 -106.5 -96.5t-163.5 -41.5q-70 0 -126 17t-94 44.5t-66 69.5t-43.5 83.5t-25 96t-12 98t-2.5 97.5v596h342zM582 1184q-156 0 -245 86t-89 225h239q0 -117 95 -117
q96 0 96 117h240q0 -139 -89.5 -225t-246.5 -86z" />
    <glyph glyph-name="Uring" unicode="&#x16e;" horiz-adv-x="1441" 
d="M721 -25q-283 0 -440.5 157t-157.5 419v883h350v-883q0 -117 66.5 -184.5t183.5 -67.5q118 0 182 67.5t64 186.5v881h350v-881q0 -126 -40.5 -232t-116 -183t-188.5 -120t-253 -43zM723 1491q-100 0 -168 60.5t-68 154.5q0 95 68 156t168 61q102 0 170 -60.5t68 -154.5
q0 -96 -68 -156.5t-170 -60.5zM725 1630q33 0 53.5 21.5t20.5 56.5q0 34 -21 55t-53 21q-34 0 -54 -21t-20 -55q0 -35 20 -56.5t54 -21.5z" />
    <glyph glyph-name="uring" unicode="&#x16f;" horiz-adv-x="1153" 
d="M432 1075v-641q0 -73 39 -113t102 -40q69 0 108.5 43t39.5 110v641h342v-1075h-334v111q-36 -55 -106.5 -96.5t-163.5 -41.5q-70 0 -126 17t-94 44.5t-66 69.5t-43.5 83.5t-25 96t-12 98t-2.5 97.5v596h342zM586 1145q-100 0 -168 60.5t-68 154.5q0 95 68 156t168 61
q102 0 169.5 -60.5t67.5 -154.5q0 -96 -67.5 -156.5t-169.5 -60.5zM588 1284q33 0 53.5 21.5t20.5 56.5q0 34 -21 55t-53 21q-34 0 -54 -21t-20 -55q0 -35 20 -56.5t54 -21.5z" />
    <glyph glyph-name="Uhungarumlaut" unicode="&#x170;" horiz-adv-x="1441" 
d="M721 -25q-283 0 -440.5 157t-157.5 419v883h350v-883q0 -117 66.5 -184.5t183.5 -67.5q118 0 182 67.5t64 186.5v881h350v-881q0 -126 -40.5 -232t-116 -183t-188.5 -120t-253 -43zM522 1802h322l-205 -297h-252zM918 1802h321l-205 -297h-252z" />
    <glyph glyph-name="uhungarumlaut" unicode="&#x171;" horiz-adv-x="1153" 
d="M432 1075v-641q0 -73 39 -113t102 -40q69 0 108.5 43t39.5 110v641h342v-1075h-334v111q-36 -55 -106.5 -96.5t-163.5 -41.5q-70 0 -126 17t-94 44.5t-66 69.5t-43.5 83.5t-25 96t-12 98t-2.5 97.5v596h342zM342 1485h322l-205 -297h-252zM737 1485h322l-205 -297h-252z
" />
    <glyph glyph-name="Uogonek" unicode="&#x172;" horiz-adv-x="1441" 
d="M1319 553q0 -208 -106 -355t-298 -198q-96 -43 -96 -113q0 -40 28.5 -58.5t63.5 -18.5v-226q-43 -16 -137 -16q-98 0 -165.5 51t-67.5 152q0 123 121 206q-257 17 -398 172t-141 402v883h350v-883q0 -117 66.5 -184.5t183.5 -67.5q118 0 182 67.5t64 186.5v881h350v-881z
" />
    <glyph glyph-name="uogonek" unicode="&#x173;" horiz-adv-x="1153" 
d="M848 0h-119v111q-36 -55 -106.5 -96.5t-163.5 -41.5q-70 0 -126 17t-94 44.5t-66 69.5t-43.5 83.5t-25 96t-12 98t-2.5 97.5v596h342v-641q0 -73 39 -113t102 -40q69 0 108.5 43t39.5 110v641h342v-1075q-96 -43 -96 -113q0 -40 28.5 -58.5t63.5 -18.5v-226
q-43 -16 -137 -16q-98 0 -166 51t-68 152q0 81 50.5 141t109.5 88z" />
    <glyph glyph-name="Wcircumflex" unicode="&#x174;" horiz-adv-x="2035" 
d="M1249 0l-231 901l-232 -901h-397l-373 1434h375l217 -1010l252 1010h316l251 -1010l218 1010h374l-372 -1434h-398zM846 1802h344l196 -297h-282l-84 133l-86 -133h-285z" />
    <glyph glyph-name="wcircumflex" unicode="&#x175;" horiz-adv-x="1708" 
d="M1008 0l-154 608l-154 -608h-385l-301 1075h373l145 -702l162 702h320l162 -702l145 702h373l-301 -1075h-385zM682 1485h344l197 -297h-283l-84 133l-86 -133h-285z" />
    <glyph glyph-name="Ycircumflex" unicode="&#x176;" horiz-adv-x="1249" 
d="M799 0h-348v647l-439 787h394l219 -469l225 469h387l-438 -787v-647zM453 1802h344l196 -297h-282l-84 133l-86 -133h-285z" />
    <glyph glyph-name="ycircumflex" unicode="&#x177;" horiz-adv-x="1138" 
d="M1124 1075l-532 -1442h-324l146 402l-402 1040h367l190 -618l199 618h356zM401 1485h344l197 -297h-283l-84 133l-86 -133h-284z" />
    <glyph glyph-name="Ydieresis" unicode="&#x178;" horiz-adv-x="1249" 
d="M799 0h-348v647l-439 787h394l219 -469l225 469h387l-438 -787v-647zM420 1507q-69 0 -113.5 46t-44.5 112t44.5 112t113.5 46q68 0 113 -46t45 -112t-45 -112t-113 -46zM831 1507q-69 0 -113 46t-44 112t44 112t113 46q68 0 113 -46t45 -112t-45 -112t-113 -46z" />
    <glyph glyph-name="Zacute" unicode="&#x179;" horiz-adv-x="1245" 
d="M1176 0h-1113v223l635 901h-618v310h1089v-222l-641 -903h648v-309zM569 1802h355l-205 -297h-285z" />
    <glyph glyph-name="zacute" unicode="&#x17a;" horiz-adv-x="964" 
d="M903 868l-420 -583h424v-285h-852v205l418 586h-407v284h837v-207zM442 1485h355l-205 -297h-285z" />
    <glyph glyph-name="Zdotaccent" unicode="&#x17b;" horiz-adv-x="1245" 
d="M1176 0h-1113v223l635 901h-618v310h1089v-222l-641 -903h648v-309zM623 1489q-72 0 -124.5 52.5t-52.5 123.5q0 73 52.5 125.5t124.5 52.5q73 0 125.5 -52.5t52.5 -125.5q0 -71 -52.5 -123.5t-125.5 -52.5z" />
    <glyph glyph-name="zdotaccent" unicode="&#x17c;" horiz-adv-x="964" 
d="M903 868l-420 -583h424v-285h-852v205l418 586h-407v284h837v-207zM496 1157q-72 0 -124.5 52.5t-52.5 123.5q0 73 52.5 125.5t124.5 52.5q74 0 126 -52.5t52 -125.5q0 -71 -52.5 -123.5t-125.5 -52.5z" />
    <glyph glyph-name="Zcaron" unicode="&#x17d;" horiz-adv-x="1245" 
d="M1176 0h-1113v223l635 901h-618v310h1089v-222l-641 -903h648v-309zM793 1505h-344l-197 297h285l86 -133l84 133h282z" />
    <glyph glyph-name="zcaron" unicode="&#x17e;" horiz-adv-x="964" 
d="M903 868l-420 -583h424v-285h-852v205l418 586h-407v284h837v-207zM666 1188h-344l-197 297h285l86 -133l84 133h282z" />
    <glyph glyph-name="florin" unicode="&#x192;" horiz-adv-x="997" 
d="M203 8l84 625h-113v276h150l22 178q11 86 41.5 152.5t73 107.5t98.5 67t112.5 36t121.5 10q75 0 135 -12l-37 -283q-36 6 -62 6q-131 0 -147 -112l-20 -150h157v-276h-194l-86 -653q-11 -86 -42 -152.5t-73 -107.5t-98.5 -67t-112.5 -36t-121 -10q-93 0 -135 12l37 283
q36 -6 61 -6q132 0 148 112z" />
    <glyph glyph-name="Aringacute" unicode="&#x1fa;" horiz-adv-x="1384" 
d="M918 322h-451l-102 -322h-353l484 1397q-39 55 -39 123q0 95 67.5 156t167.5 61q102 0 170 -60.5t68 -154.5q0 -74 -41 -127l483 -1395h-352zM662 2083h354l-205 -297h-285zM827 608l-135 455l-135 -455h270zM694 1444q33 0 53.5 21.5t20.5 56.5q0 34 -21 54.5t-53 20.5
q-34 0 -53.5 -20.5t-19.5 -54.5q0 -35 19.5 -56.5t53.5 -21.5z" />
    <glyph glyph-name="aringacute" unicode="&#x1fb;" horiz-adv-x="1091" 
d="M41 334q0 161 114 258.5t304 97.5q112 0 207 -39v39q0 52 -42 84.5t-122 32.5q-132 0 -271 -68l-127 230q201 133 439 133q135 0 228.5 -32.5t144 -94.5t71.5 -136.5t21 -172.5v-666h-306l-18 59q-86 -86 -244 -86q-108 0 -197 40.5t-145.5 124.5t-56.5 196zM383 346
q0 -52 41 -81t104 -29q64 0 104 29t40 81q0 54 -41 84.5t-105 30.5q-62 0 -102.5 -31.5t-40.5 -83.5zM557 1145q-100 0 -167.5 60.5t-67.5 154.5q0 95 67.5 156t167.5 61q102 0 170 -60.5t68 -154.5q0 -96 -68 -156.5t-170 -60.5zM559 1284q33 0 53.5 21.5t20.5 56.5
q0 34 -21 55t-53 21q-34 0 -54 -21t-20 -55q0 -35 20 -56.5t54 -21.5zM559 1909h354l-204 -297h-285z" />
    <glyph glyph-name="AEacute" unicode="&#x1fc;" horiz-adv-x="1804" 
d="M1718 0h-780v322h-379l-162 -322h-381l758 1434h928v-314h-414v-239h352v-312h-352v-256h430v-313zM686 608h252v500zM1073 1802h354l-204 -297h-285z" />
    <glyph glyph-name="aeacute" unicode="&#x1fd;" horiz-adv-x="1753" 
d="M1712 449h-704q6 -74 70 -126.5t157 -52.5q84 0 142.5 38.5t82.5 76.5l226 -174q-14 -29 -46.5 -64.5t-87 -77t-140 -69t-183.5 -27.5q-257 0 -414 154q-58 -75 -146.5 -114.5t-228.5 -39.5q-108 0 -197 40.5t-145.5 124.5t-56.5 196q0 161 114 258.5t304 97.5
q112 0 207 -39v39q0 52 -42 84.5t-122 32.5q-132 0 -271 -68l-127 230q201 133 439 133q212 0 331 -101q135 101 312 101q254 0 391 -154t137 -432q0 -42 -2 -67zM383 346q0 -52 41 -81t104 -29q64 0 104 29t40 81q0 54 -41 84.5t-105 30.5q-62 0 -102.5 -31.5t-40.5 -83.5z
M1192 825q-79 0 -123 -47.5t-51 -111.5h348q-3 67 -50 113t-124 46zM831 1485h355l-205 -297h-285z" />
    <glyph glyph-name="Oslashacute" unicode="&#x1fe;" horiz-adv-x="1613" 
d="M807 -27q-209 0 -381 90l-94 -116l-180 143l92 115q-189 208 -189 514q0 208 92.5 376t265 266.5t394.5 98.5q200 0 369 -86l92 115l180 -143l-88 -111q96 -101 147.5 -233t51.5 -283q0 -210 -92.5 -379.5t-265 -268t-394.5 -98.5zM807 301q170 0 278.5 118t108.5 300
q0 128 -61 231l-490 -614q75 -35 164 -35zM807 1133q-170 0 -278.5 -117.5t-108.5 -296.5q0 -130 53 -225l485 608q-70 31 -151 31zM774 1802h354l-204 -297h-285z" />
    <glyph glyph-name="oslashacute" unicode="&#x1ff;" horiz-adv-x="1261" 
d="M43 535q0 160 76.5 290.5t210 203.5t297.5 73q145 0 278 -60l76 97l156 -121l-72 -90q152 -158 152 -389q0 -160 -76 -289.5t-211 -203t-303 -73.5q-146 0 -271 58l-82 -105l-153 121l76 94q-154 157 -154 394zM385 535q0 -65 25 -123l295 376q-41 13 -78 13
q-106 0 -174 -74t-68 -192zM874 539q0 63 -24 116l-293 -372q30 -9 70 -9q106 0 176.5 75t70.5 190zM592 1485h354l-205 -297h-284z" />
    <glyph glyph-name="Scommaaccent" unicode="&#x218;" horiz-adv-x="1083" 
d="M547 1460q87 0 162 -24.5t123 -60t87 -84t58.5 -86.5t32.5 -77l-291 -133q-14 30 -26 50t-33 43.5t-51.5 36t-69.5 12.5q-50 0 -81.5 -27.5t-31.5 -69.5q0 -39 33 -71.5t85.5 -59t116.5 -54t128 -64.5t116.5 -83.5t85.5 -118.5t33 -161q0 -202 -135.5 -328.5
t-366.5 -126.5q-92 0 -170.5 25.5t-129.5 63t-92 87t-61.5 88.5t-33.5 78l293 146q32 -68 89 -114t126 -46q62 0 94.5 26t32.5 74q0 38 -33 70t-85 58.5t-115.5 55t-127 68t-115.5 88t-85 124.5t-33 169q0 193 128.5 309.5t342.5 116.5zM371 -526q83 59 104 131
q-64 14 -98.5 62t-34.5 106q0 72 52 122t124 50q80 0 132 -56t52 -147q0 -115 -61 -222t-158 -171z" />
    <glyph glyph-name="scommaaccent" unicode="&#x219;" horiz-adv-x="909" 
d="M442 -27q-141 0 -249.5 55t-163.5 130l192 186q105 -94 238 -94q96 0 96 59q0 24 -27 43t-70.5 34t-96 32.5t-105 45t-96 65t-70.5 99.5t-27 142q0 152 117.5 242t296.5 90q250 0 385 -184l-221 -175q-84 84 -178 84q-37 0 -57.5 -14t-20.5 -39q0 -27 27.5 -46.5
t71 -33.5t96.5 -29.5t106 -40.5t96.5 -60.5t71 -96t27.5 -139.5q0 -161 -125 -258t-314 -97zM309 -526q84 60 105 131q-64 14 -98.5 62t-34.5 106q0 72 52 122t124 50q80 0 132 -56t52 -147q0 -115 -61 -222t-158 -171z" />
    <glyph glyph-name="uni021A" unicode="&#x21a;" horiz-adv-x="1046" 
d="M1008 1120h-310v-1120h-350v1120h-309v314h969v-314zM360 -526q84 60 105 131q-64 14 -98.5 62t-34.5 106q0 72 52 122t124 50q80 0 132 -56t52 -147q0 -115 -61 -222t-158 -171z" />
    <glyph glyph-name="uni021B" unicode="&#x21b;" horiz-adv-x="720" 
d="M469 1303v-228h182v-276h-182v-396q0 -116 133 -116q34 0 57 2v-293q-45 -12 -131 -12q-198 0 -299.5 102.5t-101.5 333.5v379h-104v276h104v228h342zM256 -526q83 59 104 131q-64 14 -98.5 62t-34.5 106q0 72 52 122t124 50q81 0 133 -56t52 -147q0 -115 -61 -222
t-158 -171z" />
    <glyph glyph-name="dotlessj" unicode="&#x237;" 
d="M440 1075v-1079q0 -105 -33.5 -182t-95.5 -121.5t-141.5 -65t-179.5 -20.5l-76 6v289q26 -4 49 -4q135 0 135 114v1063h342z" />
    <glyph glyph-name="circumflex" unicode="&#x2c6;" horiz-adv-x="907" 
d="M281 1485h344l196 -297h-282l-84 133l-86 -133h-285z" />
    <glyph glyph-name="caron" unicode="&#x2c7;" horiz-adv-x="907" 
d="M625 1188h-344l-197 297h285l86 -133l84 133h282z" />
    <glyph glyph-name="breve" unicode="&#x2d8;" horiz-adv-x="905" 
d="M451 1184q-156 0 -245 86t-89 225h239q0 -117 95 -117q96 0 96 117h239q0 -139 -89 -225t-246 -86z" />
    <glyph glyph-name="dotaccent" unicode="&#x2d9;" horiz-adv-x="905" 
d="M453 1157q-72 0 -124.5 52.5t-52.5 123.5q0 73 52.5 125.5t124.5 52.5q73 0 125.5 -52.5t52.5 -125.5q0 -71 -52.5 -123.5t-125.5 -52.5z" />
    <glyph glyph-name="ring" unicode="&#x2da;" horiz-adv-x="905" 
d="M451 1145q-100 0 -168 60.5t-68 154.5q0 95 68 156t168 61q102 0 169.5 -60.5t67.5 -154.5q0 -96 -67.5 -156.5t-169.5 -60.5zM453 1284q32 0 52.5 21.5t20.5 56.5q0 34 -20.5 55t-52.5 21q-34 0 -54 -21t-20 -55q0 -35 20 -56.5t54 -21.5z" />
    <glyph glyph-name="ogonek" unicode="&#x2db;" horiz-adv-x="907" 
d="M426 0h215q-96 -43 -96 -113q0 -40 28.5 -58.5t63.5 -18.5v-226q-43 -16 -137 -16q-98 0 -166 51t-68 152q0 81 50.5 141t109.5 88z" />
    <glyph glyph-name="tilde" unicode="&#x2dc;" horiz-adv-x="905" 
d="M596 1188q-62 0 -145 33.5t-109 33.5q-61 0 -61 -69h-209q0 135 66.5 219t174.5 84q65 0 146 -34t106 -34q29 0 44.5 18.5t15.5 51.5h209q0 -139 -65 -221t-173 -82z" />
    <glyph glyph-name="hungarumlaut" unicode="&#x2dd;" horiz-adv-x="960" 
d="M188 1485h322l-205 -297h-252zM584 1485h321l-205 -297h-251z" />
    <glyph glyph-name="Wgrave" unicode="&#x1e80;" horiz-adv-x="2035" 
d="M1249 0l-231 901l-232 -901h-397l-373 1434h375l217 -1010l252 1010h316l251 -1010l218 1010h374l-372 -1434h-398zM662 1802h354l135 -297h-285z" />
    <glyph glyph-name="wgrave" unicode="&#x1e81;" horiz-adv-x="1708" 
d="M1008 0l-154 608l-154 -608h-385l-301 1075h373l145 -702l162 702h320l162 -702l145 702h373l-301 -1075h-385zM508 1485h354l135 -297h-284z" />
    <glyph glyph-name="Wacute" unicode="&#x1e82;" horiz-adv-x="2035" 
d="M1249 0l-231 901l-232 -901h-397l-373 1434h375l217 -1010l252 1010h316l251 -1010l218 1010h374l-372 -1434h-398zM981 1802h354l-205 -297h-284z" />
    <glyph glyph-name="wacute" unicode="&#x1e83;" horiz-adv-x="1708" 
d="M1008 0l-154 608l-154 -608h-385l-301 1075h373l145 -702l162 702h320l162 -702l145 702h373l-301 -1075h-385zM838 1485h354l-205 -297h-285z" />
    <glyph glyph-name="Wdieresis" unicode="&#x1e84;" horiz-adv-x="2035" 
d="M1249 0l-231 901l-232 -901h-397l-373 1434h375l217 -1010l252 1010h316l251 -1010l218 1010h374l-372 -1434h-398zM813 1505q-69 0 -113.5 46t-44.5 112t44.5 112t113.5 46q68 0 113 -46t45 -112t-45 -112t-113 -46zM1225 1505q-69 0 -113.5 46t-44.5 112t44.5 112
t113.5 46q68 0 112.5 -46t44.5 -112t-44.5 -112t-112.5 -46z" />
    <glyph glyph-name="wdieresis" unicode="&#x1e85;" horiz-adv-x="1708" 
d="M1008 0l-154 608l-154 -608h-385l-301 1075h373l145 -702l162 702h320l162 -702l145 702h373l-301 -1075h-385zM649 1180q-69 0 -113 45.5t-44 111.5t44 112t113 46q68 0 113 -46t45 -112q0 -65 -45 -111t-113 -46zM1061 1180q-69 0 -113.5 45.5t-44.5 111.5t44.5 112
t113.5 46q68 0 113 -46t45 -112q0 -65 -45 -111t-113 -46z" />
    <glyph glyph-name="Ygrave" unicode="&#x1ef2;" horiz-adv-x="1249" 
d="M799 0h-348v647l-439 787h394l219 -469l225 469h387l-438 -787v-647zM303 1802h354l136 -297h-285z" />
    <glyph glyph-name="ygrave" unicode="&#x1ef3;" horiz-adv-x="1138" 
d="M1124 1075l-532 -1442h-324l146 402l-402 1040h367l190 -618l199 618h356zM248 1485h354l135 -297h-284z" />
    <glyph glyph-name="endash" unicode="&#x2013;" horiz-adv-x="1376" 
d="M1280 498h-1184v278h1184v-278z" />
    <glyph glyph-name="emdash" unicode="&#x2014;" horiz-adv-x="1935" 
d="M1837 498h-1741v278h1741v-278z" />
    <glyph glyph-name="quoteleft" unicode="&#x2018;" horiz-adv-x="501" 
d="M440 1368q-48 -27 -92.5 -76t-52.5 -100q76 -18 119 -74.5t43 -124.5q0 -85 -59 -145t-144 -60q-89 0 -149 59t-60 163q0 153 71 288t191 218z" />
    <glyph glyph-name="quoteright" unicode="&#x2019;" horiz-adv-x="501" 
d="M61 936q49 27 93.5 76t52.5 100q-76 18 -119 74.5t-43 124.5q0 85 59 145t144 60q89 0 149 -59t60 -163q0 -153 -71 -288t-191 -218z" />
    <glyph glyph-name="quotesinglbase" unicode="&#x201a;" horiz-adv-x="534" 
d="M80 -199q48 27 92.5 76t52.5 100q-76 18 -119 74.5t-43 124.5q0 85 59 145t144 60q89 0 149 -58.5t60 -162.5q0 -153 -71 -288t-191 -218z" />
    <glyph glyph-name="quotedblleft" unicode="&#x201c;" horiz-adv-x="964" 
d="M440 1368q-48 -27 -92.5 -76t-52.5 -100q76 -18 119 -74.5t43 -124.5q0 -85 -59 -145t-144 -60q-89 0 -149 59t-60 163q0 153 71 288t191 218zM903 1368q-48 -27 -92.5 -76t-52.5 -100q76 -18 119 -74.5t43 -124.5q0 -85 -59 -145t-144 -60q-89 0 -149 59t-60 163
q0 153 71 288t191 218z" />
    <glyph glyph-name="quotedblright" unicode="&#x201d;" horiz-adv-x="964" 
d="M524 936q49 27 93.5 76t52.5 100q-76 18 -119 74.5t-43 124.5q0 85 59 145t144 60q89 0 149 -59t60 -163q0 -153 -71.5 -288t-191.5 -218zM61 936q49 27 93.5 76t52.5 100q-76 18 -119 74.5t-43 124.5q0 85 59 145t144 60q89 0 149 -59t60 -163q0 -153 -71 -288
t-191 -218z" />
    <glyph glyph-name="quotedblbase" unicode="&#x201e;" horiz-adv-x="964" 
d="M524 -199q49 27 93.5 76t52.5 100q-76 18 -119 74.5t-43 124.5q0 85 59 145t144 60q89 0 149 -58.5t60 -162.5q0 -153 -71.5 -288t-191.5 -218zM61 -199q49 27 93.5 76t52.5 100q-76 18 -119 74.5t-43 124.5q0 85 59 145t144 60q89 0 149 -58.5t60 -162.5
q0 -153 -71 -288t-191 -218z" />
    <glyph glyph-name="dagger" unicode="&#x2020;" horiz-adv-x="917" 
d="M870 811h-243v-811h-336v811h-242v297h242v326h336v-326h243v-297z" />
    <glyph glyph-name="daggerdbl" unicode="&#x2021;" horiz-adv-x="919" 
d="M49 621h242v190h-242v297h242v326h336v-326h243v-297h-243v-190h243v-295h-243v-326h-336v326h-242v295z" />
    <glyph glyph-name="bullet" unicode="&#x2022;" horiz-adv-x="831" 
d="M416 283q-151 0 -252 102t-101 250t101 250t252 102t251.5 -102t100.5 -250t-100.5 -250t-251.5 -102z" />
    <glyph glyph-name="perthousand" unicode="&#x2030;" horiz-adv-x="2512" 
d="M1552 1434l-1081 -1434h-328l1082 1434h327zM1171 328q0 -49 32 -82t79 -33q51 0 82 33t31 82q0 46 -32 78t-81 32q-50 0 -80.5 -32t-30.5 -78zM918 326q0 149 103.5 251.5t258.5 102.5q160 0 264.5 -102.5t104.5 -251.5q0 -150 -104 -251.5t-263 -101.5t-261.5 100.5
t-102.5 252.5zM299 1108q0 -49 32 -82t79 -33q51 0 81.5 33t30.5 82q0 47 -31.5 79t-80.5 32t-80 -32.5t-31 -78.5zM45 1106q0 149 103.5 251.5t259.5 102.5q159 0 263.5 -102.5t104.5 -251.5q0 -150 -103.5 -251t-262.5 -101t-262 100t-103 252zM1991 328q0 -49 31.5 -82
t78.5 -33q51 0 82 33t31 82q0 46 -32 78t-81 32t-79.5 -32t-30.5 -78zM1737 326q0 149 103.5 251.5t258.5 102.5q160 0 264.5 -102.5t104.5 -251.5q0 -150 -104 -251.5t-263 -101.5t-261.5 100.5t-102.5 252.5z" />
    <glyph glyph-name="guilsinglleft" unicode="&#x2039;" horiz-adv-x="651" 
d="M600 217h-301l-248 389l248 389h301l-250 -389z" />
    <glyph glyph-name="guilsinglright" unicode="&#x203a;" horiz-adv-x="651" 
d="M352 217h-301l250 389l-250 389h301l248 -389z" />
    <glyph glyph-name="fraction" unicode="&#x2044;" horiz-adv-x="983" 
d="M1014 1518l-754 -1602h-289l752 1602h291z" />
    <glyph glyph-name="Euro" unicode="&#x20ac;" horiz-adv-x="1339" 
d="M47 989h141q71 207 252.5 339t421.5 132q223 0 375 -92l-143 -287q-40 23 -105 41.5t-125 18.5q-95 0 -173.5 -40.5t-119.5 -111.5h396l-21 -219h-436q-2 -16 -2 -51q0 -25 4 -45h424l-21 -219h-331q44 -73 124.5 -112.5t178.5 -39.5q69 0 131.5 19.5t99.5 44.5l131 -285
q-45 -43 -143.5 -76t-218.5 -33q-260 0 -444 131.5t-257 350.5h-139v219h98q-2 14 -2 43q0 35 2 53h-98v219z" />
    <glyph glyph-name="numero" unicode="&#x2116;" horiz-adv-x="2361" 
d="M1724 1079q0 -62 41 -104.5t111 -42.5q67 0 108 42.5t41 104.5q0 64 -40 109t-109 45t-110.5 -45.5t-41.5 -108.5zM1485 1079q0 100 47.5 186.5t138.5 140.5t205 54t205 -54t138.5 -140.5t47.5 -186.5q0 -154 -109.5 -264t-281.5 -110t-281.5 110t-109.5 264zM999 0
l-532 879v-879h-344v1434h356l525 -889v889h344v-1434h-349zM1524 348v264h700v-264h-700z" />
    <glyph glyph-name="trademark" unicode="&#x2122;" horiz-adv-x="1642" 
d="M645 1434v-203h-172v-537h-229v537h-174v203h575zM1243 776h-205l-108 297v-379h-221v740h292l138 -396l141 396h293v-740h-221v379z" />
    <glyph glyph-name="minus" unicode="&#x2212;" horiz-adv-x="1128" 
d="M72 504v270h985v-270h-985z" />
    <glyph glyph-name="commaaccent" unicode="&#xf6c3;" horiz-adv-x="661" 
d="M178 -526q84 60 105 131q-64 14 -98.5 62t-34.5 106q0 72 52 122t124 50q80 0 132 -56t52 -147q0 -115 -61 -222t-158 -171z" />
    <glyph glyph-name="hyphen.caps" horiz-adv-x="788" 
d="M96 569v308h594v-308h-594z" />
    <glyph glyph-name="endash.caps" horiz-adv-x="1376" 
d="M1280 588h-1184v278h1184v-278z" />
    <glyph glyph-name="emdash.caps" horiz-adv-x="1935" 
d="M1837 588h-1741v278h1741v-278z" />
    <glyph glyph-name="guillemotleft.caps" horiz-adv-x="1067" 
d="M600 342h-301l-248 389l248 389h301l-250 -389zM1016 342h-299l-250 389l250 389h299l-250 -389z" />
    <glyph glyph-name="guillemotright.caps" horiz-adv-x="1067" 
d="M768 342h-301l250 389l-250 389h301l248 -389zM350 342h-299l250 389l-250 389h299l250 -389z" />
    <glyph glyph-name="guilsinglleft.caps" horiz-adv-x="651" 
d="M600 342h-301l-248 389l248 389h301l-250 -389z" />
    <glyph glyph-name="guilsinglright.caps" horiz-adv-x="651" 
d="M350 342h-299l250 389l-250 389h299l250 -389z" />
    <glyph glyph-name="parenleft.caps" horiz-adv-x="716" 
d="M72 162v1089q0 228 128.5 350.5t389.5 122.5v-294q-180 0 -180 -173v-1101q0 -172 180 -172v-295q-262 0 -390 122t-128 351z" />
    <glyph glyph-name="parenright.caps" horiz-adv-x="716" 
d="M645 1251v-1089q0 -229 -128 -351t-390 -122v295q180 0 180 172v1101q0 173 -180 173v294q261 0 389.5 -122.5t128.5 -350.5z" />
    <glyph glyph-name="bracketleft.caps" horiz-adv-x="716" 
d="M72 -311v2035h518v-294h-180v-1446h180v-295h-518z" />
    <glyph glyph-name="bracketright.caps" horiz-adv-x="716" 
d="M645 1724v-2035h-518v295h180v1446h-180v294h518z" />
    <glyph glyph-name="braceleft.caps" horiz-adv-x="843" 
d="M360 707q19 -4 45.5 -20t57.5 -46t52.5 -83t21.5 -118v-284q0 -172 180 -172v-295q-261 0 -389.5 122.5t-128.5 350.5v213q0 51 -15 87t-39 53t-47 23.5t-47 6.5v323q24 0 47 6.5t47 23.5t39 53t15 87v213q0 228 128.5 350.5t389.5 122.5v-294q-180 0 -180 -173v-284
q0 -65 -21.5 -118t-52.5 -82.5t-57.5 -45.5t-45.5 -20z" />
    <glyph glyph-name="bar.caps" horiz-adv-x="608" 
d="M465 1784v-2243h-322v2243h322z" />
    <glyph glyph-name="braceright.caps" horiz-adv-x="843" 
d="M483 707q-19 4 -45.5 20t-57.5 45.5t-52 82.5t-21 118v284q0 173 -180 173v294q261 0 389.5 -122.5t128.5 -350.5v-213q0 -51 15 -87t39 -53t47 -23.5t47 -6.5v-323q-24 0 -47 -6.5t-47 -23.5t-39 -53t-15 -87v-213q0 -228 -128.5 -350.5t-389.5 -122.5v295
q180 0 180 172v284q0 65 21 118t52 83t57.5 46t45.5 20z" />
    <glyph glyph-name="slash.caps" horiz-adv-x="954" 
d="M932 1591l-613 -1757h-296l612 1757h297z" />
    <glyph glyph-name="backslash.caps" horiz-adv-x="954" 
d="M635 -166l-612 1757h296l613 -1757h-297z" />
    <glyph glyph-name="exclamdown.caps" horiz-adv-x="632" 
d="M315 1460q85 0 145 -60t60 -143q0 -85 -60 -144.5t-145 -59.5t-143.5 59.5t-58.5 144.5q0 84 59 143.5t143 59.5zM471 1001l27 -1001h-363l27 1001h309z" />
    <glyph glyph-name="questiondown.caps" horiz-adv-x="1003" 
d="M379 922v79h332v-102q0 -76 -32.5 -141t-78.5 -109t-92 -82.5t-78.5 -81t-32.5 -86.5q0 -52 34.5 -87.5t100.5 -35.5q35 0 62 11t45 32.5t27 36t20 37.5l268 -121q-13 -40 -33 -76.5t-56.5 -78.5t-83.5 -72.5t-117.5 -51t-153.5 -20.5q-202 0 -331.5 112t-129.5 292
q0 69 24.5 129t61 101t79.5 82.5t79.5 74t61 74t24.5 84.5zM547 1460q84 0 143.5 -59.5t59.5 -143.5q0 -85 -59 -144.5t-144 -59.5t-145 59.5t-60 144.5q0 83 60 143t145 60z" />
    <glyph glyph-name="periodcentered.caps" horiz-adv-x="534" 
d="M266 518q-84 0 -143.5 59.5t-59.5 143.5q0 85 59 145t144 60t145 -60t60 -145q0 -83 -60 -143t-145 -60z" />
    <glyph glyph-name="bullet.caps" horiz-adv-x="831" 
d="M416 373q-151 0 -252 102t-101 250t101 250t252 102t251.5 -102t100.5 -250t-100.5 -250t-251.5 -102z" />
    <glyph glyph-name="zero.tab" horiz-adv-x="1232" 
d="M1126 717q0 -379 -122 -561.5t-388 -182.5t-388 182.5t-122 561.5t121.5 561t388.5 182t388.5 -182t121.5 -561zM461 717q0 -114 6.5 -187.5t23.5 -127.5t47.5 -77.5t77.5 -23.5q92 0 124 94.5t32 321.5t-32 321.5t-124 94.5q-47 0 -77.5 -23.5t-47.5 -77.5t-23.5 -127.5
t-6.5 -187.5z" />
    <glyph glyph-name="one.tab" horiz-adv-x="1232" 
d="M1116 0h-969v305h353v787l-258 -119l-125 266l442 195h287v-1129h270v-305z" />
    <glyph glyph-name="two.tab" horiz-adv-x="1232" 
d="M1112 0h-981v125q0 84 33.5 167t87.5 151t119 133t130 122.5t119 109t87.5 102.5t33.5 94q0 64 -39 99.5t-106 35.5q-126 0 -172 -142l-303 90q12 51 33.5 99t61.5 99t92 89t130.5 62t171.5 24q216 0 352 -118.5t136 -323.5q0 -74 -26.5 -143.5t-70.5 -124.5
t-97.5 -105.5t-110 -94.5t-105.5 -83.5t-87 -81.5t-52 -80h563v-305z" />
    <glyph glyph-name="three.tab" horiz-adv-x="1232" 
d="M608 -27q-93 0 -171.5 24t-130.5 62t-92 89t-61.5 99t-33.5 99l303 90q20 -63 65.5 -102t112.5 -39q72 0 115 42t43 112q0 63 -44 105t-124 42h-199v268l256 264h-469v306h871v-304l-261 -247q324 -67 324 -420q0 -218 -142 -354t-362 -136z" />
    <glyph glyph-name="four.tab" horiz-adv-x="1232" 
d="M1180 319h-160v-319h-342v319h-627v248l557 867h412v-820h160v-295zM678 1059l-270 -445h270v445z" />
    <glyph glyph-name="five.tab" horiz-adv-x="1232" 
d="M580 655q-50 0 -86.5 -20.5t-53.5 -44.5l-286 45l28 799h848v-306h-536l-11 -215q79 37 185 37q87 0 168.5 -31t145 -87t102 -141.5t38.5 -186.5q0 -232 -144.5 -381.5t-363.5 -149.5q-93 0 -173 24t-134.5 62t-96.5 88.5t-65.5 99.5t-35.5 99l303 90q17 -66 65.5 -103.5
t118.5 -37.5q73 0 122.5 50t49.5 130q0 70 -47 125t-141 55z" />
    <glyph glyph-name="six.tab" horiz-adv-x="1232" 
d="M1063 1370l-133 -285q-84 48 -187 48q-63 0 -112.5 -18t-76.5 -44t-44.5 -59t-23 -57.5t-5.5 -45.5q82 60 224 60q187 0 304 -124.5t117 -357.5q0 -226 -138 -370t-359 -144q-120 0 -211 31.5t-149.5 87.5t-95.5 141t-52 182.5t-15 221.5q0 130 17 243.5t60.5 222.5
t111 186t176 124t248.5 47q197 0 344 -90zM623 657q-88 0 -162 -71q0 -43 1.5 -72.5t7 -66t17 -60t29.5 -45t47 -31.5t68 -10q74 0 112.5 46.5t38.5 127.5q0 82 -41.5 132t-117.5 50z" />
    <glyph glyph-name="seven.tab" horiz-adv-x="1232" 
d="M1116 1188l-471 -1188h-379l461 1128h-610v306h999v-246z" />
    <glyph glyph-name="eight.tab" horiz-adv-x="1232" 
d="M614 -27q-239 0 -378.5 123.5t-139.5 335.5q0 111 50 197t124 131q-58 42 -98.5 115t-40.5 167q0 182 132 300t353 118t353.5 -117.5t132.5 -300.5q0 -94 -41 -167.5t-100 -114.5q77 -46 126.5 -131t49.5 -197q0 -210 -142.5 -334.5t-380.5 -124.5zM616 588
q-75 0 -119 -43t-44 -107q0 -66 42.5 -106.5t120.5 -40.5q79 0 121.5 40t42.5 107q0 64 -43.5 107t-120.5 43zM616 1147q-67 0 -103 -35.5t-36 -91.5q0 -61 37.5 -95t101.5 -34t102 34t38 95q0 56 -37 91.5t-103 35.5z" />
    <glyph glyph-name="nine.tab" horiz-adv-x="1232" 
d="M170 63l133 285q82 -47 186 -47q63 0 112.5 18t77 44t45 58.5t23 57t5.5 45.5q-81 -59 -224 -59q-90 0 -166.5 30.5t-133.5 89t-89.5 151t-32.5 210.5q0 226 138.5 370t359.5 144q120 0 210.5 -31.5t149.5 -87.5t95.5 -140.5t51.5 -182t15 -221.5q0 -92 -8.5 -175
t-28.5 -167t-51.5 -154.5t-80 -132t-110.5 -104t-147 -67t-186 -24.5q-197 0 -344 90zM610 776q87 0 162 72q0 43 -1.5 72.5t-7 66t-17 60t-29.5 45t-47 31.5t-68 10q-74 0 -112.5 -47t-38.5 -128q0 -82 41.5 -132t117.5 -50z" />
    </font>
</defs>
</svg>
