<?xml version="1.0" standalone="no"?>
<!DOCTYPE svg PUBLIC "-//W3C//DTD SVG 1.1//EN" "http://www.w3.org/Graphics/SVG/1.1/DTD/svg11.dtd" >
<svg xmlns="http://www.w3.org/2000/svg" xmlns:xlink="http://www.w3.org/1999/xlink" version="1.1">
<metadata>
Created by FontForge 20170731 at Tue Oct  5 11:52:15 2021
 By Aleksey,,,
Copyright (c) 2015 by atipo. All rights reserved.
</metadata>
<defs>
<font id="Geomanist-Italic" horiz-adv-x="440" >
  <font-face 
    font-family="Geomanist"
    font-weight="400"
    font-style="italic"
    font-stretch="normal"
    units-per-em="2048"
    panose-1="2 0 5 3 0 0 0 9 0 4"
    ascent="1536"
    descent="-512"
    x-height="1065"
    cap-height="1434"
    bbox="-152 -485 2372 2044"
    underline-thickness="102"
    underline-position="-307"
    unicode-range="U+0020-F6C3"
  />
<missing-glyph horiz-adv-x="1040" 
d="M8 0l240 1434h1024l-240 -1434h-1024zM655 809l437 522h-697zM702 717l261 -522l174 1044zM143 195l437 522l-263 522zM188 102h697l-260 523z" />
    <glyph glyph-name="ellipsis" unicode="&#x2e;&#x2e;&#x2e;" horiz-adv-x="1382" 
d="M113 74q0 52 43 90.5t96 38.5q42 0 69 -28.5t27 -70.5q0 -53 -41 -92t-94 -39q-43 0 -71.5 29t-28.5 72zM588 72q0 53 41 92t96 39q41 0 69.5 -29t28.5 -72q0 -52 -42 -90.5t-95 -38.5q-42 0 -70 28.5t-28 70.5zM1061 74q0 52 42 90.5t97 38.5q41 0 68.5 -28.5
t27.5 -70.5q0 -53 -41 -92t-94 -39q-43 0 -71.5 29t-28.5 72z" />
    <glyph glyph-name=".notdef" horiz-adv-x="1040" 
d="M8 0l240 1434h1024l-240 -1434h-1024zM655 809l437 522h-697zM702 717l261 -522l174 1044zM143 195l437 522l-263 522zM188 102h697l-260 523z" />
    <glyph glyph-name=".null" horiz-adv-x="0" 
 />
    <glyph glyph-name="nonmarkingreturn" horiz-adv-x="682" 
 />
    <glyph glyph-name="space" unicode=" " horiz-adv-x="520" 
 />
    <glyph glyph-name="exclam" unicode="!" horiz-adv-x="528" 
d="M254 360l166 1074h170l-195 -1074h-141zM162 74q0 53 40 91t95 38q44 0 72 -28.5t28 -70.5q0 -54 -38 -92.5t-93 -38.5q-44 0 -74 29t-30 72z" />
    <glyph glyph-name="quotedbl" unicode="&#x22;" horiz-adv-x="610" 
d="M283 1028l55 406h143l-80 -406h-118zM551 1028l57 406h144l-80 -406h-121z" />
    <glyph glyph-name="numbersign" unicode="#" horiz-adv-x="1327" 
d="M217 0l148 393h-238l49 133h238l143 379h-235l47 133h239l148 396h145l-145 -396h295l147 396h145l-145 -396h240l-47 -133h-244l-141 -379h241l-49 -133h-244l-147 -393h-145l145 393h-297l-148 -393h-145zM561 526h297l143 379h-296z" />
    <glyph glyph-name="dollar" unicode="$" horiz-adv-x="1036" 
d="M119 289l151 61q8 -45 26 -82t49 -70.5t82.5 -52t119.5 -18.5q131 0 217 74.5t86 197.5q0 61 -31 111t-80 85t-109 68t-119.5 68.5t-108.5 77.5t-80 104.5t-31 139.5q0 161 112.5 273.5t298.5 129.5l21 113h125l-21 -113q72 -10 130 -41.5t91.5 -73t52 -80t25.5 -75.5
l-147 -58q-58 181 -240 181q-127 0 -203.5 -71.5t-76.5 -172.5q0 -44 19.5 -82.5t52 -68.5t74.5 -58t89 -54.5t93.5 -54.5t88.5 -61.5t74.5 -71t52 -88t19.5 -108.5q0 -182 -119.5 -306t-320.5 -137l-27 -151h-125l27 156q-79 10 -142.5 42t-102.5 77t-62 92.5t-31 97.5z
" />
    <glyph glyph-name="percent" unicode="%" horiz-adv-x="1550" 
d="M143 0l1332 1434h172l-1334 -1434h-170zM537 834q-120 0 -194.5 76t-74.5 190q0 146 110 253t261 107q124 0 200 -77t76 -193q0 -146 -112 -251t-266 -105zM559 961q92 0 153.5 62.5t61.5 150.5q0 69 -41.5 114t-111.5 45q-89 0 -151 -64.5t-62 -152.5q0 -68 41 -111.5
t110 -43.5zM872 240q0 146 110.5 253t262.5 107q123 0 199 -77t76 -193q0 -147 -112.5 -252t-264.5 -105q-121 0 -196 75.5t-75 191.5zM1012 256q0 -69 41 -113.5t110 -44.5q92 0 153.5 63t61.5 152q0 69 -41.5 113.5t-113.5 44.5q-89 0 -150 -63.5t-61 -151.5z" />
    <glyph glyph-name="ampersand" unicode="&#x26;" horiz-adv-x="1284" 
d="M1137 -8l-117 145q-84 -73 -203 -118.5t-248 -45.5q-202 0 -317 107.5t-115 269.5q0 272 324 434q-109 134 -109 267q0 78 30 150.5t85 130.5t141.5 93t190.5 35q162 0 258 -84.5t96 -218.5q0 -150 -98.5 -257.5t-296.5 -209.5l284 -328q54 74 78 142t43 180h156
q-22 -136 -61 -237t-117 -199l125 -150zM594 121q92 0 181 35.5t151 89.5l-377 428q-107 -43 -176.5 -121t-69.5 -188q0 -113 82 -178.5t209 -65.5zM506 1063q0 -75 42 -139t120 -142q329 152 329 348q0 85 -56.5 139t-152.5 54q-118 0 -200 -75.5t-82 -184.5z" />
    <glyph glyph-name="quotesingle" unicode="'" horiz-adv-x="342" 
d="M283 1028l55 406h143l-80 -406h-118z" />
    <glyph glyph-name="parenleft" unicode="(" horiz-adv-x="612" 
d="M508 1241l-203 -1212q-14 -86 15 -133.5t124 -47.5l-24 -141q-161 0 -232.5 82t-44.5 248l201 1196q29 169 124.5 249.5t262.5 80.5l-22 -142q-89 0 -138.5 -48.5t-62.5 -131.5z" />
    <glyph glyph-name="parenright" unicode=")" horiz-adv-x="612" 
d="M317 29l203 1212q31 180 -139 180l25 142q162 0 233.5 -81.5t42.5 -248.5l-201 -1196q-27 -166 -126.5 -248t-260.5 -82l25 141q89 0 137 49t61 132z" />
    <glyph glyph-name="asterisk" unicode="*" horiz-adv-x="876" 
d="M496 735l41 238l-228 -121l-55 106l246 129l-191 121l76 103l188 -121l39 244h127l-39 -240l220 117l51 -107l-228 -123l189 -120l-74 -103l-194 123l-41 -246h-127z" />
    <glyph glyph-name="plus" unicode="+" horiz-adv-x="1126" 
d="M178 569l23 138h407l74 436h147l-73 -436h407l-22 -138h-408l-74 -438h-147l74 438h-408z" />
    <glyph glyph-name="comma" unicode="," horiz-adv-x="434" 
d="M113 74q0 52 39.5 90.5t93.5 38.5q45 0 73.5 -28t28.5 -75q0 -182 -215 -348l-72 74q38 26 80 69t54 80q-38 6 -60 34t-22 65z" />
    <glyph glyph-name="hyphen" unicode="-" horiz-adv-x="692" 
d="M174 541l25 151h522l-25 -151h-522z" />
    <glyph glyph-name="period" unicode="." horiz-adv-x="436" 
d="M113 74q0 53 40 91t95 38q44 0 72 -28.5t28 -70.5q0 -54 -38 -92.5t-93 -38.5q-44 0 -74 29t-30 72z" />
    <glyph glyph-name="slash" unicode="/" horiz-adv-x="872" 
d="M12 -221l916 1757h153l-915 -1757h-154z" />
    <glyph glyph-name="zero" unicode="0" horiz-adv-x="1134" 
d="M1149 717q-24 -147 -55.5 -259t-78.5 -205.5t-109 -153.5t-146.5 -93t-190.5 -33q-132 0 -215.5 50t-119.5 145.5t-38 233.5t29 315q29 185 71.5 316.5t110 230.5t166.5 147.5t232 48.5q132 0 215 -50t119 -145t38 -233t-28 -315zM393 717q-13 -81 -20.5 -140t-11 -124
t2 -110t20.5 -88t42 -69t69 -41.5t99 -15.5t104 15.5t81.5 41.5t63.5 69.5t48.5 88.5t37 110.5t28.5 123.5t24 139q10 63 15.5 109t10.5 100t4.5 93t-4.5 81t-15 71t-28.5 56t-43 43t-61 25.5t-79.5 9.5q-65 0 -117 -19.5t-90.5 -59.5t-66.5 -88.5t-49.5 -120.5
t-35.5 -139.5t-28 -160.5z" />
    <glyph glyph-name="one" unicode="1" horiz-adv-x="636" 
d="M334 1198l-29 137l264 99h136l-240 -1434h-166l211 1264z" />
    <glyph glyph-name="two" unicode="2" horiz-adv-x="1044" 
d="M90 0l16 88q16 84 71 165t130.5 148t163 132.5t172 130.5t153.5 130t111.5 142.5t42.5 157.5q0 94 -57.5 152.5t-163.5 58.5q-208 0 -301 -222l-154 41q18 45 42 86.5t66.5 88.5t93 81.5t124 57t158.5 22.5q174 0 270 -101t96 -255q0 -76 -26 -148t-70.5 -132.5
t-102 -118t-122.5 -108t-130.5 -98t-127 -93t-111.5 -87.5t-84.5 -86t-44.5 -86h680l-24 -147h-871z" />
    <glyph glyph-name="three" unicode="3" horiz-adv-x="1075" 
d="M1169 1434l-26 -156l-449 -442q62 0 123.5 -20.5t116.5 -60.5t89 -110.5t34 -159.5q0 -141 -74 -259t-197 -184.5t-264 -66.5q-82 0 -148.5 19t-109.5 49.5t-73 73t-44.5 84t-19.5 86.5l149 51q15 -95 79.5 -153t189.5 -58q139 0 239.5 95.5t100.5 234.5q0 237 -281 237
h-125l23 133l452 457h-614l27 150h802z" />
    <glyph glyph-name="four" unicode="4" horiz-adv-x="1146" 
d="M125 362l20 125l811 947h179l-156 -924h188l-24 -148h-189l-61 -362h-164l62 362h-666zM334 510h481l119 709z" />
    <glyph glyph-name="five" unicode="5" horiz-adv-x="1071" 
d="M547 127q151 0 248.5 109.5t97.5 263.5q0 117 -66.5 191.5t-187.5 74.5q-78 0 -136.5 -25t-117.5 -69l-135 24l156 738h731l-27 -152h-582l-94 -442q116 69 252 69q173 0 276 -106t103 -275q0 -149 -69 -276.5t-192.5 -203t-273.5 -75.5q-99 0 -176 28.5t-123 76
t-71.5 100t-32.5 109.5l152 51q13 -95 78.5 -153t189.5 -58z" />
    <glyph glyph-name="six" unicode="6" horiz-adv-x="1118" 
d="M594 129q149 0 245.5 107.5t96.5 285.5q0 114 -60.5 185t-175.5 71q-101 0 -189 -53.5t-149 -144.5q-14 -92 -14 -168q0 -283 246 -283zM877 1460q176 0 305 -102l-97 -127q-95 74 -231 74q-103 0 -188 -46.5t-141.5 -126t-92 -172t-51.5 -196.5q58 66 155.5 116
t211.5 50q172 0 265 -104.5t93 -274.5q0 -257 -145 -417.5t-386 -160.5q-104 0 -181.5 35.5t-122.5 99t-67 144t-22 178.5q0 91 8.5 182.5t30.5 195t56 195t89.5 176.5t125.5 146.5t169 98t216 36.5z" />
    <glyph glyph-name="seven" unicode="7" horiz-adv-x="989" 
d="M299 1434h881l-21 -127l-725 -1307h-178l717 1282h-699z" />
    <glyph glyph-name="eight" unicode="8" horiz-adv-x="1124" 
d="M557 -27q-184 0 -294.5 100t-110.5 265q0 74 22.5 140t55.5 111.5t77 83t81.5 58.5t74.5 35q-57 31 -103.5 101t-46.5 165q0 184 141.5 306t344.5 122q165 0 267.5 -90t102.5 -237q0 -72 -26 -136.5t-67.5 -109t-81.5 -74.5t-79 -47q31 -14 61.5 -38t60.5 -60.5t48.5 -91
t18.5 -117.5q0 -139 -72 -250.5t-197 -173.5t-278 -62zM674 682q-144 0 -247 -89t-103 -231q0 -101 67.5 -169t190.5 -68q157 0 253.5 95.5t96.5 225.5q0 109 -71 172.5t-187 63.5zM700 834q122 0 210.5 81.5t88.5 190.5q0 89 -57.5 145t-163.5 56q-134 0 -216.5 -79.5
t-82.5 -187.5q0 -88 61.5 -147t159.5 -59z" />
    <glyph glyph-name="nine" unicode="9" horiz-adv-x="1118" 
d="M764 1305q-149 0 -245.5 -108t-96.5 -286q0 -114 60 -185t175 -71q101 0 189 54t149 145q15 99 15 168q0 283 -246 283zM481 -27q-175 0 -305 103l96 127q95 -74 232 -74q103 0 188 46.5t141.5 126t92 172t51.5 196.5q-58 -66 -155.5 -116t-211.5 -50q-172 0 -265 104.5
t-93 274.5q0 257 144.5 417t385.5 160q104 0 181.5 -35.5t123 -98.5t67.5 -143.5t22 -178.5q0 -91 -8.5 -182.5t-30.5 -195t-56 -195t-89.5 -177t-125.5 -147t-169 -98t-216 -36.5z" />
    <glyph glyph-name="colon" unicode=":" horiz-adv-x="434" 
d="M113 74q0 52 43 90.5t96 38.5q42 0 69 -28.5t27 -70.5q0 -53 -41 -92t-94 -39q-43 0 -71.5 29t-28.5 72zM246 868q0 52 42 90.5t95 38.5q42 0 70 -28t28 -70q0 -53 -41 -93t-94 -40q-43 0 -71.5 29.5t-28.5 72.5z" />
    <glyph glyph-name="semicolon" unicode=";" horiz-adv-x="434" 
d="M248 868q0 52 42 90.5t95 38.5q42 0 69 -28t27 -70q0 -53 -41 -93t-94 -40q-42 0 -70 29.5t-28 72.5zM115 74q0 52 39.5 90.5t93.5 38.5q45 0 73.5 -28t28.5 -75q0 -182 -215 -348l-63 74q101 70 125 149q-38 6 -60 34t-22 65z" />
    <glyph glyph-name="less" unicode="&#x3c;" horiz-adv-x="1009" 
d="M184 573l23 132l895 378l-27 -153l-715 -297l617 -295l-25 -143z" />
    <glyph glyph-name="equal" unicode="=" horiz-adv-x="1126" 
d="M205 731l22 135h963l-23 -135h-962zM147 391l23 137h963l-23 -137h-963z" />
    <glyph glyph-name="greater" unicode="&#x3e;" horiz-adv-x="1009" 
d="M1040 705l-22 -132l-897 -378l24 153l713 295l-614 289l26 151z" />
    <glyph glyph-name="question" unicode="?" horiz-adv-x="956" 
d="M408 360l16 97q11 64 42.5 119t73 96t89.5 79t94 75.5t83 77t60 92.5t23 114q0 90 -55.5 145.5t-155.5 55.5q-54 0 -99 -15.5t-77.5 -43.5t-52.5 -52.5t-41 -58.5l-132 57q25 47 57 88t82.5 83t124 66.5t160.5 24.5q157 0 259 -91.5t102 -231.5q0 -78 -24 -145.5
t-63.5 -116.5t-87.5 -92t-98 -80.5t-92.5 -74.5t-73 -82.5t-38.5 -94.5l-15 -91h-161zM328 74q0 53 40 91t95 38q44 0 72 -28.5t28 -70.5q0 -54 -38 -92.5t-93 -38.5q-44 0 -74 29t-30 72z" />
    <glyph glyph-name="at" unicode="@" horiz-adv-x="1824" 
d="M592 465q0 134 65.5 243t170.5 167.5t225 58.5q52 0 97 -13.5t73 -34.5t44 -38t25 -33l19 107h137l-88 -523q-23 -149 100 -149q106 0 181 128t75 339q0 119 -39 219t-112 172.5t-184 113t-248 40.5q-171 0 -325.5 -68t-264 -181.5t-174 -267t-64.5 -319.5
q0 -173 69 -308t200.5 -212.5t306.5 -77.5q216 0 399 94l45 -104q-87 -49 -208.5 -82t-256.5 -33q-201 0 -360.5 91t-248.5 253t-89 367q0 198 78.5 377.5t211 309.5t315.5 206.5t384 76.5q166 0 300 -51.5t220.5 -141t133 -208t46.5 -254.5q0 -276 -116.5 -439t-304.5 -163
q-89 0 -140 43.5t-59 112.5q-17 -24 -42 -48t-63 -50t-91.5 -42t-112.5 -16q-146 0 -238 93t-92 245zM741 481q0 -102 58.5 -164.5t152.5 -62.5q124 0 213.5 88.5t89.5 239.5q0 101 -56.5 162t-156.5 61q-123 0 -212 -90.5t-89 -233.5z" />
    <glyph glyph-name="A" unicode="A" horiz-adv-x="1292" 
d="M1006 465h-560l-249 -465h-172l776 1434h168l297 -1434h-166zM981 608l-125 643l-336 -643h461z" />
    <glyph glyph-name="B" unicode="B" horiz-adv-x="1114" 
d="M162 0l239 1434h396q179 0 274.5 -81.5t95.5 -224.5q0 -127 -65 -223.5t-178 -152.5q85 -33 133.5 -107.5t48.5 -177.5q0 -140 -69 -248t-183.5 -163.5t-253.5 -55.5h-438zM463 813h248q123 0 202.5 79.5t79.5 205.5q0 88 -52 138t-150 50h-248zM352 145h244
q153 0 245.5 80t92.5 236q0 109 -67.5 161t-184.5 52h-242z" />
    <glyph glyph-name="C" unicode="C" horiz-adv-x="1343" 
d="M1266 289l26 -152q-43 -33 -101 -65.5t-167.5 -65.5t-220.5 -33q-137 0 -253 48t-195 131.5t-123 200t-44 251.5q0 175 71 334.5t189 273t275.5 181t325.5 67.5q144 0 248.5 -44.5t168.5 -104.5l-77 -148q-32 30 -73 58t-122 56t-168 28q-131 0 -253.5 -54t-212.5 -144.5
t-144 -217.5t-54 -266q0 -217 128 -355.5t344 -138.5q217 0 432 160z" />
    <glyph glyph-name="D" unicode="D" horiz-adv-x="1304" 
d="M162 0l239 1434h295q319 0 490.5 -155t171.5 -433q0 -403 -241 -624.5t-660 -221.5h-295zM352 147h162q199 0 350 78.5t236.5 232t85.5 363.5q0 218 -127.5 340.5t-353.5 122.5h-162z" />
    <glyph glyph-name="E" unicode="E" horiz-adv-x="970" 
d="M162 0l239 1434h680l-24 -152h-514l-80 -477h448l-24 -150h-449l-86 -505h537l-25 -150h-702z" />
    <glyph glyph-name="F" unicode="F" horiz-adv-x="956" 
d="M162 0l239 1434h680l-24 -152h-514l-82 -491h450l-26 -150h-451l-106 -641h-166z" />
    <glyph glyph-name="G" unicode="G" horiz-adv-x="1507" 
d="M1049 1460q101 0 187 -21t145.5 -56t96 -66.5t64.5 -65.5l-125 -110q-143 164 -391 164q-137 0 -260 -54t-211.5 -146.5t-140.5 -220t-52 -268.5q0 -218 127 -353.5t338 -135.5q81 0 158 16.5t133.5 43t92.5 49t61 43.5l51 299h-319l24 145h479l-88 -520
q-136 -118 -288 -174t-336 -56q-270 0 -439.5 174t-169.5 451q0 175 69.5 334.5t185.5 275t275.5 184t332.5 68.5z" />
    <glyph glyph-name="H" unicode="H" horiz-adv-x="1417" 
d="M162 0l239 1434h166l-104 -629h762l104 629h166l-240 -1434h-165l108 653h-762l-108 -653h-166z" />
    <glyph glyph-name="I" unicode="I" horiz-adv-x="489" 
d="M162 0l239 1434h166l-239 -1434h-166z" />
    <glyph glyph-name="J" unicode="J" horiz-adv-x="706" 
d="M47 12l43 146q65 -21 133 -21q179 0 215 209l183 1088h165l-186 -1110q-27 -163 -128.5 -249.5t-256.5 -86.5q-104 0 -168 24z" />
    <glyph glyph-name="K" unicode="K" horiz-adv-x="1157" 
d="M162 0l239 1434h166l-110 -660l673 660h209l-716 -695l501 -739h-194l-481 721l-121 -721h-166z" />
    <glyph glyph-name="L" unicode="L" horiz-adv-x="919" 
d="M162 0l239 1434h166l-215 -1284h537l-25 -150h-702z" />
    <glyph glyph-name="M" unicode="M" horiz-adv-x="1775" 
d="M612 1434l328 -1117l688 1117h225l-239 -1434h-160l201 1192l-654 -1061h-174l-307 1063l-201 -1194h-159l239 1434h213z" />
    <glyph glyph-name="N" unicode="N" horiz-adv-x="1441" 
d="M160 0l239 1434h166l594 -1172l197 1172h164l-240 -1434h-164l-596 1167l-194 -1167h-166z" />
    <glyph glyph-name="O" unicode="O" horiz-adv-x="1619" 
d="M186 604q0 175 71 334.5t188.5 273t277 181t330.5 67.5q183 0 324.5 -83.5t217.5 -228t76 -323.5q0 -139 -45 -269.5t-127 -235t-189.5 -183.5t-238.5 -121.5t-268 -42.5q-182 0 -323.5 81.5t-217.5 225t-76 324.5zM360 625q0 -218 130 -357t341 -139q175 0 328 88.5
t245.5 245.5t92.5 344q0 217 -130 357.5t-339 140.5q-132 0 -254.5 -53t-213.5 -143.5t-145.5 -217t-54.5 -266.5z" />
    <glyph glyph-name="P" unicode="P" horiz-adv-x="1040" 
d="M162 0l239 1434h394q172 0 269 -90t97 -250q0 -219 -144.5 -356.5t-361.5 -137.5h-227l-100 -600h-166zM453 748h213q147 0 235 89t88 230q0 103 -60.5 161t-172.5 58h-213z" />
    <glyph glyph-name="Q" unicode="Q" horiz-adv-x="1619" 
d="M186 604q0 175 71 334.5t188.5 273t277 181t330.5 67.5q183 0 324.5 -83.5t217.5 -228t76 -323.5q0 -176 -69.5 -332t-194.5 -274l123 -141l-125 -107l-127 144q-219 -142 -475 -142q-182 0 -323.5 81.5t-217.5 225t-76 324.5zM360 625q0 -218 130 -357t341 -139
q187 0 349 100l-136 158l123 107l138 -160q90 93 141 215t51 258q0 217 -130 357.5t-339 140.5q-132 0 -254.5 -53t-213.5 -143.5t-145.5 -217t-54.5 -266.5z" />
    <glyph glyph-name="R" unicode="R" horiz-adv-x="1120" 
d="M162 0l239 1434h365q191 0 289 -85t98 -241q0 -155 -85 -281t-234 -170l245 -657h-184l-219 623h-244l-104 -623h-166zM457 768h198q152 0 237 79t85 236q0 96 -60 149.5t-186 53.5h-188z" />
    <glyph glyph-name="S" unicode="S" horiz-adv-x="1036" 
d="M119 289l151 61q8 -45 26 -82t49 -70.5t82.5 -52t119.5 -18.5q131 0 217 74.5t86 197.5q0 61 -31 111t-80 85t-109 68t-119.5 68.5t-108.5 77.5t-80 104.5t-31 139.5q0 175 131 291t340 116q90 0 161 -28.5t111.5 -73.5t62 -87.5t29.5 -84.5l-147 -58q-58 181 -240 181
q-127 0 -203.5 -71.5t-76.5 -172.5q0 -44 19.5 -82.5t52 -68.5t74.5 -58t89 -54.5t93.5 -54.5t88.5 -61.5t74.5 -71t52 -88t19.5 -108.5q0 -192 -132.5 -318.5t-352.5 -126.5q-99 0 -178.5 29.5t-127.5 78t-75.5 100.5t-36.5 108z" />
    <glyph glyph-name="T" unicode="T" horiz-adv-x="1046" 
d="M430 0l215 1282h-387l25 152h938l-25 -152h-385l-215 -1282h-166z" />
    <glyph glyph-name="U" unicode="U" horiz-adv-x="1376" 
d="M690 -27q-255 0 -373.5 146.5t-76.5 394.5l153 920h166l-153 -918q-30 -182 47.5 -285.5t255.5 -103.5q179 0 292 104t144 287l153 916h164l-153 -918q-41 -249 -203 -396t-416 -147z" />
    <glyph glyph-name="V" unicode="V" horiz-adv-x="1304" 
d="M741 0h-178l-305 1434h180l246 -1237l657 1237h185z" />
    <glyph glyph-name="W" unicode="W" horiz-adv-x="1931" 
d="M1313 0l-150 1190l-547 -1190h-184l-170 1434h176l127 -1223l553 1223h166l150 -1223l534 1223h178l-647 -1434h-186z" />
    <glyph glyph-name="X" unicode="X" horiz-adv-x="1234" 
d="M1032 0l-311 614l-492 -614h-202l624 766l-342 668h185l276 -562l442 562h197l-567 -711l368 -723h-178z" />
    <glyph glyph-name="Y" unicode="Y" horiz-adv-x="1089" 
d="M463 0l115 672l-318 762h174l242 -607l446 607h189l-572 -762l-112 -672h-164z" />
    <glyph glyph-name="Z" unicode="Z" horiz-adv-x="1216" 
d="M72 0l20 121l1032 1163h-811l25 150h1032l-20 -123l-1033 -1161h842l-24 -150h-1063z" />
    <glyph glyph-name="bracketleft" unicode="[" horiz-adv-x="612" 
d="M88 -293l311 1856h332l-24 -142h-170l-263 -1573h170l-24 -141h-332z" />
    <glyph glyph-name="backslash" unicode="\" horiz-adv-x="872" 
d="M459 1536l325 -1757h-149l-326 1757h150z" />
    <glyph glyph-name="bracketright" unicode="]" horiz-adv-x="624" 
d="M737 1563l-311 -1856h-332l25 141h170l262 1573h-170l25 142h331z" />
    <glyph glyph-name="asciicircum" unicode="^" horiz-adv-x="1071" 
d="M201 651l504 783h139l243 -783h-161l-174 619l-392 -619h-159z" />
    <glyph glyph-name="underscore" unicode="_" horiz-adv-x="1241" 
d="M57 -59h1106l-22 -136h-1106z" />
    <glyph glyph-name="grave" unicode="`" horiz-adv-x="1001" 
d="M764 1485l98 -291h-137l-135 291h174z" />
    <glyph glyph-name="a" unicode="a" horiz-adv-x="1044" 
d="M119 279q0 112 63 203.5t171.5 143.5t238.5 52q94 0 164 -29t100 -67l23 131q19 111 -40.5 173t-179.5 62q-146 0 -325 -94l-47 123q199 115 403 115q200 0 289 -107t59 -283l-116 -702h-140l-4 90q-123 -117 -307 -117q-157 0 -254.5 86t-97.5 220zM287 301
q0 -84 62.5 -138t170.5 -54q130 0 217.5 71.5t87.5 179.5q0 86 -63 137.5t-170 51.5q-132 0 -218.5 -72t-86.5 -176z" />
    <glyph glyph-name="b" unicode="b" horiz-adv-x="1253" 
d="M139 0l248 1481h162l-98 -588q15 20 37 42t61 51.5t82.5 52t104.5 38t124 15.5q195 0 309.5 -128t114.5 -335q0 -138 -47 -260t-128 -209t-194 -137t-239 -50q-65 0 -123 17t-95 40t-68 53t-44.5 49.5t-21.5 35.5l-29 -168h-156zM377 459q0 -147 79.5 -243.5t219.5 -96.5
q86 0 166 35.5t140.5 98t97 153.5t36.5 196q0 152 -82 247t-217 95q-86 0 -165.5 -34.5t-140.5 -95.5t-97.5 -153.5t-36.5 -201.5z" />
    <glyph glyph-name="c" unicode="c" horiz-adv-x="1048" 
d="M1145 946l-78 -139q-17 21 -39.5 40.5t-59 43t-87 37.5t-107.5 14q-93 0 -177.5 -37.5t-145.5 -101t-97.5 -151t-36.5 -183.5q0 -150 90 -249t234 -99q179 0 340 141l29 -145q-184 -144 -400 -144q-208 0 -335.5 136.5t-127.5 343.5q0 130 51 248.5t137 204t203.5 136
t245.5 50.5q129 0 220.5 -45.5t140.5 -100.5z" />
    <glyph glyph-name="d" unicode="d" horiz-adv-x="1253" 
d="M1362 1481l-248 -1481h-158l29 168q-16 -19 -32.5 -36t-56 -48.5t-81 -53.5t-104 -39.5t-127.5 -17.5q-199 0 -318 128.5t-119 334.5q0 182 79.5 332.5t219.5 237t310 86.5q63 0 118.5 -15.5t92.5 -38.5t66.5 -51.5t44.5 -51.5t22 -42l98 588h164zM1055 606
q0 157 -84 247.5t-217 90.5q-118 0 -218.5 -63.5t-160.5 -176.5t-60 -249q0 -152 83 -244t218 -92q124 0 225.5 67.5t157.5 179t56 240.5z" />
    <glyph glyph-name="e" unicode="e" horiz-adv-x="1157" 
d="M150 438q0 178 81 328.5t220.5 238t304.5 87.5q209 0 322.5 -119t113.5 -320q0 -67 -21 -155h-852q-29 -175 61 -278t259 -103q213 0 358 166l99 -80q-69 -91 -194.5 -160.5t-289.5 -69.5q-213 0 -337.5 128t-124.5 337zM344 618h686q19 159 -63.5 246.5t-221.5 87.5
q-146 0 -257.5 -92t-143.5 -242z" />
    <glyph glyph-name="f" unicode="f" horiz-adv-x="602" 
d="M172 0l156 928h-119l22 137h119l10 55q18 97 57 168t93.5 110.5t114 58t127.5 18.5l67 -5l-22 -141q-27 4 -52 4q-182 0 -221 -213l-10 -55h227l-22 -137h-227l-156 -928h-164z" />
    <glyph glyph-name="g" unicode="g" horiz-adv-x="1243" 
d="M147 -287l80 127q26 -17 61.5 -34.5t104.5 -35.5t139 -18q165 0 284 80t147 242l16 94q-21 -25 -46.5 -48.5t-77.5 -61.5t-125.5 -61.5t-154.5 -23.5q-197 0 -313.5 128t-116.5 333q0 183 81 334.5t221 237.5t309 86q63 0 118.5 -15.5t92.5 -38t67.5 -51.5t46 -51.5
t25.5 -42.5l29 172h155l-157 -948q-85 -510 -611 -510q-101 0 -206 31t-169 75zM1053 606q0 156 -83.5 247t-219.5 91q-180 0 -309.5 -139.5t-129.5 -345.5q0 -153 83.5 -245.5t219.5 -92.5q122 0 223.5 66t158.5 177t57 242z" />
    <glyph glyph-name="h" unicode="h" horiz-adv-x="1122" 
d="M799 1092q180 0 258.5 -118.5t46.5 -307.5l-111 -666h-162l113 672q21 125 -38 198.5t-169 73.5q-123 0 -214 -82.5t-113 -214.5l-109 -647h-162l248 1481h162l-96 -570q54 77 148 129t198 52z" />
    <glyph glyph-name="i" unicode="i" 
d="M139 0l178 1065h162l-178 -1065h-162zM332 1323q0 52 38.5 89.5t90.5 37.5q42 0 69 -27t27 -69q0 -52 -40 -89.5t-93 -37.5q-41 0 -66.5 27t-25.5 69z" />
    <glyph glyph-name="j" unicode="j" 
d="M133 -31l184 1096h162l-184 -1100q-16 -98 -53.5 -169t-91 -111t-114 -58t-132.5 -18l-56 4l23 139q18 -2 45 -2q91 0 144.5 53t72.5 166zM330 1323q0 52 39.5 89.5t91.5 37.5q42 0 69 -27t27 -69q0 -52 -40 -89.5t-93 -37.5q-41 0 -67.5 27.5t-26.5 68.5z" />
    <glyph glyph-name="k" unicode="k" horiz-adv-x="978" 
d="M139 0l248 1481h162l-146 -873l502 457h213l-545 -485l394 -580h-187l-385 567l-94 -567h-162z" />
    <glyph glyph-name="l" unicode="l" 
d="M139 0l248 1481h162l-248 -1481h-162z" />
    <glyph glyph-name="m" unicode="m" horiz-adv-x="1759" 
d="M1743 690l-115 -690h-162l107 641q50 303 -189 303q-116 0 -202.5 -80t-110.5 -225l-106 -639h-162l112 672q22 127 -31.5 199.5t-166.5 72.5q-108 0 -196 -83.5t-111 -215.5l-109 -645h-162l178 1065h160l-26 -154q46 75 136.5 128t194.5 53q117 0 192 -52.5t97 -142.5
q64 94 162 144.5t213 50.5q174 0 250.5 -111t46.5 -291z" />
    <glyph glyph-name="n" unicode="n" horiz-adv-x="1122" 
d="M799 1092q121 0 197 -56.5t101.5 -151.5t4.5 -218l-111 -666h-162l113 672q21 125 -37.5 198.5t-169.5 73.5q-123 0 -213 -82.5t-112 -214.5l-109 -647h-162l178 1065h160l-26 -154q54 77 148.5 129t199.5 52z" />
    <glyph glyph-name="o" unicode="o" horiz-adv-x="1247" 
d="M315 465q0 -153 89.5 -248.5t238.5 -95.5q194 0 331.5 138.5t137.5 338.5q0 152 -91 249t-241 97q-127 0 -234 -64t-169 -174t-62 -241zM147 446q0 178 91.5 327.5t243 234t325.5 84.5q212 0 341.5 -134t129.5 -342q0 -176 -90.5 -324.5t-242 -233.5t-327.5 -85
q-212 0 -341.5 132.5t-129.5 340.5z" />
    <glyph glyph-name="p" unicode="p" horiz-adv-x="1255" 
d="M76 -383l241 1448h156l-27 -168q16 19 32.5 36t56.5 48.5t81.5 53.5t104 39.5t127.5 17.5q199 0 318.5 -129.5t119.5 -335.5q0 -137 -48 -258.5t-129.5 -208t-195 -137t-239.5 -50.5q-63 0 -118.5 16t-92 38t-66 51.5t-44 51.5t-23.5 42l-92 -555h-162zM377 459
q0 -157 84 -247.5t219 -90.5q118 0 218.5 63t160 175.5t59.5 248.5q0 153 -84.5 244.5t-220.5 91.5q-123 0 -224 -67.5t-156.5 -178.5t-55.5 -239z" />
    <glyph glyph-name="q" unicode="q" horiz-adv-x="1255" 
d="M1292 1065l-241 -1448h-162l94 555q-20 -27 -50.5 -55.5t-81.5 -63.5t-124 -57.5t-154 -22.5q-195 0 -309 127t-114 334q0 139 47.5 261.5t128.5 209.5t194.5 137t241.5 50q65 0 122.5 -17t94 -40t67 -53t43 -49t21.5 -36l27 168h155zM1057 604q0 146 -83.5 243
t-225.5 97q-179 0 -306 -135.5t-127 -347.5q0 -151 82.5 -245.5t216.5 -94.5q86 0 166 34.5t141.5 95.5t98.5 153t37 200z" />
    <glyph glyph-name="r" unicode="r" horiz-adv-x="657" 
d="M799 1092l-27 -162q-162 0 -256.5 -110.5t-128.5 -309.5l-86 -510h-162l178 1065h160l-31 -178q44 85 140.5 145t212.5 60z" />
    <glyph glyph-name="s" unicode="s" horiz-adv-x="854" 
d="M92 201l121 69q68 -159 244 -159q92 0 159.5 52t67.5 138q0 42 -25 76.5t-65 59t-88.5 48t-97.5 50.5t-89 59.5t-65 81t-25 108.5q0 139 110.5 223.5t274.5 84.5q70 0 128 -20.5t93.5 -53t56.5 -66t28 -65.5l-129 -68q-9 26 -21 46t-34 43t-58.5 35.5t-85.5 12.5
q-86 0 -144.5 -44t-58.5 -119q0 -41 25 -75.5t65.5 -60t89.5 -50.5t97.5 -53.5t89 -61.5t65.5 -81.5t25 -107.5q0 -152 -110.5 -241t-297.5 -89q-76 0 -138 21t-102 57t-64.5 72t-41.5 78z" />
    <glyph glyph-name="t" unicode="t" horiz-adv-x="604" 
d="M334 1065l39 223h157l-38 -223h233l-23 -137h-233l-92 -549q-24 -144 10.5 -195t136.5 -51l54 4l-25 -145q-43 -6 -98 -6q-147 0 -209 89.5t-33 268.5l94 584h-125l23 137h129z" />
    <glyph glyph-name="u" unicode="u" horiz-adv-x="1112" 
d="M502 -27q-180 0 -258.5 118.5t-46.5 307.5l110 666h162l-113 -672q-21 -125 38 -198.5t169 -73.5q123 0 213.5 82.5t112.5 214.5l108 647h164l-178 -1065h-162l27 154q-52 -76 -147 -128.5t-199 -52.5z" />
    <glyph glyph-name="v" unicode="v" horiz-adv-x="1026" 
d="M602 0h-178l-234 1065h172l181 -883l473 883h174z" />
    <glyph glyph-name="w" unicode="w" horiz-adv-x="1671" 
d="M1118 0l-141 846l-426 -846h-178l-180 1065h174l131 -877q5 7 434 877h162l137 -877l428 877h176l-539 -1065h-178z" />
    <glyph glyph-name="x" unicode="x" horiz-adv-x="1032" 
d="M823 0l-239 426l-363 -426h-198l485 563l-279 502h191l211 -393l334 393h192l-450 -530l303 -535h-187z" />
    <glyph glyph-name="y" unicode="y" horiz-adv-x="1040" 
d="M393 -367h-168l221 377l-256 1055h172l193 -862l473 862h176z" />
    <glyph glyph-name="z" unicode="z" horiz-adv-x="946" 
d="M66 0l18 115l737 811h-581l22 139h782l-20 -117l-733 -811h608l-22 -137h-811z" />
    <glyph glyph-name="braceleft" unicode="{" horiz-adv-x="698" 
d="M229 37l50 293q21 123 -8 177t-103 54l25 148q75 0 121 53.5t67 177.5l49 293q57 330 387 330l-24 -142q-171 0 -199 -180l-57 -338q-12 -68 -36.5 -121.5t-54.5 -82.5t-52 -43.5t-40 -20.5q12 -5 25 -14t31 -29.5t27.5 -49.5t15 -73.5t-6.5 -101.5l-57 -338
q-14 -83 19 -132t122 -49l-24 -141q-331 0 -277 330z" />
    <glyph glyph-name="bar" unicode="|" horiz-adv-x="516" 
d="M111 -422l340 2026h155l-340 -2026h-155z" />
    <glyph glyph-name="braceright" unicode="}" horiz-adv-x="698" 
d="M530 330l-49 -293q-57 -330 -387 -330l25 141q167 0 198 181l58 338q12 68 36.5 121.5t54 82.5t51.5 43.5t40 20.5q-12 5 -25 14t-31 29.5t-27.5 49.5t-15 73.5t6.5 101.5l55 338q31 180 -139 180l25 142q162 0 233.5 -81.5t42.5 -248.5l-49 -293q-21 -124 7 -177.5
t103 -53.5l-24 -148q-74 0 -121 -54t-68 -177z" />
    <glyph glyph-name="asciitilde" unicode="~" horiz-adv-x="1097" 
d="M846 627q62 0 99.5 40t49.5 101h146q-20 -118 -104.5 -202.5t-205.5 -84.5q-44 0 -85 14.5t-73 35.5t-63.5 42t-70 35.5t-78.5 14.5q-63 0 -102 -40.5t-52 -101.5h-143q21 125 105.5 206t205.5 81q55 0 110.5 -22t93.5 -48.5t84 -48.5t83 -22z" />
    <glyph glyph-name="exclamdown" unicode="&#xa1;" horiz-adv-x="528" 
d="M463 760l-166 -1073h-170l195 1073h141zM555 1047q0 -52 -42 -90.5t-95 -38.5q-42 0 -70.5 28t-28.5 70q0 53 41.5 92t94.5 39q43 0 71.5 -28.5t28.5 -71.5z" />
    <glyph glyph-name="cent" unicode="&#xa2;" horiz-adv-x="1060" 
d="M1174 1104l-78 -139q-17 21 -39.5 40.5t-59 43t-87 37.5t-107.5 14q-93 0 -177.5 -37.5t-145.5 -101t-97.5 -151t-36.5 -183.5q0 -157 89 -252.5t235 -95.5q179 0 340 141l28 -146q-151 -120 -331 -139l-23 -135h-127l23 133q-184 20 -294 153t-110 324q0 166 79 308
t214.5 229.5t296.5 99.5l31 187h127l-31 -191q98 -13 169 -53.5t112 -85.5z" />
    <glyph glyph-name="sterling" unicode="&#xa3;" horiz-adv-x="1136" 
d="M207 645l22 137h119l45 265q32 189 154.5 301t316.5 112q83 0 150 -25.5t106.5 -66t62 -84t27.5 -86.5l-143 -59q-13 65 -66 115.5t-149 50.5q-122 0 -198 -71.5t-97 -195.5l-43 -256h344l-22 -137h-344l-84 -498h657l-25 -147h-960l24 147h138l84 498h-119z" />
    <glyph glyph-name="yen" unicode="&#xa5;" horiz-adv-x="1126" 
d="M481 0l62 365h-326l21 120h325l33 185h-328l21 123h256l-266 641h174l247 -607l445 607h184l-481 -641h256l-21 -123h-325l-31 -185h326l-21 -120h-325l-62 -365h-164z" />
    <glyph glyph-name="section" unicode="&#xa7;" horiz-adv-x="976" 
d="M985 512q0 -110 -67 -195t-170 -124q108 -98 108 -240q0 -167 -126 -278t-322 -111q-82 0 -149.5 26t-108.5 66.5t-64.5 82t-30.5 81.5l144 55q8 -30 23.5 -56t41.5 -51.5t69 -40t99 -14.5q122 0 190 61t68 160q0 62 -35 109.5t-100 91.5l-260 176q-56 36 -92.5 97
t-36.5 141q0 111 67 196.5t170 124.5q-108 98 -108 240q0 172 121 286.5t327 114.5q71 0 130 -19t96.5 -47.5t65.5 -66t41.5 -70.5t19.5 -65l-142 -55q-8 31 -23.5 57.5t-42 52t-70 40t-99.5 14.5q-121 0 -188.5 -62t-67.5 -162q0 -114 135 -200l203 -133q184 -125 184 -283
zM829 494q0 100 -122 176l-175 106q-86 -3 -148 -64.5t-62 -144.5q0 -90 67 -133l229 -147q86 3 148.5 64t62.5 143z" />
    <glyph glyph-name="dieresis" unicode="&#xa8;" horiz-adv-x="1001" 
d="M453 1323q0 46 35.5 81.5t82.5 35.5q39 0 63.5 -25.5t24.5 -62.5q0 -48 -34.5 -82.5t-83.5 -34.5q-38 0 -63 25.5t-25 62.5zM788 1323q0 46 35 81.5t84 35.5q38 0 63 -26t25 -62q0 -47 -35.5 -82t-82.5 -35q-39 0 -64 25.5t-25 62.5z" />
    <glyph glyph-name="copyright" unicode="&#xa9;" horiz-adv-x="1646" 
d="M197 602q0 171 69 329.5t184.5 274.5t275.5 185t335 69q181 0 325 -84.5t223 -229.5t79 -323q0 -172 -69.5 -329.5t-186 -272t-278 -182.5t-337.5 -68q-185 0 -327.5 83.5t-217.5 226.5t-75 321zM328 614q0 -230 138.5 -378t369.5 -148q148 0 281.5 57t229 154t151.5 231
t56 283q0 151 -60.5 270t-178 188.5t-273.5 69.5q-193 0 -357.5 -97.5t-260.5 -265t-96 -364.5zM563 645q0 125 56 230.5t159 169t232 63.5q102 0 172.5 -48t105.5 -106l-96 -77q-74 104 -199 104q-132 0 -212.5 -92.5t-80.5 -226.5q0 -97 52.5 -157.5t150.5 -60.5
q129 0 234 105l75 -82q-135 -150 -319 -150q-151 0 -240.5 92.5t-89.5 235.5z" />
    <glyph glyph-name="ordfeminine" unicode="&#xaa;" horiz-adv-x="835" 
d="M233 846q0 131 104 218t257 87q63 0 114 -19.5t80 -46.5l15 84q13 82 -30.5 127t-129.5 45q-100 0 -242 -71l-45 102q153 88 318 88q154 0 216.5 -81t39.5 -218l-88 -528h-111l-4 61q-91 -80 -227 -80q-120 0 -193.5 64.5t-73.5 167.5zM365 866q0 -62 47 -101.5
t127 -39.5q95 0 160 51.5t65 130.5q0 62 -47 99.5t-125 37.5q-98 0 -162.5 -51.5t-64.5 -126.5z" />
    <glyph glyph-name="guillemotleft" unicode="&#xab;" horiz-adv-x="876" 
d="M494 598l315 377h162l-320 -377l193 -375h-150zM369 223l-199 375l313 377h162l-317 -377l190 -375h-149z" />
    <glyph glyph-name="registered" unicode="&#xae;" horiz-adv-x="925" 
d="M649 1049h-57l-29 -168h-96l74 442h153q63 0 97 -30.5t34 -82.5t-25.5 -88t-62.5 -51l51 -190h-100zM680 1239h-57l-17 -106h58q27 0 43 18t16 45q0 43 -43 43zM217 1038q0 96 37.5 184.5t102.5 154t157 104.5t195 39q170 0 267 -99.5t97 -253.5q0 -128 -60 -237
t-174.5 -176.5t-260.5 -67.5q-167 0 -264 99t-97 253zM311 1049q0 -122 74 -199.5t205 -77.5q174 0 281.5 110.5t107.5 276.5q0 124 -74.5 198.5t-208.5 74.5q-168 0 -276.5 -110.5t-108.5 -272.5z" />
    <glyph glyph-name="macron" unicode="&#xaf;" horiz-adv-x="923" 
d="M428 1288l23 129h495l-22 -129h-496z" />
    <glyph glyph-name="degree" unicode="&#xb0;" horiz-adv-x="729" 
d="M254 1118q0 138 101.5 240t246.5 102q117 0 188.5 -72.5t71.5 -179.5q0 -140 -101.5 -240t-250.5 -100q-117 0 -186.5 71.5t-69.5 178.5zM385 1135q0 -64 38 -105t105 -41q88 0 145.5 59.5t57.5 145.5q0 63 -39 104t-106 41q-85 0 -143 -60t-58 -144z" />
    <glyph glyph-name="twosuperior" unicode="&#xb2;" horiz-adv-x="700" 
d="M201 623l18 94q11 57 50.5 110t90.5 91t108 77.5t104.5 72.5t78.5 74t31 83q0 44 -32 74t-85 30q-92 0 -159 -106l-109 43q36 73 113 128.5t180 55.5t163 -57.5t60 -147.5q0 -53 -23 -101t-60 -84.5t-82 -70t-92 -63.5t-87 -58.5t-68.5 -62t-35.5 -68.5h376l-18 -114
h-522z" />
    <glyph glyph-name="threesuperior" unicode="&#xb3;" horiz-adv-x="698" 
d="M840 1434l-17 -99l-252 -231q88 -2 145.5 -56.5t57.5 -146.5q0 -133 -94.5 -214t-228.5 -81q-107 0 -163.5 53.5t-74.5 131.5l113 45q11 -46 45 -78.5t98 -32.5q71 0 119.5 44t48.5 120q0 56 -38.5 87.5t-109.5 31.5h-75l16 100l227 209h-319l20 117h482z" />
    <glyph glyph-name="acute" unicode="&#xb4;" horiz-adv-x="1001" 
d="M539 1194l188 291h184l-231 -291h-141z" />
    <glyph glyph-name="paragraph" unicode="&#xb6;" horiz-adv-x="1034" 
d="M457 -92l129 766q-144 1 -236 95t-92 232q0 115 63.5 215.5t167 159t218.5 58.5h145l-256 -1526h-139zM729 -92l256 1526h141l-256 -1526h-141z" />
    <glyph glyph-name="periodcentered" unicode="&#xb7;" horiz-adv-x="462" 
d="M221 629q0 53 40 91t95 38q44 0 72.5 -28.5t28.5 -70.5q0 -54 -38 -92.5t-93 -38.5q-44 0 -74.5 29t-30.5 72z" />
    <glyph glyph-name="cedilla" unicode="&#xb8;" horiz-adv-x="923" 
d="M369 20h102l-35 -116q65 -6 101 -46.5t36 -101.5q0 -108 -77 -162.5t-189 -54.5q-54 0 -84 10l37 105q30 -6 59 -6q132 0 132 96q0 35 -28.5 53.5t-76.5 18.5l-41 -4z" />
    <glyph glyph-name="onesuperior" unicode="&#xb9;" horiz-adv-x="520" 
d="M340 1262l-23 110l179 62h106l-135 -811h-131l113 677z" />
    <glyph glyph-name="ordmasculine" unicode="&#xba;" horiz-adv-x="958" 
d="M356 985q0 -112 66.5 -183t177.5 -71q141 0 241.5 103.5t100.5 250.5q0 112 -65.5 183t-176.5 71q-143 0 -243.5 -103.5t-100.5 -250.5zM221 971q0 135 68 248t182 177t248 64q160 0 259 -100.5t99 -257.5q0 -134 -67.5 -247t-180.5 -177t-245 -64q-162 0 -262.5 100.5
t-100.5 256.5z" />
    <glyph glyph-name="guillemotright" unicode="&#xbb;" horiz-adv-x="876" 
d="M389 975l195 -377l-320 -375h-162l324 375l-188 377h151zM907 598l-317 -375h-162l324 375l-189 377h152z" />
    <glyph glyph-name="onequarter" unicode="&#xbc;" horiz-adv-x="1615" 
d="M473 -84h-154l1065 1602h154zM1309 0l26 162h-391l17 100l477 549h137l-88 -532h104l-20 -117h-105l-26 -162h-131zM1104 279h252l59 364q-309 -364 -311 -364zM399 1262l-22 110l178 62h107l-136 -811h-131l113 677z" />
    <glyph glyph-name="onehalf" unicode="&#xbd;" horiz-adv-x="1636" 
d="M430 -84h-149l1067 1602h149zM999 0l15 82q12 70 65 133t118.5 109t130 89t108 91.5t43.5 97.5q0 44 -31.5 74.5t-83.5 30.5q-94 0 -156 -107l-108 43q39 75 110.5 129.5t173.5 54.5q99 0 163.5 -59t64.5 -145q0 -61 -31 -116.5t-78 -95t-103 -79.5t-105.5 -71.5t-86 -70
t-43.5 -75.5h375l-18 -115h-523zM399 1262l-22 110l178 62h107l-136 -811h-131l113 677z" />
    <glyph glyph-name="threequarters" unicode="&#xbe;" horiz-adv-x="1728" 
d="M870 1434l-16 -99l-248 -231q81 0 140 -56t59 -147q0 -134 -92 -214.5t-226 -80.5q-107 0 -166 54t-77 131l108 45q11 -45 47.5 -78t100.5 -33q71 0 119.5 44t48.5 120q0 119 -146 119h-76l17 100l223 209h-317l20 117h481zM1391 0l26 162h-391l16 100l478 549h137
l-88 -532h104l-20 -117h-105l-26 -162h-131zM1186 279h252l59 364q-309 -364 -311 -364zM588 -84h-154l1065 1602h154z" />
    <glyph glyph-name="questiondown" unicode="&#xbf;" horiz-adv-x="956" 
d="M733 760l-16 -96q-11 -64 -42.5 -119.5t-73 -96t-89.5 -79t-94 -75.5t-83 -77t-60 -93t-23 -114q0 -90 55.5 -145t155.5 -55q54 0 99 15.5t77.5 43.5t52.5 52.5t41 58.5l131 -58q-25 -47 -57 -88t-82.5 -83t-124 -66.5t-160.5 -24.5q-156 0 -258 92t-102 232
q0 78 24 145.5t63.5 116.5t87.5 92t98 80.5t92.5 74.5t73 82.5t38.5 94.5l14 90h162zM813 1047q0 -53 -40 -91t-95 -38q-44 0 -72 28t-28 70q0 54 38 92.5t93 38.5q44 0 74 -28.5t30 -71.5z" />
    <glyph glyph-name="Agrave" unicode="&#xc0;" horiz-adv-x="1292" 
d="M1006 465h-560l-249 -465h-172l776 1434h168l297 -1434h-166zM981 608l-125 643l-336 -643h461zM872 1815l99 -291h-137l-136 291h174z" />
    <glyph glyph-name="Aacute" unicode="&#xc1;" horiz-adv-x="1292" 
d="M1006 465h-560l-249 -465h-172l776 1434h168l297 -1434h-166zM981 608l-125 643l-336 -643h461zM821 1524l189 291h184l-231 -291h-142z" />
    <glyph glyph-name="Acircumflex" unicode="&#xc2;" horiz-adv-x="1292" 
d="M1006 465h-560l-249 -465h-172l776 1434h168l297 -1434h-166zM981 608l-125 643l-336 -643h461zM1028 1534l-94 168l-154 -168h-157l237 266h172l148 -266h-152z" />
    <glyph glyph-name="Atilde" unicode="&#xc3;" horiz-adv-x="1292" 
d="M1006 465h-560l-249 -465h-172l776 1434h168l297 -1434h-166zM981 608l-125 643l-336 -643h461zM1038 1552q-36 0 -71.5 14.5t-60 32t-55 32t-56.5 14.5q-33 0 -57 -24.5t-33 -66.5h-121q17 97 81 156t150 59q44 0 88.5 -22.5t83 -45t68.5 -22.5q34 0 58.5 24.5
t33.5 65.5h117q-17 -98 -79 -157.5t-147 -59.5z" />
    <glyph glyph-name="Adieresis" unicode="&#xc4;" horiz-adv-x="1292" 
d="M1006 465h-560l-249 -465h-172l776 1434h168l297 -1434h-166zM981 608l-125 643l-336 -643h461zM655 1649q0 46 36 81t83 35q39 0 63.5 -25.5t24.5 -62.5q0 -47 -35 -81.5t-84 -34.5q-38 0 -63 25.5t-25 62.5zM991 1649q0 46 35 81t84 35q38 0 63 -26t25 -62
q0 -47 -35.5 -81.5t-83.5 -34.5q-39 0 -63.5 25.5t-24.5 62.5z" />
    <glyph glyph-name="Aring" unicode="&#xc5;" horiz-adv-x="1292" 
d="M1006 465h-560l-249 -465h-172l776 1434h168l297 -1434h-166zM981 608l-125 643l-336 -643h461zM741 1667q0 87 63 146t152 59q73 0 116.5 -41.5t43.5 -108.5q0 -87 -63.5 -146.5t-153.5 -59.5q-71 0 -114.5 42t-43.5 109zM842 1679q0 -33 19 -52t52 -19q45 0 73 28.5
t28 73.5q0 32 -19 51t-55 19q-41 0 -69.5 -29t-28.5 -72z" />
    <glyph glyph-name="AE" unicode="&#xc6;" horiz-adv-x="1660" 
d="M16 0l961 1434h795l-25 -152h-514l-80 -477h449l-25 -150h-449l-86 -505h535l-25 -150h-700l78 465h-426l-305 -465h-183zM1036 1282l-440 -674h358l113 674h-31z" />
    <glyph glyph-name="Ccedilla" unicode="&#xc7;" horiz-adv-x="1343" 
d="M1266 289l26 -152q-43 -33 -101 -65.5t-167.5 -65.5t-220.5 -33h-31l-20 -69q65 -6 101 -46.5t36 -101.5q0 -108 -77 -162.5t-189 -54.5q-54 0 -84 10l36 105q31 -6 60 -6q131 0 131 96q0 35 -28 53.5t-76 18.5l-41 -4l51 174q-222 40 -353 208.5t-131 409.5
q0 175 71 334.5t189 273t275.5 181t325.5 67.5q144 0 248.5 -44.5t168.5 -104.5l-77 -148q-32 30 -73 58t-122 56t-168 28q-131 0 -253.5 -54t-212.5 -144.5t-144 -217.5t-54 -266q0 -217 128 -355.5t344 -138.5q217 0 432 160z" />
    <glyph glyph-name="Egrave" unicode="&#xc8;" horiz-adv-x="970" 
d="M162 0l239 1434h680l-24 -152h-514l-80 -477h448l-24 -150h-449l-86 -505h537l-25 -150h-702zM776 1815l98 -291h-137l-135 291h174z" />
    <glyph glyph-name="Eacute" unicode="&#xc9;" horiz-adv-x="970" 
d="M162 0l239 1434h680l-24 -152h-514l-80 -477h448l-24 -150h-449l-86 -505h537l-25 -150h-702zM674 1524l188 291h185l-232 -291h-141z" />
    <glyph glyph-name="Ecircumflex" unicode="&#xca;" horiz-adv-x="970" 
d="M162 0l239 1434h680l-24 -152h-514l-80 -477h448l-24 -150h-449l-86 -505h537l-25 -150h-702zM897 1534l-94 168l-154 -168h-157l237 266h172l148 -266h-152z" />
    <glyph glyph-name="Edieresis" unicode="&#xcb;" horiz-adv-x="970" 
d="M162 0l239 1434h680l-24 -152h-514l-80 -477h448l-24 -150h-449l-86 -505h537l-25 -150h-702zM532 1649q0 46 36 81t83 35q39 0 63.5 -25.5t24.5 -62.5q0 -48 -34.5 -82t-83.5 -34q-38 0 -63.5 25.5t-25.5 62.5zM868 1649q0 46 35 81t84 35q38 0 63 -26t25 -62
q0 -47 -35.5 -81.5t-83.5 -34.5q-39 0 -63.5 25.5t-24.5 62.5z" />
    <glyph glyph-name="Igrave" unicode="&#xcc;" horiz-adv-x="489" 
d="M162 0l239 1434h166l-239 -1434h-166zM492 1815l98 -291h-137l-136 291h175z" />
    <glyph glyph-name="Iacute" unicode="&#xcd;" horiz-adv-x="489" 
d="M162 0l239 1434h166l-239 -1434h-166zM412 1524l188 291h184l-231 -291h-141z" />
    <glyph glyph-name="Icircumflex" unicode="&#xce;" horiz-adv-x="489" 
d="M162 0l239 1434h166l-239 -1434h-166zM635 1534l-94 168l-154 -168h-158l238 266h172l147 -266h-151z" />
    <glyph glyph-name="Idieresis" unicode="&#xcf;" horiz-adv-x="489" 
d="M162 0l239 1434h166l-239 -1434h-166zM262 1649q0 46 36 81t83 35q39 0 63.5 -25.5t24.5 -62.5q0 -47 -35 -81.5t-84 -34.5q-38 0 -63 25.5t-25 62.5zM598 1649q0 46 35 81t84 35q38 0 63 -26t25 -62q0 -47 -35.5 -81.5t-83.5 -34.5q-39 0 -63.5 25.5t-24.5 62.5z" />
    <glyph glyph-name="Eth" unicode="&#xd0;" horiz-adv-x="1310" 
d="M158 651l24 148h119l107 635h297q318 0 489.5 -155t171.5 -433q0 -402 -242 -624t-659 -222h-297l108 651h-118zM358 147h164q304 0 487 179t183 495q0 218 -126.5 340.5t-352.5 122.5h-164l-82 -485h297l-25 -148h-297z" />
    <glyph glyph-name="Ntilde" unicode="&#xd1;" horiz-adv-x="1441" 
d="M160 0l239 1434h166l594 -1172l197 1172h164l-240 -1434h-164l-596 1167l-194 -1167h-166zM1118 1552q-45 0 -89 23t-83 46.5t-72 23.5t-57 -24.5t-33 -66.5h-120q17 97 81 156t150 59q44 0 88.5 -22.5t83 -45t68.5 -22.5q34 0 58.5 24.5t33.5 65.5h116
q-17 -98 -78.5 -157.5t-146.5 -59.5z" />
    <glyph glyph-name="Ograve" unicode="&#xd2;" horiz-adv-x="1619" 
d="M186 604q0 175 71 334.5t188.5 273t277 181t330.5 67.5q183 0 324.5 -83.5t217.5 -228t76 -323.5q0 -139 -45 -269.5t-127 -235t-189.5 -183.5t-238.5 -121.5t-268 -42.5q-182 0 -323.5 81.5t-217.5 225t-76 324.5zM360 625q0 -218 130 -357t341 -139q175 0 328 88.5
t245.5 245.5t92.5 344q0 217 -130 357.5t-339 140.5q-132 0 -254.5 -53t-213.5 -143.5t-145.5 -217t-54.5 -266.5zM1049 1815l98 -291h-137l-136 291h175z" />
    <glyph glyph-name="Oacute" unicode="&#xd3;" horiz-adv-x="1619" 
d="M186 604q0 175 71 334.5t188.5 273t277 181t330.5 67.5q183 0 324.5 -83.5t217.5 -228t76 -323.5q0 -139 -45 -269.5t-127 -235t-189.5 -183.5t-238.5 -121.5t-268 -42.5q-182 0 -323.5 81.5t-217.5 225t-76 324.5zM360 625q0 -218 130 -357t341 -139q175 0 328 88.5
t245.5 245.5t92.5 344q0 217 -130 357.5t-339 140.5q-132 0 -254.5 -53t-213.5 -143.5t-145.5 -217t-54.5 -266.5zM963 1524l188 291h184l-231 -291h-141z" />
    <glyph glyph-name="Ocircumflex" unicode="&#xd4;" horiz-adv-x="1619" 
d="M186 604q0 175 71 334.5t188.5 273t277 181t330.5 67.5q183 0 324.5 -83.5t217.5 -228t76 -323.5q0 -139 -45 -269.5t-127 -235t-189.5 -183.5t-238.5 -121.5t-268 -42.5q-182 0 -323.5 81.5t-217.5 225t-76 324.5zM360 625q0 -218 130 -357t341 -139q175 0 328 88.5
t245.5 245.5t92.5 344q0 217 -130 357.5t-339 140.5q-132 0 -254.5 -53t-213.5 -143.5t-145.5 -217t-54.5 -266.5zM1190 1534l-94 168l-154 -168h-158l238 266h172l147 -266h-151z" />
    <glyph glyph-name="Otilde" unicode="&#xd5;" horiz-adv-x="1619" 
d="M186 604q0 175 71 334.5t188.5 273t277 181t330.5 67.5q183 0 324.5 -83.5t217.5 -228t76 -323.5q0 -139 -45 -269.5t-127 -235t-189.5 -183.5t-238.5 -121.5t-268 -42.5q-182 0 -323.5 81.5t-217.5 225t-76 324.5zM360 625q0 -218 130 -357t341 -139q175 0 328 88.5
t245.5 245.5t92.5 344q0 217 -130 357.5t-339 140.5q-132 0 -254.5 -53t-213.5 -143.5t-145.5 -217t-54.5 -266.5zM1206 1552q-36 0 -71.5 14.5t-60 32t-55 32t-56.5 14.5q-33 0 -57.5 -24.5t-33.5 -66.5h-120q17 97 81 156t150 59q44 0 88.5 -22.5t83 -45t68.5 -22.5
q34 0 58.5 24.5t33.5 65.5h117q-17 -98 -79 -157.5t-147 -59.5z" />
    <glyph glyph-name="Odieresis" unicode="&#xd6;" horiz-adv-x="1619" 
d="M186 604q0 175 71 334.5t188.5 273t277 181t330.5 67.5q183 0 324.5 -83.5t217.5 -228t76 -323.5q0 -139 -45 -269.5t-127 -235t-189.5 -183.5t-238.5 -121.5t-268 -42.5q-182 0 -323.5 81.5t-217.5 225t-76 324.5zM360 625q0 -218 130 -357t341 -139q175 0 328 88.5
t245.5 245.5t92.5 344q0 217 -130 357.5t-339 140.5q-132 0 -254.5 -53t-213.5 -143.5t-145.5 -217t-54.5 -266.5zM819 1649q0 46 36 81t83 35q39 0 63.5 -25.5t24.5 -62.5q0 -47 -35 -81.5t-84 -34.5q-38 0 -63 25.5t-25 62.5zM1155 1649q0 46 35 81t84 35q38 0 63 -26
t25 -62q0 -47 -35.5 -81.5t-83.5 -34.5q-39 0 -63.5 25.5t-24.5 62.5z" />
    <glyph glyph-name="multiply" unicode="&#xd7;" horiz-adv-x="1087" 
d="M920 156l-289 376l-412 -374l-94 104l420 381l-279 367l113 98l276 -365l410 371l92 -102l-416 -379l291 -381z" />
    <glyph glyph-name="Oslash" unicode="&#xd8;" horiz-adv-x="1619" 
d="M186 604q0 175 71 334.5t188.5 273t277 181t330.5 67.5q223 0 383 -125l131 138l90 -82l-133 -140q147 -174 147 -426q0 -139 -45 -269.5t-127 -235t-189.5 -183.5t-238.5 -121.5t-268 -42.5q-228 0 -383 121l-129 -135l-90 82l131 137q-146 169 -146 426zM360 625
q0 -182 97 -316l860 901q-126 95 -289 95q-132 0 -254.5 -53t-213.5 -143.5t-145.5 -217t-54.5 -266.5zM1497 807q0 183 -96 315l-860 -901q122 -92 290 -92q175 0 328 88.5t245.5 245.5t92.5 344z" />
    <glyph glyph-name="Ugrave" unicode="&#xd9;" horiz-adv-x="1376" 
d="M690 -27q-255 0 -373.5 146.5t-76.5 394.5l153 920h166l-153 -918q-30 -182 47.5 -285.5t255.5 -103.5q179 0 292 104t144 287l153 916h164l-153 -918q-41 -249 -203 -396t-416 -147zM948 1815l99 -291h-138l-135 291h174z" />
    <glyph glyph-name="Uacute" unicode="&#xda;" horiz-adv-x="1376" 
d="M690 -27q-255 0 -373.5 146.5t-76.5 394.5l153 920h166l-153 -918q-30 -182 47.5 -285.5t255.5 -103.5q179 0 292 104t144 287l153 916h164l-153 -918q-41 -249 -203 -396t-416 -147zM848 1524l188 291h185l-232 -291h-141z" />
    <glyph glyph-name="Ucircumflex" unicode="&#xdb;" horiz-adv-x="1376" 
d="M690 -27q-255 0 -373.5 146.5t-76.5 394.5l153 920h166l-153 -918q-30 -182 47.5 -285.5t255.5 -103.5q179 0 292 104t144 287l153 916h164l-153 -918q-41 -249 -203 -396t-416 -147zM1071 1534l-94 168l-154 -168h-157l237 266h172l148 -266h-152z" />
    <glyph glyph-name="Udieresis" unicode="&#xdc;" horiz-adv-x="1376" 
d="M690 -27q-255 0 -373.5 146.5t-76.5 394.5l153 920h166l-153 -918q-30 -182 47.5 -285.5t255.5 -103.5q179 0 292 104t144 287l153 916h164l-153 -918q-41 -249 -203 -396t-416 -147zM698 1649q0 46 36 81t83 35q39 0 63.5 -25.5t24.5 -62.5q0 -47 -35 -81.5t-84 -34.5
q-38 0 -63 25.5t-25 62.5zM1034 1649q0 46 35 81t84 35q38 0 63 -26t25 -62q0 -47 -35.5 -81.5t-83.5 -34.5q-39 0 -63.5 25.5t-24.5 62.5z" />
    <glyph glyph-name="Yacute" unicode="&#xdd;" horiz-adv-x="1089" 
d="M463 0l115 672l-318 762h174l242 -607l446 607h189l-572 -762l-112 -672h-164zM715 1524l188 291h184l-231 -291h-141z" />
    <glyph glyph-name="Thorn" unicode="&#xde;" horiz-adv-x="1050" 
d="M162 0l239 1434h166l-47 -281h236q172 0 269 -89.5t97 -250.5q0 -146 -67.5 -259t-182 -172.5t-256.5 -59.5h-235l-53 -322h-166zM406 467h221q146 0 234.5 89t88.5 232q0 103 -60 160.5t-173 57.5h-221z" />
    <glyph glyph-name="germandbls" unicode="&#xdf;" horiz-adv-x="1101" 
d="M739 1329q-216 0 -258 -237l-182 -1092h-164l189 1120q30 180 146 267.5t292 87.5q148 0 234.5 -77t86.5 -188q0 -113 -59.5 -189t-151.5 -114q123 -45 189.5 -135.5t66.5 -218.5q0 -135 -51 -242t-139.5 -174t-204 -102t-248.5 -35l25 143q61 0 121 12t120.5 41.5
t106.5 73.5t74.5 112.5t28.5 152.5q0 91 -48.5 157.5t-123.5 97.5t-166 31l24 142q65 0 123 21.5t100.5 72.5t42.5 123q0 69 -47 109t-127 40z" />
    <glyph glyph-name="agrave" unicode="&#xe0;" horiz-adv-x="1044" 
d="M119 279q0 112 63 203.5t171.5 143.5t238.5 52q94 0 164 -29t100 -67l23 131q19 111 -40.5 173t-179.5 62q-146 0 -325 -94l-47 123q199 115 403 115q200 0 289 -107t59 -283l-116 -702h-140l-4 90q-123 -117 -307 -117q-157 0 -254.5 86t-97.5 220zM287 301
q0 -84 62.5 -138t170.5 -54q130 0 217.5 71.5t87.5 179.5q0 86 -63 137.5t-170 51.5q-132 0 -218.5 -72t-86.5 -176zM723 1485l98 -291h-137l-135 291h174z" />
    <glyph glyph-name="aacute" unicode="&#xe1;" horiz-adv-x="1044" 
d="M119 279q0 112 63 203.5t171.5 143.5t238.5 52q94 0 164 -29t100 -67l23 131q19 111 -40.5 173t-179.5 62q-146 0 -325 -94l-47 123q199 115 403 115q200 0 289 -107t59 -283l-116 -702h-140l-4 90q-123 -117 -307 -117q-157 0 -254.5 86t-97.5 220zM287 301
q0 -84 62.5 -138t170.5 -54q130 0 217.5 71.5t87.5 179.5q0 86 -63 137.5t-170 51.5q-132 0 -218.5 -72t-86.5 -176zM625 1194l188 291h184l-231 -291h-141z" />
    <glyph glyph-name="acircumflex" unicode="&#xe2;" horiz-adv-x="1044" 
d="M119 279q0 112 63 203.5t171.5 143.5t238.5 52q94 0 164 -29t100 -67l23 131q19 111 -40.5 173t-179.5 62q-146 0 -325 -94l-47 123q199 115 403 115q200 0 289 -107t59 -283l-116 -702h-140l-4 90q-123 -117 -307 -117q-157 0 -254.5 86t-97.5 220zM287 301
q0 -84 62.5 -138t170.5 -54q130 0 217.5 71.5t87.5 179.5q0 86 -63 137.5t-170 51.5q-132 0 -218.5 -72t-86.5 -176zM850 1217l-94 167l-154 -167h-158l238 266h172l147 -266h-151z" />
    <glyph glyph-name="atilde" unicode="&#xe3;" horiz-adv-x="1044" 
d="M119 279q0 112 63 203.5t171.5 143.5t238.5 52q94 0 164 -29t100 -67l23 131q19 111 -40.5 173t-179.5 62q-146 0 -325 -94l-47 123q199 115 403 115q200 0 289 -107t59 -283l-116 -702h-140l-4 90q-123 -117 -307 -117q-157 0 -254.5 86t-97.5 220zM287 301
q0 -84 62.5 -138t170.5 -54q130 0 217.5 71.5t87.5 179.5q0 86 -63 137.5t-170 51.5q-132 0 -218.5 -72t-86.5 -176zM856 1231q-45 0 -89 23t-83 46t-72 23t-57 -24t-33 -66h-121q17 97 81.5 156t150.5 59q44 0 88 -22.5t82.5 -45t68.5 -22.5q34 0 59 24.5t34 65.5h116
q-17 -98 -78.5 -157.5t-146.5 -59.5z" />
    <glyph glyph-name="adieresis" unicode="&#xe4;" horiz-adv-x="1044" 
d="M119 279q0 112 63 203.5t171.5 143.5t238.5 52q94 0 164 -29t100 -67l23 131q19 111 -40.5 173t-179.5 62q-146 0 -325 -94l-47 123q199 115 403 115q200 0 289 -107t59 -283l-116 -702h-140l-4 90q-123 -117 -307 -117q-157 0 -254.5 86t-97.5 220zM287 301
q0 -84 62.5 -138t170.5 -54q130 0 217.5 71.5t87.5 179.5q0 86 -63 137.5t-170 51.5q-132 0 -218.5 -72t-86.5 -176zM485 1323q0 46 36 81.5t83 35.5q39 0 63.5 -25.5t24.5 -62.5q0 -48 -35 -82.5t-84 -34.5q-38 0 -63 25.5t-25 62.5zM821 1323q0 46 35 81.5t84 35.5
q38 0 63 -26t25 -62q0 -47 -36 -82t-83 -35q-39 0 -63.5 25.5t-24.5 62.5z" />
    <glyph glyph-name="aring" unicode="&#xe5;" horiz-adv-x="1044" 
d="M119 279q0 112 63 203.5t171.5 143.5t238.5 52q94 0 164 -29t100 -67l23 131q19 111 -40.5 173t-179.5 62q-146 0 -325 -94l-47 123q199 115 403 115q200 0 289 -107t59 -283l-116 -702h-140l-4 90q-123 -117 -307 -117q-157 0 -254.5 86t-97.5 220zM287 301
q0 -84 62.5 -138t170.5 -54q130 0 217.5 71.5t87.5 179.5q0 86 -63 137.5t-170 51.5q-132 0 -218.5 -72t-86.5 -176zM565 1333q0 87 63 146t152 59q73 0 116.5 -41t43.5 -108q0 -87 -63.5 -147t-153.5 -60q-71 0 -114.5 42t-43.5 109zM666 1346q0 -33 19 -52.5t52 -19.5
q45 0 73 28.5t28 73.5q0 32 -19 51t-55 19q-41 0 -69.5 -28.5t-28.5 -71.5z" />
    <glyph glyph-name="ae" unicode="&#xe6;" horiz-adv-x="1841" 
d="M287 301q0 -84 62.5 -138t170.5 -54q129 0 215 72t86 181q0 85 -61.5 136t-167.5 51q-132 0 -218.5 -72t-86.5 -176zM1032 618h682q19 159 -63 246.5t-221 87.5q-87 0 -167 -38t-142.5 -115t-88.5 -181zM1296 -27q-150 0 -256.5 59t-152.5 169q-54 -95 -161 -161.5
t-255 -66.5q-157 0 -254.5 86t-97.5 220q0 112 63 203.5t171.5 143.5t238.5 52q94 0 164 -29t100 -67l23 131q19 111 -40.5 173t-179.5 62q-146 0 -325 -94l-47 123q199 115 411 115q142 0 222.5 -54.5t101.5 -152.5q85 99 197 153t233 54q232 0 344 -151.5t72 -393.5
l-8 -49h-854q-29 -176 59.5 -278.5t257.5 -102.5q213 0 358 166l99 -80q-69 -91 -194.5 -160.5t-289.5 -69.5z" />
    <glyph glyph-name="ccedilla" unicode="&#xe7;" horiz-adv-x="1048" 
d="M1145 946l-78 -139q-17 21 -39.5 40.5t-59 43t-87 37.5t-107.5 14q-93 0 -177.5 -37.5t-145.5 -101t-97.5 -151t-36.5 -183.5q0 -150 90 -249t234 -99q179 0 340 141l29 -145q-184 -144 -402 -144l-20 -69q65 -6 101 -46.5t36 -101.5q0 -108 -77 -162.5t-189 -54.5
q-54 0 -84 10l37 105q30 -6 59 -6q131 0 131 96q0 35 -28 53.5t-76 18.5l-41 -4l51 172q-166 32 -263.5 160.5t-97.5 308.5q0 130 51 248.5t137 204t203.5 136t245.5 50.5q129 0 220.5 -45.5t140.5 -100.5z" />
    <glyph glyph-name="egrave" unicode="&#xe8;" horiz-adv-x="1157" 
d="M150 438q0 178 81 328.5t220.5 238t304.5 87.5q209 0 322.5 -119t113.5 -320q0 -67 -21 -155h-852q-29 -175 61 -278t259 -103q213 0 358 166l99 -80q-69 -91 -194.5 -160.5t-289.5 -69.5q-213 0 -337.5 128t-124.5 337zM344 618h686q19 159 -63.5 246.5t-221.5 87.5
q-146 0 -257.5 -92t-143.5 -242zM788 1485l99 -291h-137l-136 291h174z" />
    <glyph glyph-name="eacute" unicode="&#xe9;" horiz-adv-x="1157" 
d="M150 438q0 178 81 328.5t220.5 238t304.5 87.5q209 0 322.5 -119t113.5 -320q0 -67 -21 -155h-852q-29 -175 61 -278t259 -103q213 0 358 166l99 -80q-69 -91 -194.5 -160.5t-289.5 -69.5q-213 0 -337.5 128t-124.5 337zM344 618h686q19 159 -63.5 246.5t-221.5 87.5
q-146 0 -257.5 -92t-143.5 -242zM684 1194l188 291h185l-232 -291h-141z" />
    <glyph glyph-name="ecircumflex" unicode="&#xea;" horiz-adv-x="1157" 
d="M150 438q0 178 81 328.5t220.5 238t304.5 87.5q209 0 322.5 -119t113.5 -320q0 -67 -21 -155h-852q-29 -175 61 -278t259 -103q213 0 358 166l99 -80q-69 -91 -194.5 -160.5t-289.5 -69.5q-213 0 -337.5 128t-124.5 337zM344 618h686q19 159 -63.5 246.5t-221.5 87.5
q-146 0 -257.5 -92t-143.5 -242zM918 1217l-95 167l-153 -167h-158l238 266h172l147 -266h-151z" />
    <glyph glyph-name="edieresis" unicode="&#xeb;" horiz-adv-x="1157" 
d="M150 438q0 178 81 328.5t220.5 238t304.5 87.5q209 0 322.5 -119t113.5 -320q0 -67 -21 -155h-852q-29 -175 61 -278t259 -103q213 0 358 166l99 -80q-69 -91 -194.5 -160.5t-289.5 -69.5q-213 0 -337.5 128t-124.5 337zM344 618h686q19 159 -63.5 246.5t-221.5 87.5
q-146 0 -257.5 -92t-143.5 -242zM545 1323q0 46 36 81.5t83 35.5q39 0 63.5 -25.5t24.5 -62.5q0 -48 -35 -82.5t-84 -34.5q-38 0 -63 25.5t-25 62.5zM881 1323q0 47 34.5 82t83.5 35q38 0 63 -26t25 -62q0 -47 -35.5 -82t-82.5 -35q-39 0 -63.5 25.5t-24.5 62.5z" />
    <glyph glyph-name="igrave" unicode="&#xec;" 
d="M412 1485l98 -291h-137l-135 291h174zM139 0l178 1065h162l-178 -1065h-162z" />
    <glyph glyph-name="iacute" unicode="&#xed;" 
d="M328 1194l188 291h184l-231 -291h-141zM139 0l178 1065h162l-178 -1065h-162z" />
    <glyph glyph-name="icircumflex" unicode="&#xee;" 
d="M139 0l178 1065h162l-178 -1065h-162zM555 1217l-94 167l-154 -167h-157l237 266h172l148 -266h-152z" />
    <glyph glyph-name="idieresis" unicode="&#xef;" 
d="M176 1323q0 46 36 81.5t83 35.5q39 0 63.5 -25.5t24.5 -62.5q0 -48 -35 -82.5t-84 -34.5q-38 0 -63 25.5t-25 62.5zM512 1323q0 46 35 81.5t84 35.5q38 0 63 -26t25 -62q0 -47 -36 -82t-83 -35q-39 0 -63.5 25.5t-24.5 62.5zM139 0l178 1065h162l-178 -1065h-162z" />
    <glyph glyph-name="eth" unicode="&#xf0;" horiz-adv-x="1210" 
d="M147 426q0 165 83 303.5t224.5 218.5t309.5 80q74 0 132.5 -19t90.5 -44q-33 65 -88 130.5t-100 98.5l-355 -129v119l261 96q-79 64 -201 135l112 80q125 -60 252 -158l271 99v-119l-181 -68q133 -122 204 -280t71 -316q0 -135 -44 -257.5t-124 -216.5t-203 -150
t-272 -56q-202 0 -322.5 128.5t-120.5 324.5zM315 444q0 -140 80.5 -232.5t220.5 -92.5q104 0 190 41t140 107.5t83.5 148.5t29.5 168q0 132 -83.5 219.5t-225.5 87.5q-128 0 -229 -63t-153.5 -164t-52.5 -220z" />
    <glyph glyph-name="ntilde" unicode="&#xf1;" horiz-adv-x="1122" 
d="M799 1092q121 0 197 -56.5t101.5 -151.5t4.5 -218l-111 -666h-162l113 672q21 125 -37.5 198.5t-169.5 73.5q-123 0 -213 -82.5t-112 -214.5l-109 -647h-162l178 1065h160l-26 -154q54 77 148.5 129t199.5 52zM903 1231q-45 0 -89 23t-83 46t-72 23t-57 -24t-33 -66h-120
q17 97 81 156t150 59q44 0 88.5 -22.5t83 -45t68.5 -22.5q34 0 58.5 24.5t33.5 65.5h116q-17 -98 -78.5 -157.5t-146.5 -59.5z" />
    <glyph glyph-name="ograve" unicode="&#xf2;" horiz-adv-x="1247" 
d="M315 465q0 -153 89.5 -248.5t238.5 -95.5q194 0 331.5 138.5t137.5 338.5q0 152 -91 249t-241 97q-127 0 -234 -64t-169 -174t-62 -241zM147 446q0 178 91.5 327.5t243 234t325.5 84.5q212 0 341.5 -134t129.5 -342q0 -176 -90.5 -324.5t-242 -233.5t-327.5 -85
q-212 0 -341.5 132.5t-129.5 340.5zM801 1485l98 -291h-137l-135 291h174z" />
    <glyph glyph-name="oacute" unicode="&#xf3;" horiz-adv-x="1247" 
d="M315 465q0 -153 89.5 -248.5t238.5 -95.5q194 0 331.5 138.5t137.5 338.5q0 152 -91 249t-241 97q-127 0 -234 -64t-169 -174t-62 -241zM147 446q0 178 91.5 327.5t243 234t325.5 84.5q212 0 341.5 -134t129.5 -342q0 -176 -90.5 -324.5t-242 -233.5t-327.5 -85
q-212 0 -341.5 132.5t-129.5 340.5zM723 1194l188 291h185l-232 -291h-141z" />
    <glyph glyph-name="ocircumflex" unicode="&#xf4;" horiz-adv-x="1247" 
d="M315 465q0 -153 89.5 -248.5t238.5 -95.5q194 0 331.5 138.5t137.5 338.5q0 152 -91 249t-241 97q-127 0 -234 -64t-169 -174t-62 -241zM147 446q0 178 91.5 327.5t243 234t325.5 84.5q212 0 341.5 -134t129.5 -342q0 -176 -90.5 -324.5t-242 -233.5t-327.5 -85
q-212 0 -341.5 132.5t-129.5 340.5zM958 1217l-94 167l-153 -167h-158l238 266h172l147 -266h-152z" />
    <glyph glyph-name="otilde" unicode="&#xf5;" horiz-adv-x="1247" 
d="M315 465q0 -153 89.5 -248.5t238.5 -95.5q194 0 331.5 138.5t137.5 338.5q0 152 -91 249t-241 97q-127 0 -234 -64t-169 -174t-62 -241zM147 446q0 178 91.5 327.5t243 234t325.5 84.5q212 0 341.5 -134t129.5 -342q0 -176 -90.5 -324.5t-242 -233.5t-327.5 -85
q-212 0 -341.5 132.5t-129.5 340.5zM969 1231q-45 0 -89 23t-83 46t-72 23t-57 -24t-33 -66h-121q17 97 81 156t150 59q44 0 88.5 -22.5t83 -45t68.5 -22.5q34 0 58.5 24.5t33.5 65.5h117q-17 -98 -78.5 -157.5t-146.5 -59.5z" />
    <glyph glyph-name="odieresis" unicode="&#xf6;" horiz-adv-x="1247" 
d="M315 465q0 -153 89.5 -248.5t238.5 -95.5q194 0 331.5 138.5t137.5 338.5q0 152 -91 249t-241 97q-127 0 -234 -64t-169 -174t-62 -241zM147 446q0 178 91.5 327.5t243 234t325.5 84.5q212 0 341.5 -134t129.5 -342q0 -176 -90.5 -324.5t-242 -233.5t-327.5 -85
q-212 0 -341.5 132.5t-129.5 340.5zM584 1323q0 46 35.5 81.5t82.5 35.5q39 0 64 -25.5t25 -62.5q0 -48 -35 -82.5t-84 -34.5q-38 0 -63 25.5t-25 62.5zM920 1323q0 47 34.5 82t83.5 35q38 0 63 -26t25 -62q0 -47 -35.5 -82t-82.5 -35q-39 0 -63.5 25.5t-24.5 62.5z" />
    <glyph glyph-name="divide" unicode="&#xf7;" horiz-adv-x="1126" 
d="M625 979q0 47 37.5 83t85.5 36q38 0 62 -25.5t24 -64.5q0 -47 -36.5 -82t-84.5 -35q-38 0 -63 25.5t-25 62.5zM506 268q0 46 38 81.5t85 35.5q38 0 62 -25.5t24 -64.5q0 -46 -37 -81.5t-84 -35.5q-38 0 -63 26.5t-25 63.5zM178 569l23 138h962l-22 -138h-963z" />
    <glyph glyph-name="oslash" unicode="&#xf8;" horiz-adv-x="1249" 
d="M147 446q0 178 91.5 327.5t243 234t325.5 84.5q168 0 287 -86l96 100l82 -76l-96 -102q102 -127 102 -312q0 -176 -90.5 -324.5t-242 -233.5t-327.5 -85q-158 0 -276 78l-96 -100l-82 74l94 100q-111 126 -111 321zM315 465q0 -124 62 -215l602 633q-83 61 -199 61
q-127 0 -234 -64t-169 -174t-62 -241zM1112 598q0 117 -57 205l-598 -631q79 -51 186 -51q194 0 331.5 138.5t137.5 338.5z" />
    <glyph glyph-name="ugrave" unicode="&#xf9;" horiz-adv-x="1112" 
d="M502 -27q-180 0 -258.5 118.5t-46.5 307.5l110 666h162l-113 -672q-21 -125 38 -198.5t169 -73.5q123 0 213.5 82.5t112.5 214.5l108 647h164l-178 -1065h-162l27 154q-52 -76 -147 -128.5t-199 -52.5zM772 1485l98 -291h-137l-135 291h174z" />
    <glyph glyph-name="uacute" unicode="&#xfa;" horiz-adv-x="1112" 
d="M502 -27q-180 0 -258.5 118.5t-46.5 307.5l110 666h162l-113 -672q-21 -125 38 -198.5t169 -73.5q123 0 213.5 82.5t112.5 214.5l108 647h164l-178 -1065h-162l27 154q-52 -76 -147 -128.5t-199 -52.5zM662 1194l188 291h184l-231 -291h-141z" />
    <glyph glyph-name="ucircumflex" unicode="&#xfb;" horiz-adv-x="1112" 
d="M502 -27q-180 0 -258.5 118.5t-46.5 307.5l110 666h162l-113 -672q-21 -125 38 -198.5t169 -73.5q123 0 213.5 82.5t112.5 214.5l108 647h164l-178 -1065h-162l27 154q-52 -76 -147 -128.5t-199 -52.5zM889 1217l-94 167l-154 -167h-158l238 266h172l147 -266h-151z" />
    <glyph glyph-name="udieresis" unicode="&#xfc;" horiz-adv-x="1112" 
d="M502 -27q-180 0 -258.5 118.5t-46.5 307.5l110 666h162l-113 -672q-21 -125 38 -198.5t169 -73.5q123 0 213.5 82.5t112.5 214.5l108 647h164l-178 -1065h-162l27 154q-52 -76 -147 -128.5t-199 -52.5zM520 1323q0 46 36 81.5t83 35.5q39 0 63.5 -25.5t24.5 -62.5
q0 -48 -35 -82.5t-84 -34.5q-38 0 -63 25.5t-25 62.5zM856 1323q0 46 35 81.5t84 35.5q38 0 63 -26t25 -62q0 -47 -36 -82t-83 -35q-39 0 -63.5 25.5t-24.5 62.5z" />
    <glyph glyph-name="yacute" unicode="&#xfd;" horiz-adv-x="1040" 
d="M393 -367h-168l221 377l-256 1055h172l193 -862l473 862h176zM631 1194l188 291h185l-232 -291h-141z" />
    <glyph glyph-name="thorn" unicode="&#xfe;" horiz-adv-x="1255" 
d="M76 -383l311 1864h162l-96 -580q172 191 395 191q199 0 318.5 -129.5t119.5 -335.5q0 -137 -48 -258.5t-129.5 -208t-195 -137t-239.5 -50.5q-63 0 -118.5 16t-92 38t-66 51.5t-44 51.5t-23.5 42l-92 -555h-162zM377 459q0 -157 84 -247.5t219 -90.5q118 0 218.5 63
t160 175.5t59.5 248.5q0 153 -84.5 244.5t-220.5 91.5q-123 0 -224 -67.5t-156.5 -178.5t-55.5 -239z" />
    <glyph glyph-name="ydieresis" unicode="&#xff;" horiz-adv-x="1040" 
d="M393 -367h-168l221 377l-256 1055h172l193 -862l473 862h176zM473 1323q0 46 36 81.5t83 35.5q39 0 63.5 -25.5t24.5 -62.5q0 -48 -35 -82.5t-84 -34.5q-38 0 -63 25.5t-25 62.5zM809 1323q0 46 35 81.5t84 35.5q38 0 63 -26t25 -62q0 -47 -36 -82t-83 -35
q-39 0 -63.5 25.5t-24.5 62.5z" />
    <glyph glyph-name="Amacron" unicode="&#x100;" horiz-adv-x="1292" 
d="M1006 465h-560l-249 -465h-172l776 1434h168l297 -1434h-166zM981 608l-125 643l-336 -643h461zM659 1567l23 129h496l-23 -129h-496z" />
    <glyph glyph-name="amacron" unicode="&#x101;" horiz-adv-x="1044" 
d="M119 279q0 112 63 203.5t171.5 143.5t238.5 52q94 0 164 -29t100 -67l23 131q19 111 -40.5 173t-179.5 62q-146 0 -325 -94l-47 123q199 115 403 115q200 0 289 -107t59 -283l-116 -702h-140l-4 90q-123 -117 -307 -117q-157 0 -254.5 86t-97.5 220zM287 301
q0 -84 62.5 -138t170.5 -54q130 0 217.5 71.5t87.5 179.5q0 86 -63 137.5t-170 51.5q-132 0 -218.5 -72t-86.5 -176zM496 1288l22 129h496l-23 -129h-495z" />
    <glyph glyph-name="Abreve" unicode="&#x102;" horiz-adv-x="1292" 
d="M1006 465h-560l-249 -465h-172l776 1434h168l297 -1434h-166zM981 608l-125 643l-336 -643h461zM901 1530q-124 0 -180.5 73t-36.5 185h129q-11 -65 14 -105.5t93 -40.5q125 0 151 146h133q-19 -118 -98 -188t-205 -70z" />
    <glyph glyph-name="abreve" unicode="&#x103;" horiz-adv-x="1044" 
d="M119 279q0 112 63 203.5t171.5 143.5t238.5 52q94 0 164 -29t100 -67l23 131q19 111 -40.5 173t-179.5 62q-146 0 -325 -94l-47 123q199 115 403 115q200 0 289 -107t59 -283l-116 -702h-140l-4 90q-123 -117 -307 -117q-157 0 -254.5 86t-97.5 220zM287 301
q0 -84 62.5 -138t170.5 -54q130 0 217.5 71.5t87.5 179.5q0 86 -63 137.5t-170 51.5q-132 0 -218.5 -72t-86.5 -176zM723 1202q-124 0 -180.5 73t-36.5 185h129q-11 -65 13.5 -105t92.5 -40q66 0 103.5 40t48.5 105h133q-19 -118 -98 -188t-205 -70z" />
    <glyph glyph-name="Aogonek" unicode="&#x104;" horiz-adv-x="1292" 
d="M938 -236q0 81 60 145.5t130 90.5h-28l-94 465h-560l-249 -465h-172l776 1434h168l297 -1434q-19 -6 -45 -21t-56 -38t-50.5 -56.5t-20.5 -68.5q0 -42 31 -63t77 -21l-20 -127q-16 -4 -49 -4q-80 0 -137.5 42.5t-57.5 120.5zM981 608l-125 643l-336 -643h461z" />
    <glyph glyph-name="aogonek" unicode="&#x105;" horiz-adv-x="1044" 
d="M594 -236q0 81 60 145.5t130 90.5l-6 90q-123 -117 -307 -117q-157 0 -254.5 86t-97.5 220q0 112 63 203.5t171.5 143.5t238.5 52q94 0 164 -29t100 -67l23 131q19 111 -40.5 173t-179.5 62q-146 0 -325 -94l-47 123q199 115 403 115q200 0 289 -107t59 -283l-116 -702
q-19 -6 -45 -21t-56 -38t-50.5 -56.5t-20.5 -68.5q0 -42 31 -63t77 -21l-20 -127q-17 -4 -50 -4q-80 0 -137 42.5t-57 120.5zM287 301q0 -84 62.5 -138t170.5 -54q130 0 217.5 71.5t87.5 179.5q0 86 -63 137.5t-170 51.5q-132 0 -218.5 -72t-86.5 -176z" />
    <glyph glyph-name="Cacute" unicode="&#x106;" horiz-adv-x="1343" 
d="M1266 289l26 -152q-43 -33 -101 -65.5t-167.5 -65.5t-220.5 -33q-137 0 -253 48t-195 131.5t-123 200t-44 251.5q0 175 71 334.5t189 273t275.5 181t325.5 67.5q144 0 248.5 -44.5t168.5 -104.5l-77 -148q-32 30 -73 58t-122 56t-168 28q-131 0 -253.5 -54t-212.5 -144.5
t-144 -217.5t-54 -266q0 -217 128 -355.5t344 -138.5q217 0 432 160zM922 1524l188 291h184l-231 -291h-141z" />
    <glyph glyph-name="cacute" unicode="&#x107;" horiz-adv-x="1048" 
d="M1145 946l-78 -139q-17 21 -39.5 40.5t-59 43t-87 37.5t-107.5 14q-93 0 -177.5 -37.5t-145.5 -101t-97.5 -151t-36.5 -183.5q0 -150 90 -249t234 -99q179 0 340 141l29 -145q-184 -144 -400 -144q-208 0 -335.5 136.5t-127.5 343.5q0 130 51 248.5t137 204t203.5 136
t245.5 50.5q129 0 220.5 -45.5t140.5 -100.5zM705 1194l188 291h184l-231 -291h-141z" />
    <glyph glyph-name="Ccircumflex" unicode="&#x108;" horiz-adv-x="1343" 
d="M1266 289l26 -152q-43 -33 -101 -65.5t-167.5 -65.5t-220.5 -33q-137 0 -253 48t-195 131.5t-123 200t-44 251.5q0 175 71 334.5t189 273t275.5 181t325.5 67.5q144 0 248.5 -44.5t168.5 -104.5l-77 -148q-32 30 -73 58t-122 56t-168 28q-131 0 -253.5 -54t-212.5 -144.5
t-144 -217.5t-54 -266q0 -217 128 -355.5t344 -138.5q217 0 432 160zM1190 1534l-94 168l-154 -168h-158l238 266h172l147 -266h-151z" />
    <glyph glyph-name="ccircumflex" unicode="&#x109;" horiz-adv-x="1048" 
d="M1145 946l-78 -139q-17 21 -39.5 40.5t-59 43t-87 37.5t-107.5 14q-93 0 -177.5 -37.5t-145.5 -101t-97.5 -151t-36.5 -183.5q0 -150 90 -249t234 -99q179 0 340 141l29 -145q-184 -144 -400 -144q-208 0 -335.5 136.5t-127.5 343.5q0 130 51 248.5t137 204t203.5 136
t245.5 50.5q129 0 220.5 -45.5t140.5 -100.5zM944 1217l-94 167l-154 -167h-157l237 266h172l148 -266h-152z" />
    <glyph glyph-name="Cdotaccent" unicode="&#x10a;" horiz-adv-x="1343" 
d="M1266 289l26 -152q-43 -33 -101 -65.5t-167.5 -65.5t-220.5 -33q-137 0 -253 48t-195 131.5t-123 200t-44 251.5q0 175 71 334.5t189 273t275.5 181t325.5 67.5q144 0 248.5 -44.5t168.5 -104.5l-77 -148q-32 30 -73 58t-122 56t-168 28q-131 0 -253.5 -54t-212.5 -144.5
t-144 -217.5t-54 -266q0 -217 128 -355.5t344 -138.5q217 0 432 160zM973 1642q0 52 38.5 89.5t90.5 37.5q42 0 69 -27t27 -69q0 -52 -40 -89.5t-93 -37.5q-41 0 -66.5 27t-25.5 69z" />
    <glyph glyph-name="cdotaccent" unicode="&#x10b;" horiz-adv-x="1048" 
d="M1145 946l-78 -139q-17 21 -39.5 40.5t-59 43t-87 37.5t-107.5 14q-93 0 -177.5 -37.5t-145.5 -101t-97.5 -151t-36.5 -183.5q0 -150 90 -249t234 -99q179 0 340 141l29 -145q-184 -144 -400 -144q-208 0 -335.5 136.5t-127.5 343.5q0 130 51 248.5t137 204t203.5 136
t245.5 50.5q129 0 220.5 -45.5t140.5 -100.5zM727 1323q0 52 38.5 89.5t90.5 37.5q42 0 69 -27t27 -69q0 -52 -40 -89.5t-93 -37.5q-41 0 -66.5 27t-25.5 69z" />
    <glyph glyph-name="Ccaron" unicode="&#x10c;" horiz-adv-x="1343" 
d="M1266 289l26 -152q-43 -33 -101 -65.5t-167.5 -65.5t-220.5 -33q-137 0 -253 48t-195 131.5t-123 200t-44 251.5q0 175 71 334.5t189 273t275.5 181t325.5 67.5q144 0 248.5 -44.5t168.5 -104.5l-77 -148q-32 30 -73 58t-122 56t-168 28q-131 0 -253.5 -54t-212.5 -144.5
t-144 -217.5t-54 -266q0 -217 128 -355.5t344 -138.5q217 0 432 160zM1069 1632l156 168h155l-237 -266h-172l-148 266h154z" />
    <glyph glyph-name="ccaron" unicode="&#x10d;" horiz-adv-x="1048" 
d="M1145 946l-78 -139q-17 21 -39.5 40.5t-59 43t-87 37.5t-107.5 14q-93 0 -177.5 -37.5t-145.5 -101t-97.5 -151t-36.5 -183.5q0 -150 90 -249t234 -99q179 0 340 141l29 -145q-184 -144 -400 -144q-208 0 -335.5 136.5t-127.5 343.5q0 130 51 248.5t137 204t203.5 136
t245.5 50.5q129 0 220.5 -45.5t140.5 -100.5zM817 1315l156 168h155l-237 -266h-172l-148 266h154z" />
    <glyph glyph-name="Dcaron" unicode="&#x10e;" horiz-adv-x="1304" 
d="M162 0l239 1434h295q319 0 490.5 -155t171.5 -433q0 -403 -241 -624.5t-660 -221.5h-295zM352 147h162q199 0 350 78.5t236.5 232t85.5 363.5q0 218 -127.5 340.5t-353.5 122.5h-162zM825 1632l156 168h156l-238 -266h-172l-147 266h153z" />
    <glyph glyph-name="dcaron" unicode="&#x10f;" horiz-adv-x="1259" 
d="M1407 1133l72 348h168l-117 -348h-123zM1362 1481l-248 -1481h-158l29 168q-16 -19 -32.5 -36t-56 -48.5t-81 -53.5t-104 -39.5t-127.5 -17.5q-199 0 -318 128.5t-119 334.5q0 182 79.5 332.5t219.5 237t310 86.5q63 0 118.5 -15.5t92.5 -38.5t66.5 -51.5t44.5 -51.5
t22 -42l98 588h164zM1055 606q0 157 -84 247.5t-217 90.5q-118 0 -218.5 -63.5t-160.5 -176.5t-60 -249q0 -152 83 -244t218 -92q124 0 225.5 67.5t157.5 179t56 240.5z" />
    <glyph glyph-name="Dcroat" unicode="&#x110;" horiz-adv-x="1304" 
d="M158 651l24 148h119l107 635h297q318 0 489.5 -155t171.5 -433q0 -402 -242 -624t-659 -222h-297l108 651h-118zM358 147h164q304 0 487 179t183 495q0 218 -126.5 340.5t-352.5 122.5h-164l-82 -485h297l-25 -148h-297z" />
    <glyph glyph-name="dcroat" unicode="&#x111;" horiz-adv-x="1253" 
d="M1362 1481l-27 -162h135l-20 -121h-135l-201 -1198h-158l29 168q-16 -19 -32.5 -36t-56 -48.5t-81 -53.5t-104 -39.5t-127.5 -17.5q-199 0 -318 128.5t-119 334.5q0 182 79.5 332.5t219.5 237t310 86.5q63 0 118.5 -15.5t92.5 -38.5t66.5 -51.5t44.5 -51.5t22 -42l51 305
h-264l20 121h264l27 162h164zM1055 606q0 157 -84 247.5t-217 90.5q-118 0 -218.5 -63.5t-160.5 -176.5t-60 -249q0 -152 83 -244t218 -92q124 0 225.5 67.5t157.5 179t56 240.5z" />
    <glyph glyph-name="Emacron" unicode="&#x112;" horiz-adv-x="970" 
d="M162 0l239 1434h680l-24 -152h-514l-80 -477h448l-24 -150h-449l-86 -505h537l-25 -150h-702zM532 1567l23 129h496l-23 -129h-496z" />
    <glyph glyph-name="emacron" unicode="&#x113;" horiz-adv-x="1157" 
d="M150 438q0 178 81 328.5t220.5 238t304.5 87.5q209 0 322.5 -119t113.5 -320q0 -67 -21 -155h-852q-29 -175 61 -278t259 -103q213 0 358 166l99 -80q-69 -91 -194.5 -160.5t-289.5 -69.5q-213 0 -337.5 128t-124.5 337zM344 618h686q19 159 -63.5 246.5t-221.5 87.5
q-146 0 -257.5 -92t-143.5 -242zM561 1288l23 129h495l-22 -129h-496z" />
    <glyph glyph-name="Ebreve" unicode="&#x114;" horiz-adv-x="970" 
d="M162 0l239 1434h680l-24 -152h-514l-80 -477h448l-24 -150h-449l-86 -505h537l-25 -150h-702zM764 1530q-124 0 -180.5 73t-36.5 185h129q-11 -65 13.5 -105.5t92.5 -40.5q126 0 152 146h133q-19 -118 -98 -188t-205 -70z" />
    <glyph glyph-name="ebreve" unicode="&#x115;" horiz-adv-x="1157" 
d="M150 438q0 178 81 328.5t220.5 238t304.5 87.5q209 0 322.5 -119t113.5 -320q0 -67 -21 -155h-852q-29 -175 61 -278t259 -103q213 0 358 166l99 -80q-69 -91 -194.5 -160.5t-289.5 -69.5q-213 0 -337.5 128t-124.5 337zM344 618h686q19 159 -63.5 246.5t-221.5 87.5
q-146 0 -257.5 -92t-143.5 -242zM788 1202q-124 0 -180.5 73t-36.5 185h129q-11 -65 14 -105t93 -40q66 0 103 39.5t48 105.5h134q-19 -118 -98.5 -188t-205.5 -70z" />
    <glyph glyph-name="Edotaccent" unicode="&#x116;" horiz-adv-x="970" 
d="M162 0l239 1434h680l-24 -152h-514l-80 -477h448l-24 -150h-449l-86 -505h537l-25 -150h-702zM700 1642q0 52 38.5 89.5t90.5 37.5q43 0 70 -27.5t27 -68.5q0 -52 -40 -89.5t-93 -37.5q-41 0 -67 27t-26 69z" />
    <glyph glyph-name="edotaccent" unicode="&#x117;" horiz-adv-x="1157" 
d="M150 438q0 178 81 328.5t220.5 238t304.5 87.5q209 0 322.5 -119t113.5 -320q0 -67 -21 -155h-852q-29 -175 61 -278t259 -103q213 0 358 166l99 -80q-69 -91 -194.5 -160.5t-289.5 -69.5q-213 0 -337.5 128t-124.5 337zM344 618h686q19 159 -63.5 246.5t-221.5 87.5
q-146 0 -257.5 -92t-143.5 -242zM705 1323q0 52 38.5 89.5t90.5 37.5q42 0 69 -27t27 -69q0 -52 -40 -89.5t-93 -37.5q-41 0 -66.5 27t-25.5 69z" />
    <glyph glyph-name="Eogonek" unicode="&#x118;" horiz-adv-x="970" 
d="M162 0l239 1434h680l-24 -152h-514l-80 -477h448l-24 -150h-449l-86 -505h537l-25 -150q-19 -6 -45 -21t-56 -38t-50.5 -56.5t-20.5 -68.5q0 -42 31 -63t78 -21l-21 -127q-16 -4 -49 -4q-80 0 -137 42.5t-57 120.5q0 81 60 145.5t130 90.5h-565z" />
    <glyph glyph-name="eogonek" unicode="&#x119;" horiz-adv-x="1157" 
d="M467 -236q0 66 39 120t96 89q-209 3 -330.5 130t-121.5 335q0 178 81 328.5t220.5 238t304.5 87.5q209 0 322.5 -119t113.5 -320q0 -67 -21 -155h-852q-29 -175 61 -278t259 -103q213 0 358 166l99 -80q-49 -64 -128.5 -120.5t-181.5 -84.5q-31 -13 -65 -35t-66 -63
t-32 -84q0 -42 31 -63t77 -21l-20 -127q-16 -4 -49 -4q-80 0 -137.5 42.5t-57.5 120.5zM344 618h686q19 159 -63.5 246.5t-221.5 87.5q-146 0 -257.5 -92t-143.5 -242z" />
    <glyph glyph-name="Ecaron" unicode="&#x11a;" horiz-adv-x="970" 
d="M162 0l239 1434h680l-24 -152h-514l-80 -477h448l-24 -150h-449l-86 -505h537l-25 -150h-702zM801 1632l155 168h156l-238 -266h-172l-147 266h154z" />
    <glyph glyph-name="ecaron" unicode="&#x11b;" horiz-adv-x="1157" 
d="M150 438q0 178 81 328.5t220.5 238t304.5 87.5q209 0 322.5 -119t113.5 -320q0 -67 -21 -155h-852q-29 -175 61 -278t259 -103q213 0 358 166l99 -80q-69 -91 -194.5 -160.5t-289.5 -69.5q-213 0 -337.5 128t-124.5 337zM344 618h686q19 159 -63.5 246.5t-221.5 87.5
q-146 0 -257.5 -92t-143.5 -242zM803 1315l155 168h156l-237 -266h-172l-148 266h154z" />
    <glyph glyph-name="Gcircumflex" unicode="&#x11c;" horiz-adv-x="1507" 
d="M1049 1460q101 0 187 -21t145.5 -56t96 -66.5t64.5 -65.5l-125 -110q-143 164 -391 164q-137 0 -260 -54t-211.5 -146.5t-140.5 -220t-52 -268.5q0 -218 127 -353.5t338 -135.5q81 0 158 16.5t133.5 43t92.5 49t61 43.5l51 299h-319l24 145h479l-88 -520
q-136 -118 -288 -174t-336 -56q-270 0 -439.5 174t-169.5 451q0 175 69.5 334.5t185.5 275t275.5 184t332.5 68.5zM1194 1534l-94 168l-154 -168h-158l238 266h172l148 -266h-152z" />
    <glyph glyph-name="gcircumflex" unicode="&#x11d;" horiz-adv-x="1243" 
d="M147 -287l80 127q26 -17 61.5 -34.5t104.5 -35.5t139 -18q165 0 284 80t147 242l16 94q-21 -25 -46.5 -48.5t-77.5 -61.5t-125.5 -61.5t-154.5 -23.5q-197 0 -313.5 128t-116.5 333q0 183 81 334.5t221 237.5t309 86q63 0 118.5 -15.5t92.5 -38t67.5 -51.5t46 -51.5
t25.5 -42.5l29 172h155l-157 -948q-85 -510 -611 -510q-101 0 -206 31t-169 75zM1053 606q0 156 -83.5 247t-219.5 91q-180 0 -309.5 -139.5t-129.5 -345.5q0 -153 83.5 -245.5t219.5 -92.5q122 0 223.5 66t158.5 177t57 242zM948 1217l-94 167l-154 -167h-157l237 266h172
l148 -266h-152z" />
    <glyph glyph-name="Gbreve" unicode="&#x11e;" horiz-adv-x="1507" 
d="M1049 1460q101 0 187 -21t145.5 -56t96 -66.5t64.5 -65.5l-125 -110q-143 164 -391 164q-137 0 -260 -54t-211.5 -146.5t-140.5 -220t-52 -268.5q0 -218 127 -353.5t338 -135.5q81 0 158 16.5t133.5 43t92.5 49t61 43.5l51 299h-319l24 145h479l-88 -520
q-136 -118 -288 -174t-336 -56q-270 0 -439.5 174t-169.5 451q0 175 69.5 334.5t185.5 275t275.5 184t332.5 68.5zM1053 1530q-124 0 -180.5 73t-36.5 185h129q-11 -65 13.5 -105.5t92.5 -40.5q126 0 152 146h133q-19 -118 -98 -188t-205 -70z" />
    <glyph glyph-name="gbreve" unicode="&#x11f;" horiz-adv-x="1243" 
d="M147 -287l80 127q26 -17 61.5 -34.5t104.5 -35.5t139 -18q165 0 284 80t147 242l16 94q-21 -25 -46.5 -48.5t-77.5 -61.5t-125.5 -61.5t-154.5 -23.5q-197 0 -313.5 128t-116.5 333q0 183 81 334.5t221 237.5t309 86q63 0 118.5 -15.5t92.5 -38t67.5 -51.5t46 -51.5
t25.5 -42.5l29 172h155l-157 -948q-85 -510 -611 -510q-101 0 -206 31t-169 75zM1053 606q0 156 -83.5 247t-219.5 91q-180 0 -309.5 -139.5t-129.5 -345.5q0 -153 83.5 -245.5t219.5 -92.5q122 0 223.5 66t158.5 177t57 242zM821 1202q-124 0 -180.5 73t-36.5 185h129
q-11 -65 14 -105t93 -40q66 0 103 39.5t48 105.5h133q-19 -118 -98 -188t-205 -70z" />
    <glyph glyph-name="Gdotaccent" unicode="&#x120;" horiz-adv-x="1507" 
d="M1049 1460q101 0 187 -21t145.5 -56t96 -66.5t64.5 -65.5l-125 -110q-143 164 -391 164q-137 0 -260 -54t-211.5 -146.5t-140.5 -220t-52 -268.5q0 -218 127 -353.5t338 -135.5q81 0 158 16.5t133.5 43t92.5 49t61 43.5l51 299h-319l24 145h479l-88 -520
q-136 -118 -288 -174t-336 -56q-270 0 -439.5 174t-169.5 451q0 175 69.5 334.5t185.5 275t275.5 184t332.5 68.5zM975 1642q0 52 38.5 89.5t90.5 37.5q42 0 69 -27t27 -69q0 -52 -40 -89.5t-93 -37.5q-41 0 -66.5 27t-25.5 69z" />
    <glyph glyph-name="gdotaccent" unicode="&#x121;" horiz-adv-x="1243" 
d="M147 -287l80 127q26 -17 61.5 -34.5t104.5 -35.5t139 -18q165 0 284 80t147 242l16 94q-21 -25 -46.5 -48.5t-77.5 -61.5t-125.5 -61.5t-154.5 -23.5q-197 0 -313.5 128t-116.5 333q0 183 81 334.5t221 237.5t309 86q63 0 118.5 -15.5t92.5 -38t67.5 -51.5t46 -51.5
t25.5 -42.5l29 172h155l-157 -948q-85 -510 -611 -510q-101 0 -206 31t-169 75zM1053 606q0 156 -83.5 247t-219.5 91q-180 0 -309.5 -139.5t-129.5 -345.5q0 -153 83.5 -245.5t219.5 -92.5q122 0 223.5 66t158.5 177t57 242zM731 1323q0 52 38.5 89.5t90.5 37.5
q42 0 69 -27t27 -69q0 -52 -40 -89.5t-93 -37.5q-41 0 -66.5 27t-25.5 69z" />
    <glyph glyph-name="Gcommaaccent" unicode="&#x122;" horiz-adv-x="1507" 
d="M1049 1460q101 0 187 -21t145.5 -56t96 -66.5t64.5 -65.5l-125 -110q-143 164 -391 164q-137 0 -260 -54t-211.5 -146.5t-140.5 -220t-52 -268.5q0 -218 127 -353.5t338 -135.5q81 0 158 16.5t133.5 43t92.5 49t61 43.5l51 299h-319l24 145h479l-88 -520
q-136 -118 -288 -174t-336 -56q-270 0 -439.5 174t-169.5 451q0 175 69.5 334.5t185.5 275t275.5 184t332.5 68.5zM680 -190q0 50 37 86t88 36q44 0 70 -27.5t26 -72.5q0 -169 -201 -317l-59 73q100 72 119 131q-39 3 -59.5 29.5t-20.5 61.5z" />
    <glyph glyph-name="gcommaaccent" unicode="&#x123;" horiz-adv-x="1243" 
d="M147 -287l80 127q26 -17 61.5 -34.5t104.5 -35.5t139 -18q79 0 147.5 17.5t128 54t100 100.5t55.5 150l16 94q-21 -25 -46.5 -48.5t-77.5 -61.5t-125.5 -61.5t-154.5 -23.5q-197 0 -313.5 128t-116.5 333q0 183 82.5 334.5t224 237.5t310.5 86q77 0 141.5 -22t104.5 -57
t62.5 -63.5t35.5 -56.5l29 172h155l-153 -918q-25 -147 -82.5 -253.5t-142 -168t-183.5 -90t-219 -28.5q-100 0 -199 30.5t-164 75.5zM1053 606q0 156 -83.5 247t-219.5 91q-180 0 -309.5 -139.5t-129.5 -345.5q0 -153 83.5 -245.5t219.5 -92.5q122 0 223.5 66t158.5 177
t57 242zM930 1298q0 -49 -36.5 -85.5t-86.5 -36.5q-44 0 -71 28t-27 72q0 169 200 317l58 -67q-32 -23 -65.5 -60.5t-47.5 -76.5q35 -6 55.5 -31.5t20.5 -59.5z" />
    <glyph glyph-name="Hcircumflex" unicode="&#x124;" horiz-adv-x="1417" 
d="M162 0l239 1434h166l-104 -629h762l104 629h166l-240 -1434h-165l108 653h-762l-108 -653h-166zM1100 1534l-94 168l-154 -168h-158l238 266h172l147 -266h-151z" />
    <glyph glyph-name="hcircumflex" unicode="&#x125;" horiz-adv-x="1122" 
d="M799 1092q180 0 258.5 -118.5t46.5 -307.5l-111 -666h-162l113 672q21 125 -38 198.5t-169 73.5q-123 0 -214 -82.5t-113 -214.5l-109 -647h-162l248 1481h162l-96 -570q54 77 148 129t198 52zM950 1534l-94 168l-154 -168h-157l237 266h172l148 -266h-152z" />
    <glyph glyph-name="Hbar" unicode="&#x126;" horiz-adv-x="1417" 
d="M162 0l176 1055h-125l23 129h124l41 250h166l-41 -250h762l41 250h166l-41 -250h125l-23 -129h-124l-177 -1055h-165l108 653h-762l-108 -653h-166zM463 805h762l41 250h-762z" />
    <glyph glyph-name="hbar" unicode="&#x127;" horiz-adv-x="1122" 
d="M799 1092q180 0 258.5 -118.5t46.5 -307.5l-111 -666h-162l113 672q21 125 -38 198.5t-169 73.5q-123 0 -214 -82.5t-113 -214.5l-109 -647h-162l201 1202h-129l20 121h129l27 158h162l-27 -158h264l-20 -121h-264l-49 -291q54 77 148 129t198 52z" />
    <glyph glyph-name="Itilde" unicode="&#x128;" horiz-adv-x="489" 
d="M162 0l239 1434h166l-239 -1434h-166zM639 1552q-45 0 -89 23t-83 46.5t-72 23.5t-57 -24.5t-33 -66.5h-121q17 97 81.5 156t150.5 59q44 0 88 -22.5t82.5 -45t68.5 -22.5q34 0 59 24.5t34 65.5h116q-17 -98 -78.5 -157.5t-146.5 -59.5z" />
    <glyph glyph-name="itilde" unicode="&#x129;" 
d="M561 1231q-45 0 -89 23t-83 46t-72 23t-57 -24t-33 -66h-121q17 97 81.5 156t150.5 59q44 0 88.5 -22.5t83 -45t68.5 -22.5q34 0 58.5 24.5t33.5 65.5h116q-17 -98 -78.5 -157.5t-146.5 -59.5zM139 0l178 1065h162l-178 -1065h-162z" />
    <glyph glyph-name="Imacron" unicode="&#x12a;" horiz-adv-x="489" 
d="M162 0l239 1434h166l-239 -1434h-166zM264 1567l23 129h495l-22 -129h-496z" />
    <glyph glyph-name="imacron" unicode="&#x12b;" 
d="M188 1288l23 129h496l-23 -129h-496zM139 0l178 1065h162l-178 -1065h-162z" />
    <glyph glyph-name="Ibreve" unicode="&#x12c;" horiz-adv-x="489" 
d="M162 0l239 1434h166l-239 -1434h-166zM504 1530q-124 0 -180.5 73t-36.5 185h129q-11 -65 13.5 -105.5t92.5 -40.5q126 0 152 146h133q-19 -118 -98 -188t-205 -70z" />
    <glyph glyph-name="ibreve" unicode="&#x12d;" 
d="M424 1202q-124 0 -180.5 73t-36.5 185h129q-11 -65 13.5 -105t92.5 -40q66 0 103.5 40t48.5 105h133q-19 -118 -98 -188t-205 -70zM139 0l178 1065h162l-178 -1065h-162z" />
    <glyph glyph-name="Iogonek" unicode="&#x12e;" horiz-adv-x="489" 
d="M162 0l239 1434h166l-239 -1434q-19 -6 -45 -21t-56 -38t-50.5 -56.5t-20.5 -68.5q0 -42 31 -63t77 -21l-20 -127q-16 -4 -49 -4q-80 0 -137.5 42.5t-57.5 120.5q0 81 60 145.5t130 90.5h-28z" />
    <glyph glyph-name="iogonek" unicode="&#x12f;" 
d="M139 0l178 1065h162l-178 -1065q-19 -6 -45 -21t-56 -38t-50.5 -56.5t-20.5 -68.5q0 -42 31 -63t78 -21l-21 -127q-16 -4 -49 -4q-80 0 -137.5 42.5t-57.5 120.5q0 81 60.5 145.5t130.5 90.5h-25zM332 1323q0 52 38.5 89.5t90.5 37.5q42 0 69 -27t27 -69q0 -52 -40 -89.5
t-93 -37.5q-41 0 -66.5 27t-25.5 69z" />
    <glyph glyph-name="Idotaccent" unicode="&#x130;" horiz-adv-x="489" 
d="M162 0l239 1434h166l-239 -1434h-166zM414 1642q0 52 38.5 89.5t90.5 37.5q42 0 69 -27t27 -69q0 -52 -40 -89.5t-93 -37.5q-41 0 -66.5 27t-25.5 69z" />
    <glyph glyph-name="dotlessi" unicode="&#x131;" 
d="M139 0l178 1065h162l-178 -1065h-162z" />
    <glyph glyph-name="IJ" unicode="&#x132;" horiz-adv-x="1198" 
d="M162 0l239 1434h166l-239 -1434h-166zM537 12l43 146q65 -21 133 -21q179 0 215 209l182 1088h166l-186 -1110q-27 -163 -128.5 -249.5t-256.5 -86.5q-104 0 -168 24z" />
    <glyph glyph-name="ij" unicode="&#x133;" horiz-adv-x="882" 
d="M139 0l178 1065h162l-178 -1065h-162zM332 1323q0 52 38.5 89.5t90.5 37.5q42 0 69 -27t27 -69q0 -52 -40 -89.5t-93 -37.5q-41 0 -66.5 27t-25.5 69zM573 -31l185 1096h162l-185 -1100q-16 -98 -53.5 -169t-91 -111t-114 -58t-132.5 -18l-55 4l22 139q18 -2 45 -2
q91 0 144.5 53t72.5 166zM770 1323q0 52 39.5 89.5t91.5 37.5q42 0 69 -27t27 -69q0 -52 -40 -89.5t-93 -37.5q-41 0 -67.5 27.5t-26.5 68.5z" />
    <glyph glyph-name="Jcircumflex" unicode="&#x134;" horiz-adv-x="706" 
d="M47 12l43 146q65 -21 133 -21q179 0 215 209l183 1088h165l-186 -1110q-27 -163 -128.5 -249.5t-256.5 -86.5q-104 0 -168 24zM838 1534l-95 168l-153 -168h-158l238 266h172l147 -266h-151z" />
    <glyph glyph-name="jcircumflex" unicode="&#x135;" 
d="M133 -31l184 1096h162l-184 -1100q-16 -98 -53.5 -169t-91 -111t-114 -58t-132.5 -18l-56 4l23 139q27 -2 45 -2q91 0 144.5 53t72.5 166zM551 1217l-94 167l-154 -167h-158l238 266h172l147 -266h-151z" />
    <glyph glyph-name="Kcommaaccent" unicode="&#x136;" horiz-adv-x="1157" 
d="M162 0l239 1434h166l-110 -660l673 660h209l-716 -695l501 -739h-194l-481 721l-121 -721h-166zM475 -190q0 50 37 86t88 36q44 0 70 -27.5t26 -72.5q0 -169 -200 -317l-60 73q100 72 119 131q-39 3 -59.5 29.5t-20.5 61.5z" />
    <glyph glyph-name="kcommaaccent" unicode="&#x137;" horiz-adv-x="978" 
d="M139 0l248 1481h162l-146 -873l502 457h213l-545 -485l394 -580h-187l-385 567l-94 -567h-162zM383 -190q0 50 37 86t88 36q44 0 70 -27.5t26 -72.5q0 -169 -201 -317l-59 73q100 72 119 131q-39 3 -59.5 29.5t-20.5 61.5z" />
    <glyph glyph-name="kgreenlandic" unicode="&#x138;" horiz-adv-x="978" 
d="M139 0l178 1065h162l-78 -469l508 469h209l-540 -490l389 -575h-199l-375 555l-92 -555h-162z" />
    <glyph glyph-name="Lacute" unicode="&#x139;" horiz-adv-x="919" 
d="M162 0l239 1434h166l-215 -1284h537l-25 -150h-702zM430 1524l188 291h185l-232 -291h-141z" />
    <glyph glyph-name="lacute" unicode="&#x13a;" 
d="M139 0l248 1481h162l-248 -1481h-162zM397 1536l189 291h184l-231 -291h-142z" />
    <glyph glyph-name="Lcommaaccent" unicode="&#x13b;" horiz-adv-x="919" 
d="M162 0l239 1434h166l-215 -1284h537l-25 -150h-702zM391 -190q0 50 37 86t88 36q44 0 70 -27.5t26 -72.5q0 -169 -200 -317l-60 73q100 72 119 131q-39 3 -59.5 29.5t-20.5 61.5z" />
    <glyph glyph-name="lcommaaccent" unicode="&#x13c;" 
d="M139 0l248 1481h162l-248 -1481h-162zM86 -190q0 50 37 86t88 36q44 0 70 -27.5t26 -72.5q0 -169 -201 -317l-59 73q100 72 119 131q-39 3 -59.5 29.5t-20.5 61.5z" />
    <glyph glyph-name="Lcaron" unicode="&#x13d;" horiz-adv-x="931" 
d="M760 1085l71 349h168l-116 -349h-123zM162 0l239 1434h166l-215 -1284h537l-25 -150h-702z" />
    <glyph glyph-name="lcaron" unicode="&#x13e;" horiz-adv-x="448" 
d="M567 1133l72 348h168l-117 -348h-123zM139 0l248 1481h162l-248 -1481h-162z" />
    <glyph glyph-name="Ldot" unicode="&#x13f;" horiz-adv-x="919" 
d="M162 0l239 1434h166l-215 -1284h537l-25 -150h-702zM662 739q0 53 40 91t95 38q44 0 72 -28t28 -70q0 -54 -38 -92.5t-93 -38.5q-44 0 -74 28.5t-30 71.5z" />
    <glyph glyph-name="ldot" unicode="&#x140;" horiz-adv-x="669" 
d="M139 0l248 1481h162l-248 -1481h-162zM502 655q0 53 40 91t95 38q44 0 72 -28t28 -70q0 -54 -38 -92.5t-93 -38.5q-44 0 -74 28.5t-30 71.5z" />
    <glyph glyph-name="Lslash" unicode="&#x141;" horiz-adv-x="919" 
d="M123 492l27 159l133 72l118 711h166l-102 -615l278 156l-26 -166l-279 -152l-86 -507h537l-25 -150h-702l94 561z" />
    <glyph glyph-name="lslash" unicode="&#x142;" horiz-adv-x="516" 
d="M131 567l27 164l147 86l113 664h162l-95 -563l156 94l-27 -168l-157 -92l-125 -752h-162l109 653z" />
    <glyph glyph-name="Nacute" unicode="&#x143;" horiz-adv-x="1441" 
d="M160 0l239 1434h166l594 -1172l197 1172h164l-240 -1434h-164l-596 1167l-194 -1167h-166zM903 1524l189 291h184l-232 -291h-141z" />
    <glyph glyph-name="nacute" unicode="&#x144;" horiz-adv-x="1122" 
d="M799 1092q121 0 197 -56.5t101.5 -151.5t4.5 -218l-111 -666h-162l113 672q21 125 -37.5 198.5t-169.5 73.5q-123 0 -213 -82.5t-112 -214.5l-109 -647h-162l178 1065h160l-26 -154q54 77 148.5 129t199.5 52zM672 1194l188 291h184l-231 -291h-141z" />
    <glyph glyph-name="Ncommaaccent" unicode="&#x145;" horiz-adv-x="1441" 
d="M160 0l239 1434h166l594 -1172l197 1172h164l-240 -1434h-164l-596 1167l-194 -1167h-166zM580 -190q0 50 37 86t88 36q44 0 70 -27.5t26 -72.5q0 -169 -201 -317l-59 73q99 71 118 131q-39 3 -59 29.5t-20 61.5z" />
    <glyph glyph-name="ncommaaccent" unicode="&#x146;" horiz-adv-x="1122" 
d="M799 1092q121 0 197 -56.5t101.5 -151.5t4.5 -218l-111 -666h-162l113 672q21 125 -37.5 198.5t-169.5 73.5q-123 0 -213 -82.5t-112 -214.5l-109 -647h-162l178 1065h160l-26 -154q54 77 148.5 129t199.5 52zM422 -190q0 50 37 86t88 36q44 0 70 -27.5t26 -72.5
q0 -169 -201 -317l-59 73q100 72 119 131q-39 3 -59.5 29.5t-20.5 61.5z" />
    <glyph glyph-name="Ncaron" unicode="&#x147;" horiz-adv-x="1441" 
d="M160 0l239 1434h166l594 -1172l197 1172h164l-240 -1434h-164l-596 1167l-194 -1167h-166zM991 1632l156 168h156l-238 -266h-172l-148 266h154z" />
    <glyph glyph-name="ncaron" unicode="&#x148;" horiz-adv-x="1122" 
d="M799 1092q121 0 197 -56.5t101.5 -151.5t4.5 -218l-111 -666h-162l113 672q21 125 -37.5 198.5t-169.5 73.5q-123 0 -213 -82.5t-112 -214.5l-109 -647h-162l178 1065h160l-26 -154q54 77 148.5 129t199.5 52zM799 1315l155 168h156l-238 -266h-172l-147 266h154z" />
    <glyph glyph-name="napostrophe" unicode="&#x149;" horiz-adv-x="1173" 
d="M850 1092q121 0 197 -56.5t101.5 -151.5t4.5 -218l-111 -666h-161l112 672q21 125 -37.5 198.5t-169.5 73.5q-123 0 -213 -82.5t-112 -214.5l-109 -647h-162l179 1065h159l-26 -154q54 77 148.5 129t199.5 52zM197 1343q0 50 37 86.5t88 36.5q44 0 70 -27.5t26 -72.5
q0 -169 -201 -317l-59 73q99 71 118 131q-39 3 -59 29t-20 61z" />
    <glyph glyph-name="Eng" unicode="&#x14a;" horiz-adv-x="1441" 
d="M721 -369l43 148q63 -19 131 -19q173 0 215 209l6 31l-596 1167l-194 -1167h-166l239 1434h166l594 -1172l197 1172h164l-248 -1487q-27 -164 -128 -250t-255 -86q-115 0 -168 20z" />
    <glyph glyph-name="eng" unicode="&#x14b;" horiz-adv-x="1122" 
d="M823 -31l119 703q21 125 -37.5 198.5t-169.5 73.5q-123 0 -213 -82.5t-112 -214.5l-109 -647h-162l178 1065h160l-26 -154q54 77 148.5 129t199.5 52q121 0 197 -56.5t101.5 -151.5t4.5 -218l-117 -701q-16 -98 -53.5 -169t-90.5 -111t-114 -58t-133 -18l-55 4l24 139
q27 -2 47 -2q89 0 141.5 53t71.5 166z" />
    <glyph glyph-name="Omacron" unicode="&#x14c;" horiz-adv-x="1619" 
d="M186 604q0 175 71 334.5t188.5 273t277 181t330.5 67.5q183 0 324.5 -83.5t217.5 -228t76 -323.5q0 -139 -45 -269.5t-127 -235t-189.5 -183.5t-238.5 -121.5t-268 -42.5q-182 0 -323.5 81.5t-217.5 225t-76 324.5zM360 625q0 -218 130 -357t341 -139q175 0 328 88.5
t245.5 245.5t92.5 344q0 217 -130 357.5t-339 140.5q-132 0 -254.5 -53t-213.5 -143.5t-145.5 -217t-54.5 -266.5zM823 1567l23 129h495l-22 -129h-496z" />
    <glyph glyph-name="omacron" unicode="&#x14d;" horiz-adv-x="1247" 
d="M315 465q0 -153 89.5 -248.5t238.5 -95.5q194 0 331.5 138.5t137.5 338.5q0 152 -91 249t-241 97q-127 0 -234 -64t-169 -174t-62 -241zM147 446q0 178 91.5 327.5t243 234t325.5 84.5q212 0 341.5 -134t129.5 -342q0 -176 -90.5 -324.5t-242 -233.5t-327.5 -85
q-212 0 -341.5 132.5t-129.5 340.5zM596 1288l22 129h496l-22 -129h-496z" />
    <glyph glyph-name="Obreve" unicode="&#x14e;" horiz-adv-x="1619" 
d="M186 604q0 175 71 334.5t188.5 273t277 181t330.5 67.5q183 0 324.5 -83.5t217.5 -228t76 -323.5q0 -139 -45 -269.5t-127 -235t-189.5 -183.5t-238.5 -121.5t-268 -42.5q-182 0 -323.5 81.5t-217.5 225t-76 324.5zM360 625q0 -218 130 -357t341 -139q175 0 328 88.5
t245.5 245.5t92.5 344q0 217 -130 357.5t-339 140.5q-132 0 -254.5 -53t-213.5 -143.5t-145.5 -217t-54.5 -266.5zM1071 1530q-124 0 -180.5 73t-36.5 185h129q-11 -65 14 -105.5t93 -40.5q125 0 151 146h133q-19 -118 -98 -188t-205 -70z" />
    <glyph glyph-name="obreve" unicode="&#x14f;" horiz-adv-x="1247" 
d="M315 465q0 -153 89.5 -248.5t238.5 -95.5q194 0 331.5 138.5t137.5 338.5q0 152 -91 249t-241 97q-127 0 -234 -64t-169 -174t-62 -241zM147 446q0 178 91.5 327.5t243 234t325.5 84.5q212 0 341.5 -134t129.5 -342q0 -176 -90.5 -324.5t-242 -233.5t-327.5 -85
q-212 0 -341.5 132.5t-129.5 340.5zM825 1202q-124 0 -180.5 73t-36.5 185h129q-11 -65 14 -105t93 -40q66 0 103 39.5t48 105.5h133q-19 -118 -98 -188t-205 -70z" />
    <glyph glyph-name="Ohungarumlaut" unicode="&#x150;" horiz-adv-x="1619" 
d="M186 604q0 175 71 334.5t188.5 273t277 181t330.5 67.5q183 0 324.5 -83.5t217.5 -228t76 -323.5q0 -139 -45 -269.5t-127 -235t-189.5 -183.5t-238.5 -121.5t-268 -42.5q-182 0 -323.5 81.5t-217.5 225t-76 324.5zM360 625q0 -218 130 -357t341 -139q175 0 328 88.5
t245.5 245.5t92.5 344q0 217 -130 357.5t-339 140.5q-132 0 -254.5 -53t-213.5 -143.5t-145.5 -217t-54.5 -266.5zM1081 1524l195 291h170l-232 -291h-133zM823 1524l195 291h170l-232 -291h-133z" />
    <glyph glyph-name="ohungarumlaut" unicode="&#x151;" horiz-adv-x="1247" 
d="M315 465q0 -153 89.5 -248.5t238.5 -95.5q194 0 331.5 138.5t137.5 338.5q0 152 -91 249t-241 97q-127 0 -234 -64t-169 -174t-62 -241zM147 446q0 178 91.5 327.5t243 234t325.5 84.5q212 0 341.5 -134t129.5 -342q0 -176 -90.5 -324.5t-242 -233.5t-327.5 -85
q-212 0 -341.5 132.5t-129.5 340.5zM864 1194l195 291h170l-232 -291h-133zM606 1194l195 291h170l-232 -291h-133z" />
    <glyph glyph-name="OE" unicode="&#x152;" horiz-adv-x="2211" 
d="M186 604q0 175 71 334.5t188.5 273t277 181t330.5 67.5q104 0 190 -26h1079l-24 -152h-801q176 -195 170 -477h485l-24 -150h-477q-32 -153 -116.5 -282t-209.5 -223h805l-25 -150h-1091q-115 -27 -211 -27q-182 0 -323.5 81.5t-217.5 225t-76 324.5zM360 625
q0 -218 130 -357t341 -139q175 0 328 88.5t245.5 245.5t92.5 344q0 217 -130 357.5t-339 140.5q-132 0 -254.5 -53t-213.5 -143.5t-145.5 -217t-54.5 -266.5z" />
    <glyph glyph-name="oe" unicode="&#x153;" horiz-adv-x="2099" 
d="M147 446q0 178 91.5 327.5t243 234t325.5 84.5q154 0 266 -72t158 -195q84 125 212 196t267 71q201 0 314.5 -123t113.5 -324q0 -97 -20 -147h-854q-29 -178 60 -279.5t259 -101.5q211 0 356 166l97 -78q-73 -93 -195 -162.5t-285 -69.5q-159 0 -269 71t-152 196
q-91 -123 -227.5 -195t-289.5 -72q-212 0 -341.5 132.5t-129.5 340.5zM315 465q0 -153 89.5 -248.5t238.5 -95.5q194 0 331.5 138.5t137.5 338.5q0 152 -91 249t-241 97q-127 0 -234 -64t-169 -174t-62 -241zM1290 618h682q19 159 -62.5 246.5t-221.5 87.5q-87 0 -167 -38
t-142.5 -115t-88.5 -181z" />
    <glyph glyph-name="Racute" unicode="&#x154;" horiz-adv-x="1120" 
d="M162 0l239 1434h365q191 0 289 -85t98 -241q0 -155 -85 -281t-234 -170l245 -657h-184l-219 623h-244l-104 -623h-166zM457 768h198q152 0 237 79t85 236q0 96 -60 149.5t-186 53.5h-188zM694 1524l189 291h184l-231 -291h-142z" />
    <glyph glyph-name="racute" unicode="&#x155;" horiz-adv-x="657" 
d="M799 1092l-27 -162q-162 0 -256.5 -110.5t-128.5 -309.5l-86 -510h-162l178 1065h160l-31 -178q44 85 140.5 145t212.5 60zM483 1194l189 291h184l-231 -291h-142z" />
    <glyph glyph-name="Rcommaaccent" unicode="&#x156;" horiz-adv-x="1120" 
d="M162 0l239 1434h365q191 0 289 -85t98 -241q0 -155 -85 -281t-234 -170l245 -657h-184l-219 623h-244l-104 -623h-166zM457 768h198q152 0 237 79t85 236q0 96 -60 149.5t-186 53.5h-188zM430 -190q0 50 37 86t88 36q44 0 70 -27.5t26 -72.5q0 -169 -200 -317l-60 73
q100 72 119 131q-39 3 -59.5 29.5t-20.5 61.5z" />
    <glyph glyph-name="rcommaaccent" unicode="&#x157;" horiz-adv-x="657" 
d="M799 1092l-27 -162q-162 0 -256.5 -110.5t-128.5 -309.5l-86 -510h-162l178 1065h160l-31 -178q44 85 140.5 145t212.5 60zM111 -190q0 50 37 86t88 36q44 0 70 -27.5t26 -72.5q0 -169 -201 -317l-59 73q99 71 118 131q-39 3 -59 29.5t-20 61.5z" />
    <glyph glyph-name="Rcaron" unicode="&#x158;" horiz-adv-x="1120" 
d="M162 0l239 1434h365q191 0 289 -85t98 -241q0 -155 -85 -281t-234 -170l245 -657h-184l-219 623h-244l-104 -623h-166zM457 768h198q152 0 237 79t85 236q0 96 -60 149.5t-186 53.5h-188zM791 1632l155 168h156l-238 -266h-172l-147 266h153z" />
    <glyph glyph-name="rcaron" unicode="&#x159;" horiz-adv-x="657" 
d="M799 1092l-27 -162q-162 0 -256.5 -110.5t-128.5 -309.5l-86 -510h-162l178 1065h160l-31 -178q44 85 140.5 145t212.5 60zM571 1315l156 168h156l-238 -266h-172l-147 266h153z" />
    <glyph glyph-name="Sacute" unicode="&#x15a;" horiz-adv-x="1036" 
d="M119 289l151 61q8 -45 26 -82t49 -70.5t82.5 -52t119.5 -18.5q131 0 217 74.5t86 197.5q0 61 -31 111t-80 85t-109 68t-119.5 68.5t-108.5 77.5t-80 104.5t-31 139.5q0 175 131 291t340 116q90 0 161 -28.5t111.5 -73.5t62 -87.5t29.5 -84.5l-147 -58q-58 181 -240 181
q-127 0 -203.5 -71.5t-76.5 -172.5q0 -44 19.5 -82.5t52 -68.5t74.5 -58t89 -54.5t93.5 -54.5t88.5 -61.5t74.5 -71t52 -88t19.5 -108.5q0 -192 -132.5 -318.5t-352.5 -126.5q-99 0 -178.5 29.5t-127.5 78t-75.5 100.5t-36.5 108zM680 1524l188 291h185l-232 -291h-141z" />
    <glyph glyph-name="sacute" unicode="&#x15b;" horiz-adv-x="854" 
d="M92 201l121 69q68 -159 244 -159q92 0 159.5 52t67.5 138q0 42 -25 76.5t-65 59t-88.5 48t-97.5 50.5t-89 59.5t-65 81t-25 108.5q0 139 110.5 223.5t274.5 84.5q70 0 128 -20.5t93.5 -53t56.5 -66t28 -65.5l-129 -68q-9 26 -21 46t-34 43t-58.5 35.5t-85.5 12.5
q-86 0 -144.5 -44t-58.5 -119q0 -41 25 -75.5t65.5 -60t89.5 -50.5t97.5 -53.5t89 -61.5t65.5 -81.5t25 -107.5q0 -152 -110.5 -241t-297.5 -89q-76 0 -138 21t-102 57t-64.5 72t-41.5 78zM528 1194l189 291h184l-231 -291h-142z" />
    <glyph glyph-name="Scircumflex" unicode="&#x15c;" horiz-adv-x="1036" 
d="M119 289l151 61q8 -45 26 -82t49 -70.5t82.5 -52t119.5 -18.5q131 0 217 74.5t86 197.5q0 61 -31 111t-80 85t-109 68t-119.5 68.5t-108.5 77.5t-80 104.5t-31 139.5q0 175 131 291t340 116q90 0 161 -28.5t111.5 -73.5t62 -87.5t29.5 -84.5l-147 -58q-58 181 -240 181
q-127 0 -203.5 -71.5t-76.5 -172.5q0 -44 19.5 -82.5t52 -68.5t74.5 -58t89 -54.5t93.5 -54.5t88.5 -61.5t74.5 -71t52 -88t19.5 -108.5q0 -192 -132.5 -318.5t-352.5 -126.5q-99 0 -178.5 29.5t-127.5 78t-75.5 100.5t-36.5 108zM903 1534l-94 168l-154 -168h-157l237 266
h172l148 -266h-152z" />
    <glyph glyph-name="scircumflex" unicode="&#x15d;" horiz-adv-x="854" 
d="M92 201l121 69q68 -159 244 -159q92 0 159.5 52t67.5 138q0 42 -25 76.5t-65 59t-88.5 48t-97.5 50.5t-89 59.5t-65 81t-25 108.5q0 139 110.5 223.5t274.5 84.5q70 0 128 -20.5t93.5 -53t56.5 -66t28 -65.5l-129 -68q-9 26 -21 46t-34 43t-58.5 35.5t-85.5 12.5
q-86 0 -144.5 -44t-58.5 -119q0 -41 25 -75.5t65.5 -60t89.5 -50.5t97.5 -53.5t89 -61.5t65.5 -81.5t25 -107.5q0 -152 -110.5 -241t-297.5 -89q-76 0 -138 21t-102 57t-64.5 72t-41.5 78zM774 1217l-94 167l-154 -167h-157l237 266h172l148 -266h-152z" />
    <glyph glyph-name="Scedilla" unicode="&#x15e;" horiz-adv-x="1036" 
d="M119 289l151 61q8 -45 26 -82t49 -70.5t82.5 -52t119.5 -18.5q131 0 217 74.5t86 197.5q0 61 -31 111t-80 85t-109 68t-119.5 68.5t-108.5 77.5t-80 104.5t-31 139.5q0 175 131 291t340 116q90 0 161 -28.5t111.5 -73.5t62 -87.5t29.5 -84.5l-147 -58q-58 181 -240 181
q-127 0 -203.5 -71.5t-76.5 -172.5q0 -44 19.5 -82.5t52 -68.5t74.5 -58t89 -54.5t93.5 -54.5t88.5 -61.5t74.5 -71t52 -88t19.5 -108.5q0 -91 -32.5 -171t-91 -139.5t-145.5 -95t-192 -39.5l-20 -69q65 -6 101 -46.5t36 -101.5q0 -108 -77 -162.5t-189 -54.5q-54 0 -84 10
l37 105q30 -6 59 -6q131 0 131 96q0 35 -28 53.5t-76 18.5l-41 -4l49 168q-80 10 -144 42t-103 77t-62 92.5t-31 97.5z" />
    <glyph glyph-name="scedilla" unicode="&#x15f;" horiz-adv-x="854" 
d="M92 201l121 69q68 -159 244 -159q92 0 159.5 52t67.5 138q0 42 -25 76.5t-65 59t-88.5 48t-97.5 50.5t-89 59.5t-65 81t-25 108.5q0 139 110.5 223.5t274.5 84.5q70 0 128 -20.5t93.5 -53t56.5 -66t28 -65.5l-129 -68q-9 26 -21 46t-34 43t-58.5 35.5t-85.5 12.5
q-86 0 -144.5 -44t-58.5 -119q0 -41 25 -75.5t65.5 -60t89.5 -50.5t97.5 -53.5t89 -61.5t65.5 -81.5t25 -107.5q0 -147 -103 -234.5t-278 -95.5l-21 -69q65 -6 101.5 -46.5t36.5 -101.5q0 -108 -77.5 -162.5t-189.5 -54.5q-54 0 -84 10l37 105q31 -6 60 -6q131 0 131 96
q0 35 -28.5 53.5t-76.5 18.5l-41 -4l52 168q-111 17 -177 79.5t-96 141.5z" />
    <glyph glyph-name="Scaron" unicode="&#x160;" horiz-adv-x="1036" 
d="M119 289l151 61q8 -45 26 -82t49 -70.5t82.5 -52t119.5 -18.5q131 0 217 74.5t86 197.5q0 61 -31 111t-80 85t-109 68t-119.5 68.5t-108.5 77.5t-80 104.5t-31 139.5q0 175 131 291t340 116q90 0 161 -28.5t111.5 -73.5t62 -87.5t29.5 -84.5l-147 -58q-58 181 -240 181
q-127 0 -203.5 -71.5t-76.5 -172.5q0 -44 19.5 -82.5t52 -68.5t74.5 -58t89 -54.5t93.5 -54.5t88.5 -61.5t74.5 -71t52 -88t19.5 -108.5q0 -192 -132.5 -318.5t-352.5 -126.5q-99 0 -178.5 29.5t-127.5 78t-75.5 100.5t-36.5 108zM807 1632l156 168h155l-237 -266h-172
l-148 266h154z" />
    <glyph glyph-name="scaron" unicode="&#x161;" horiz-adv-x="854" 
d="M92 201l121 69q68 -159 244 -159q92 0 159.5 52t67.5 138q0 42 -25 76.5t-65 59t-88.5 48t-97.5 50.5t-89 59.5t-65 81t-25 108.5q0 139 110.5 223.5t274.5 84.5q70 0 128 -20.5t93.5 -53t56.5 -66t28 -65.5l-129 -68q-9 26 -21 46t-34 43t-58.5 35.5t-85.5 12.5
q-86 0 -144.5 -44t-58.5 -119q0 -41 25 -75.5t65.5 -60t89.5 -50.5t97.5 -53.5t89 -61.5t65.5 -81.5t25 -107.5q0 -152 -110.5 -241t-297.5 -89q-76 0 -138 21t-102 57t-64.5 72t-41.5 78zM657 1315l156 168h156l-238 -266h-172l-147 266h153z" />
    <glyph glyph-name="Tcommaaccent" unicode="&#x162;" horiz-adv-x="1046" 
d="M430 0l215 1282h-387l25 152h938l-25 -152h-385l-215 -1282h-45l-29 -96q65 -6 101 -46.5t36 -101.5q0 -108 -77 -162.5t-189 -54.5q-54 0 -84 10l37 105q31 -6 60 -6q131 0 131 96q0 35 -28.5 53.5t-76.5 18.5l-41 -4l58 188h-19z" />
    <glyph glyph-name="tcommaaccent" unicode="&#x163;" horiz-adv-x="604" 
d="M334 1065l39 223h157l-38 -223h233l-23 -137h-233l-92 -549q-24 -144 10.5 -195t136.5 -51l54 4l-25 -145q-43 -6 -98 -6l-31 2l-25 -84q65 -6 101.5 -46.5t36.5 -101.5q0 -108 -77.5 -162.5t-189.5 -54.5q-54 0 -84 10l37 105q31 -6 60 -6q131 0 131 96q0 35 -28.5 53.5
t-76.5 18.5l-41 -4l60 196q-158 70 -115 336l94 584h-125l23 137h129z" />
    <glyph glyph-name="Tcaron" unicode="&#x164;" horiz-adv-x="1046" 
d="M430 0l215 1282h-387l25 152h938l-25 -152h-385l-215 -1282h-166zM784 1632l156 168h156l-238 -266h-172l-147 266h153z" />
    <glyph glyph-name="tcaron" unicode="&#x165;" horiz-adv-x="604" 
d="M610 1141l72 340h168l-117 -340h-123zM334 1065l39 223h157l-38 -223h233l-23 -137h-233l-92 -549q-24 -144 10.5 -195t136.5 -51l54 4l-25 -145q-43 -6 -98 -6q-147 0 -209 89.5t-33 268.5l94 584h-125l23 137h129z" />
    <glyph glyph-name="Tbar" unicode="&#x166;" horiz-adv-x="1046" 
d="M289 700l22 134h258l76 448h-387l25 152h938l-25 -152h-385l-76 -448h285l-23 -134h-284l-117 -700h-166l117 700h-258z" />
    <glyph glyph-name="tbar" unicode="&#x167;" horiz-adv-x="604" 
d="M637 571h-229l-31 -192q-24 -144 10.5 -195t136.5 -51l54 4l-25 -145q-43 -6 -98 -6q-307 0 -242 379l35 206h-125l20 123h125l39 234h-125l23 137h125l37 223h161l-36 -223h233l-23 -137h-235l-39 -234h229z" />
    <glyph glyph-name="Utilde" unicode="&#x168;" horiz-adv-x="1376" 
d="M690 -27q-255 0 -373.5 146.5t-76.5 394.5l153 920h166l-153 -918q-30 -182 47.5 -285.5t255.5 -103.5q179 0 292 104t144 287l153 916h164l-153 -918q-41 -249 -203 -396t-416 -147zM1100 1552q-45 0 -89 23t-83 46.5t-72 23.5t-57 -24.5t-33 -66.5h-121q17 97 81.5 156
t150.5 59q44 0 88 -22.5t82.5 -45t68.5 -22.5q34 0 58.5 24.5t33.5 65.5h117q-17 -98 -78.5 -157.5t-146.5 -59.5z" />
    <glyph glyph-name="utilde" unicode="&#x169;" horiz-adv-x="1112" 
d="M502 -27q-180 0 -258.5 118.5t-46.5 307.5l110 666h162l-113 -672q-21 -125 38 -198.5t169 -73.5q123 0 213.5 82.5t112.5 214.5l108 647h164l-178 -1065h-162l27 154q-52 -76 -147 -128.5t-199 -52.5zM901 1231q-45 0 -89 23t-83 46t-72 23t-57 -24t-33 -66h-121
q17 97 81.5 156t150.5 59q44 0 88.5 -22.5t83 -45t68.5 -22.5q34 0 58.5 24.5t33.5 65.5h116q-17 -98 -78.5 -157.5t-146.5 -59.5z" />
    <glyph glyph-name="Umacron" unicode="&#x16a;" horiz-adv-x="1382" 
d="M690 -27q-255 0 -373.5 146.5t-76.5 394.5l153 920h166l-153 -918q-30 -182 47.5 -285.5t255.5 -103.5q179 0 292 104t144 287l153 916h164l-153 -918q-41 -249 -203 -396t-416 -147zM721 1567l22 129h496l-22 -129h-496z" />
    <glyph glyph-name="umacron" unicode="&#x16b;" horiz-adv-x="1112" 
d="M502 -27q-180 0 -258.5 118.5t-46.5 307.5l110 666h162l-113 -672q-21 -125 38 -198.5t169 -73.5q123 0 213.5 82.5t112.5 214.5l108 647h164l-178 -1065h-162l27 154q-52 -76 -147 -128.5t-199 -52.5zM532 1288l23 129h496l-23 -129h-496z" />
    <glyph glyph-name="Ubreve" unicode="&#x16c;" horiz-adv-x="1376" 
d="M690 -27q-255 0 -373.5 146.5t-76.5 394.5l153 920h166l-153 -918q-30 -182 47.5 -285.5t255.5 -103.5q179 0 292 104t144 287l153 916h164l-153 -918q-41 -249 -203 -396t-416 -147zM954 1530q-124 0 -180.5 73t-36.5 185h129q-11 -65 14 -105.5t93 -40.5q125 0 151 146
h133q-19 -118 -98 -188t-205 -70z" />
    <glyph glyph-name="ubreve" unicode="&#x16d;" horiz-adv-x="1112" 
d="M502 -27q-180 0 -258.5 118.5t-46.5 307.5l110 666h162l-113 -672q-21 -125 38 -198.5t169 -73.5q123 0 213.5 82.5t112.5 214.5l108 647h164l-178 -1065h-162l27 154q-52 -76 -147 -128.5t-199 -52.5zM764 1202q-124 0 -180.5 73t-36.5 185h129q-11 -65 13.5 -105
t92.5 -40q66 0 103.5 40t48.5 105h133q-19 -118 -98 -188t-205 -70z" />
    <glyph glyph-name="Uring" unicode="&#x16e;" horiz-adv-x="1376" 
d="M690 -27q-255 0 -373.5 146.5t-76.5 394.5l153 920h166l-153 -918q-30 -182 47.5 -285.5t255.5 -103.5q179 0 292 104t144 287l153 916h164l-153 -918q-41 -249 -203 -396t-416 -147zM797 1667q0 87 63 146t152 59q73 0 116 -41.5t43 -108.5q0 -87 -63.5 -146.5
t-153.5 -59.5q-71 0 -114 42t-43 109zM897 1679q0 -33 19.5 -52t52.5 -19q45 0 72.5 28.5t27.5 73.5q0 32 -19 51t-55 19q-41 0 -69.5 -29t-28.5 -72z" />
    <glyph glyph-name="uring" unicode="&#x16f;" horiz-adv-x="1112" 
d="M502 -27q-180 0 -258.5 118.5t-46.5 307.5l110 666h162l-113 -672q-21 -125 38 -198.5t169 -73.5q123 0 213.5 82.5t112.5 214.5l108 647h164l-178 -1065h-162l27 154q-52 -76 -147 -128.5t-199 -52.5zM604 1333q0 87 63 146t152 59q73 0 116.5 -41t43.5 -108
q0 -87 -63.5 -147t-153.5 -60q-71 0 -114.5 42t-43.5 109zM705 1346q0 -33 19 -52.5t52 -19.5q45 0 73 28.5t28 73.5q0 32 -19 51t-55 19q-41 0 -69.5 -28.5t-28.5 -71.5z" />
    <glyph glyph-name="Uhungarumlaut" unicode="&#x170;" horiz-adv-x="1382" 
d="M690 -27q-255 0 -373.5 146.5t-76.5 394.5l153 920h166l-153 -918q-30 -182 47.5 -285.5t255.5 -103.5q179 0 292 104t144 287l153 916h164l-153 -918q-41 -249 -203 -396t-416 -147zM983 1524l195 291h170l-232 -291h-133zM725 1524l195 291h170l-232 -291h-133z" />
    <glyph glyph-name="uhungarumlaut" unicode="&#x171;" horiz-adv-x="1112" 
d="M502 -27q-180 0 -258.5 118.5t-46.5 307.5l110 666h162l-113 -672q-21 -125 38 -198.5t169 -73.5q123 0 213.5 82.5t112.5 214.5l108 647h164l-178 -1065h-162l27 154q-52 -76 -147 -128.5t-199 -52.5zM799 1194l194 291h170l-231 -291h-133zM541 1194l194 291h170
l-231 -291h-133z" />
    <glyph glyph-name="Uogonek" unicode="&#x172;" horiz-adv-x="1376" 
d="M547 -236q0 66 39 120t96 89q-251 3 -367.5 149t-74.5 392l153 920h166l-153 -918q-30 -182 47.5 -285.5t255.5 -103.5q179 0 292 104t144 287l153 916h164l-153 -918q-34 -204 -151 -342t-302 -182q-55 -24 -104.5 -71t-49.5 -105q0 -42 31 -63t78 -21l-20 -127
q-17 -4 -50 -4q-80 0 -137 42.5t-57 120.5z" />
    <glyph glyph-name="uogonek" unicode="&#x173;" horiz-adv-x="1112" 
d="M655 -236q0 81 60.5 145.5t130.5 90.5h-25l27 154q-52 -76 -147 -128.5t-199 -52.5q-180 0 -258.5 118.5t-46.5 307.5l110 666h162l-113 -672q-21 -125 38 -198.5t169 -73.5q123 0 213.5 82.5t112.5 214.5l108 647h164l-178 -1065q-19 -6 -45 -21t-56 -38t-50.5 -56.5
t-20.5 -68.5q0 -42 31 -63t78 -21l-21 -127q-16 -4 -49 -4q-80 0 -137.5 42.5t-57.5 120.5z" />
    <glyph glyph-name="Wcircumflex" unicode="&#x174;" horiz-adv-x="1931" 
d="M1313 0l-150 1190l-547 -1190h-184l-170 1434h176l127 -1223l553 1223h166l150 -1223l534 1223h178l-647 -1434h-186zM1350 1534l-95 168l-153 -168h-158l238 266h172l147 -266h-151z" />
    <glyph glyph-name="wcircumflex" unicode="&#x175;" horiz-adv-x="1671" 
d="M1118 0l-141 846l-426 -846h-178l-180 1065h174l131 -877q5 7 434 877h162l137 -877l428 877h176l-539 -1065h-178zM1165 1217l-94 167l-153 -167h-158l237 266h172l148 -266h-152z" />
    <glyph glyph-name="Ycircumflex" unicode="&#x176;" horiz-adv-x="1089" 
d="M463 0l115 672l-318 762h174l242 -607l446 607h189l-572 -762l-112 -672h-164zM930 1534l-94 168l-154 -168h-158l238 266h172l147 -266h-151z" />
    <glyph glyph-name="ycircumflex" unicode="&#x177;" horiz-adv-x="1040" 
d="M393 -367h-168l221 377l-256 1055h172l193 -862l473 862h176zM858 1217l-94 167l-154 -167h-157l237 266h172l148 -266h-152z" />
    <glyph glyph-name="Ydieresis" unicode="&#x178;" horiz-adv-x="1089" 
d="M463 0l115 672l-318 762h174l242 -607l446 607h189l-572 -762l-112 -672h-164zM563 1681q0 46 36 81.5t83 35.5q39 0 63.5 -25.5t24.5 -62.5q0 -48 -35 -82.5t-84 -34.5q-38 0 -63 25.5t-25 62.5zM899 1681q0 46 35 81.5t84 35.5q38 0 63 -26t25 -62q0 -47 -36 -82
t-83 -35q-39 0 -63.5 25.5t-24.5 62.5z" />
    <glyph glyph-name="Zacute" unicode="&#x179;" horiz-adv-x="1216" 
d="M72 0l20 121l1032 1163h-811l25 150h1032l-20 -123l-1033 -1161h842l-24 -150h-1063zM770 1524l188 291h185l-232 -291h-141z" />
    <glyph glyph-name="zacute" unicode="&#x17a;" horiz-adv-x="946" 
d="M66 0l18 115l737 811h-581l22 139h782l-20 -117l-733 -811h608l-22 -137h-811zM559 1194l189 291h184l-232 -291h-141z" />
    <glyph glyph-name="Zdotaccent" unicode="&#x17b;" horiz-adv-x="1216" 
d="M72 0l20 121l1032 1163h-811l25 150h1032l-20 -123l-1033 -1161h842l-24 -150h-1063zM776 1642q0 52 38.5 89.5t90.5 37.5q42 0 69 -27t27 -69q0 -52 -40 -89.5t-93 -37.5q-41 0 -66.5 27t-25.5 69z" />
    <glyph glyph-name="zdotaccent" unicode="&#x17c;" horiz-adv-x="946" 
d="M66 0l18 115l737 811h-581l22 139h782l-20 -117l-733 -811h608l-22 -137h-811zM588 1323q0 52 38.5 89.5t90.5 37.5q42 0 69 -27t27 -69q0 -52 -40 -89.5t-93 -37.5q-41 0 -66.5 27t-25.5 69z" />
    <glyph glyph-name="Zcaron" unicode="&#x17d;" horiz-adv-x="1216" 
d="M72 0l20 121l1032 1163h-811l25 150h1032l-20 -123l-1033 -1161h842l-24 -150h-1063zM874 1632l156 168h156l-238 -266h-172l-147 266h153z" />
    <glyph glyph-name="zcaron" unicode="&#x17e;" horiz-adv-x="946" 
d="M66 0l18 115l737 811h-581l22 139h782l-20 -117l-733 -811h608l-22 -137h-811zM690 1315l156 168h155l-237 -266h-172l-148 266h154z" />
    <glyph glyph-name="florin" unicode="&#x192;" horiz-adv-x="931" 
d="M524 719l-108 -658q-13 -79 -26.5 -134t-42.5 -120.5t-67.5 -105.5t-102 -67t-146.5 -27q-27 0 -57 3t-46 6l-16 3l25 139q45 -10 94 -10q94 0 145.5 61.5t75.5 210.5l117 699h-148v137h166l43 252q16 95 53.5 164t89.5 106.5t107.5 54.5t118.5 17q28 0 57.5 -3t45.5 -6
l16 -3l-21 -140q-47 11 -96 11q-90 0 -142 -52.5t-73 -179.5l-35 -221h211v-137h-238z" />
    <glyph glyph-name="Aringacute" unicode="&#x1fa;" horiz-adv-x="1290" 
d="M1006 465h-560l-249 -465h-172l743 1372q-55 42 -55 123q0 87 63 146t152 59q73 0 116 -41.5t43 -108.5q0 -56 -29 -101.5t-77 -74.5l285 -1374h-166zM981 608l-125 643l-336 -643h461zM868 1753l195 291h178l-231 -291h-142zM815 1507q0 -33 18.5 -52t51.5 -19
q45 0 72.5 28.5t27.5 73.5q0 32 -19 51t-55 19q-41 0 -68.5 -29t-27.5 -72z" />
    <glyph glyph-name="aringacute" unicode="&#x1fb;" horiz-adv-x="1044" 
d="M119 279q0 112 63 203.5t171.5 143.5t238.5 52q94 0 164 -29t100 -67l23 131q19 111 -40.5 173t-179.5 62q-146 0 -325 -94l-47 123q199 115 403 115q200 0 289 -107t59 -283l-116 -702h-140l-4 90q-123 -117 -307 -117q-157 0 -254.5 86t-97.5 220zM287 301
q0 -84 62.5 -138t170.5 -54q130 0 217.5 71.5t87.5 179.5q0 86 -63 137.5t-170 51.5q-132 0 -218.5 -72t-86.5 -176zM713 1581l188 291h184l-231 -291h-141zM561 1317q0 87 63 146t152 59q73 0 116.5 -41.5t43.5 -108.5q0 -87 -63.5 -147t-153.5 -60q-71 0 -114.5 42.5
t-43.5 109.5zM662 1329q0 -33 19 -52.5t52 -19.5q45 0 73 29t28 74q0 32 -19 51t-55 19q-41 0 -69.5 -29t-28.5 -72z" />
    <glyph glyph-name="AEacute" unicode="&#x1fc;" horiz-adv-x="1660" 
d="M16 0l961 1434h795l-25 -152h-514l-80 -477h449l-25 -150h-449l-86 -505h535l-25 -150h-700l78 465h-426l-305 -465h-183zM1036 1282l-440 -674h358l113 674h-31zM1174 1524l188 291h184l-231 -291h-141z" />
    <glyph glyph-name="aeacute" unicode="&#x1fd;" horiz-adv-x="1841" 
d="M287 301q0 -84 62.5 -138t170.5 -54q129 0 215 72t86 181q0 85 -61.5 136t-167.5 51q-132 0 -218.5 -72t-86.5 -176zM1032 618h682q19 159 -63 246.5t-221 87.5q-87 0 -167 -38t-142.5 -115t-88.5 -181zM1296 -27q-150 0 -256.5 59t-152.5 169q-54 -95 -161 -161.5
t-255 -66.5q-157 0 -254.5 86t-97.5 220q0 112 63 203.5t171.5 143.5t238.5 52q94 0 164 -29t100 -67l23 131q19 111 -40.5 173t-179.5 62q-146 0 -325 -94l-47 123q199 115 411 115q142 0 222.5 -54.5t101.5 -152.5q85 99 197 153t233 54q232 0 344 -151.5t72 -393.5
l-8 -49h-854q-29 -176 59.5 -278.5t257.5 -102.5q213 0 358 166l99 -80q-69 -91 -194.5 -160.5t-289.5 -69.5zM989 1194l189 291h184l-232 -291h-141z" />
    <glyph glyph-name="Oslashacute" unicode="&#x1fe;" horiz-adv-x="1617" 
d="M186 604q0 175 71 334.5t188.5 273t277 181t330.5 67.5q223 0 383 -125l131 138l90 -82l-133 -140q147 -174 147 -426q0 -139 -45 -269.5t-127 -235t-189.5 -183.5t-238.5 -121.5t-268 -42.5q-228 0 -383 121l-129 -135l-90 82l131 137q-146 169 -146 426zM360 625
q0 -182 97 -316l860 901q-126 95 -289 95q-132 0 -254.5 -53t-213.5 -143.5t-145.5 -217t-54.5 -266.5zM1497 807q0 183 -96 315l-860 -901q122 -92 290 -92q175 0 328 88.5t245.5 245.5t92.5 344zM963 1524l188 291h184l-231 -291h-141z" />
    <glyph glyph-name="oslashacute" unicode="&#x1ff;" horiz-adv-x="1247" 
d="M147 446q0 178 91.5 327.5t243 234t325.5 84.5q168 0 287 -86l96 100l82 -76l-96 -102q102 -127 102 -312q0 -176 -90.5 -324.5t-242 -233.5t-327.5 -85q-158 0 -276 78l-96 -100l-82 74l94 100q-111 126 -111 321zM315 465q0 -124 62 -215l602 633q-83 61 -199 61
q-127 0 -234 -64t-169 -174t-62 -241zM1112 598q0 117 -57 205l-598 -631q79 -51 186 -51q194 0 331.5 138.5t137.5 338.5zM723 1194l188 291h185l-232 -291h-141z" />
    <glyph glyph-name="Scommaaccent" unicode="&#x218;" horiz-adv-x="1036" 
d="M119 289l151 61q8 -45 26 -82t49 -70.5t82.5 -52t119.5 -18.5q131 0 217 74.5t86 197.5q0 61 -31 111t-80 85t-109 68t-119.5 68.5t-108.5 77.5t-80 104.5t-31 139.5q0 175 131 291t340 116q90 0 161 -28.5t111.5 -73.5t62 -87.5t29.5 -84.5l-147 -58q-58 181 -240 181
q-127 0 -203.5 -71.5t-76.5 -172.5q0 -44 19.5 -82.5t52 -68.5t74.5 -58t89 -54.5t93.5 -54.5t88.5 -61.5t74.5 -71t52 -88t19.5 -108.5q0 -192 -132.5 -318.5t-352.5 -126.5q-99 0 -178.5 29.5t-127.5 78t-75.5 100.5t-36.5 108zM383 -190q0 50 37 86t88 36q44 0 70 -27.5
t26 -72.5q0 -169 -201 -317l-59 73q100 72 119 131q-39 3 -59.5 29.5t-20.5 61.5z" />
    <glyph glyph-name="scommaaccent" unicode="&#x219;" horiz-adv-x="854" 
d="M92 201l121 69q68 -159 244 -159q92 0 159.5 52t67.5 138q0 42 -25 76.5t-65 59t-88.5 48t-97.5 50.5t-89 59.5t-65 81t-25 108.5q0 139 110.5 223.5t274.5 84.5q70 0 128 -20.5t93.5 -53t56.5 -66t28 -65.5l-129 -68q-9 26 -21 46t-34 43t-58.5 35.5t-85.5 12.5
q-86 0 -144.5 -44t-58.5 -119q0 -41 25 -75.5t65.5 -60t89.5 -50.5t97.5 -53.5t89 -61.5t65.5 -81.5t25 -107.5q0 -152 -110.5 -241t-297.5 -89q-76 0 -138 21t-102 57t-64.5 72t-41.5 78zM301 -190q0 50 37 86t88 36q44 0 70 -27.5t26 -72.5q0 -169 -200 -317l-60 73
q100 72 119 131q-39 3 -59.5 29.5t-20.5 61.5z" />
    <glyph glyph-name="uni021A" unicode="&#x21a;" horiz-adv-x="1046" 
d="M430 0l215 1282h-387l25 152h938l-25 -152h-385l-215 -1282h-166zM350 -190q0 50 37 86t88 36q44 0 70 -27.5t26 -72.5q0 -169 -200 -317l-60 73q100 72 119 131q-39 3 -59.5 29.5t-20.5 61.5z" />
    <glyph glyph-name="uni021B" unicode="&#x21b;" horiz-adv-x="604" 
d="M334 1065l39 223h157l-38 -223h233l-23 -137h-233l-92 -549q-24 -144 10.5 -195t136.5 -51l54 4l-25 -145q-43 -6 -98 -6q-147 0 -209 89.5t-33 268.5l94 584h-125l23 137h129zM211 -190q0 50 37 86t88 36q44 0 70 -27.5t26 -72.5q0 -169 -201 -317l-59 73
q100 72 119 131q-39 3 -59.5 29.5t-20.5 61.5z" />
    <glyph glyph-name="dotlessj" unicode="&#x237;" 
d="M133 -31l184 1096h162l-184 -1100q-16 -98 -53.5 -169t-91 -111t-114 -58t-132.5 -18l-56 4l23 139q27 -2 45 -2q91 0 144.5 53t72.5 166z" />
    <glyph glyph-name="circumflex" unicode="&#x2c6;" horiz-adv-x="923" 
d="M791 1217l-95 167l-153 -167h-158l238 266h172l147 -266h-151z" />
    <glyph glyph-name="caron" unicode="&#x2c7;" horiz-adv-x="923" 
d="M676 1315l155 168h156l-237 -266h-172l-148 266h154z" />
    <glyph glyph-name="breve" unicode="&#x2d8;" horiz-adv-x="923" 
d="M664 1202q-124 0 -181 73t-37 185h129q-11 -65 14 -105t93 -40q66 0 103.5 40t48.5 105h133q-19 -118 -98 -188t-205 -70z" />
    <glyph glyph-name="dotaccent" unicode="&#x2d9;" horiz-adv-x="923" 
d="M573 1323q0 52 38.5 89.5t90.5 37.5q42 0 69.5 -27t27.5 -69q0 -52 -40 -89.5t-93 -37.5q-41 0 -67 27t-26 69z" />
    <glyph glyph-name="ring" unicode="&#x2da;" horiz-adv-x="923" 
d="M502 1333q0 87 63 146t152 59q73 0 116.5 -41t43.5 -108q0 -87 -64 -147t-154 -60q-71 0 -114 42t-43 109zM602 1346q0 -33 19.5 -52.5t52.5 -19.5q45 0 72.5 28.5t27.5 73.5q0 32 -19 51t-55 19q-41 0 -69.5 -28.5t-28.5 -71.5z" />
    <glyph glyph-name="ogonek" unicode="&#x2db;" horiz-adv-x="923" 
d="M279 -236q0 81 60 145.5t130 90.5h137q-19 -6 -45 -21t-56 -38t-50.5 -56.5t-20.5 -68.5q0 -42 31 -63t78 -21l-21 -127q-16 -4 -49 -4q-80 0 -137 42.5t-57 120.5z" />
    <glyph glyph-name="tilde" unicode="&#x2dc;" horiz-adv-x="923" 
d="M799 1231q-45 0 -89 23t-83 46t-72 23t-57 -24t-33 -66h-121q17 97 81 156t150 59q44 0 88.5 -22.5t83 -45t68.5 -22.5q34 0 58.5 24.5t33.5 65.5h117q-17 -98 -78.5 -157.5t-146.5 -59.5z" />
    <glyph glyph-name="hungarumlaut" unicode="&#x2dd;" horiz-adv-x="935" 
d="M639 1194l195 291h170l-232 -291h-133zM381 1194l194 291h170l-231 -291h-133z" />
    <glyph glyph-name="Wgrave" unicode="&#x1e80;" horiz-adv-x="1929" 
d="M1313 0l-150 1190l-547 -1190h-184l-170 1434h176l127 -1223l553 1223h166l150 -1223l534 1223h178l-647 -1434h-186zM1184 1815l98 -291h-137l-135 291h174z" />
    <glyph glyph-name="wgrave" unicode="&#x1e81;" horiz-adv-x="1671" 
d="M1118 0l-141 846l-426 -846h-178l-180 1065h174l131 -877q5 7 434 877h162l137 -877l428 877h176l-539 -1065h-178zM1016 1485l98 -291h-137l-135 291h174z" />
    <glyph glyph-name="Wacute" unicode="&#x1e82;" horiz-adv-x="1839" 
d="M1313 0l-150 1190l-547 -1190h-184l-170 1434h176l127 -1223l553 1223h166l150 -1223l534 1223h178l-647 -1434h-186zM1124 1524l189 291h184l-231 -291h-142z" />
    <glyph glyph-name="wacute" unicode="&#x1e83;" horiz-adv-x="1671" 
d="M1118 0l-141 846l-426 -846h-178l-180 1065h174l131 -877q5 7 434 877h162l137 -877l428 877h176l-539 -1065h-178zM963 1194l188 291h184l-231 -291h-141z" />
    <glyph glyph-name="Wdieresis" unicode="&#x1e84;" horiz-adv-x="1929" 
d="M1313 0l-150 1190l-547 -1190h-184l-170 1434h176l127 -1223l553 1223h166l150 -1223l534 1223h178l-647 -1434h-186zM971 1649q0 46 36 81t83 35q39 0 63.5 -25.5t24.5 -62.5q0 -47 -35 -81.5t-84 -34.5q-38 0 -63 25.5t-25 62.5zM1307 1649q0 46 34.5 81t83.5 35
q38 0 63 -26t25 -62q0 -47 -35.5 -81.5t-82.5 -34.5q-39 0 -63.5 25.5t-24.5 62.5z" />
    <glyph glyph-name="wdieresis" unicode="&#x1e85;" horiz-adv-x="1671" 
d="M1118 0l-141 846l-426 -846h-178l-180 1065h174l131 -877q5 7 434 877h162l137 -877l428 877h176l-539 -1065h-178zM786 1323q0 46 36 81.5t83 35.5q39 0 63.5 -25.5t24.5 -62.5q0 -48 -35 -82.5t-84 -34.5q-38 0 -63 25.5t-25 62.5zM1122 1323q0 46 35 81.5t84 35.5
q38 0 63 -26t25 -62q0 -47 -36 -82t-83 -35q-39 0 -63.5 25.5t-24.5 62.5z" />
    <glyph glyph-name="Ygrave" unicode="&#x1ef2;" horiz-adv-x="1089" 
d="M463 0l115 672l-318 762h174l242 -607l446 607h189l-572 -762l-112 -672h-164zM776 1815l98 -291h-137l-135 291h174z" />
    <glyph glyph-name="ygrave" unicode="&#x1ef3;" horiz-adv-x="1040" 
d="M393 -367h-168l221 377l-256 1055h172l193 -862l473 862h176zM739 1485l99 -291h-138l-135 291h174z" />
    <glyph glyph-name="endash" unicode="&#x2013;" horiz-adv-x="1228" 
d="M176 547l23 139h1061l-23 -139h-1061z" />
    <glyph glyph-name="emdash" unicode="&#x2014;" horiz-adv-x="1773" 
d="M176 547l23 139h1603l-22 -139h-1604z" />
    <glyph glyph-name="quoteleft" unicode="&#x2018;" horiz-adv-x="378" 
d="M494 1145q0 -52 -40 -90.5t-94 -38.5q-45 0 -73.5 27.5t-28.5 74.5q0 182 215 348l72 -73q-37 -26 -79 -69.5t-54 -80.5q38 -6 60 -33.5t22 -64.5z" />
    <glyph glyph-name="quoteright" unicode="&#x2019;" horiz-adv-x="378" 
d="M299 1337q0 52 39.5 90.5t93.5 38.5q45 0 74 -28t29 -74q0 -181 -216 -348l-71 74q38 26 79.5 69t53.5 80q-38 6 -60 33.5t-22 64.5z" />
    <glyph glyph-name="quotesinglbase" unicode="&#x201a;" horiz-adv-x="434" 
d="M115 74q0 52 39.5 90.5t93.5 38.5q45 0 73.5 -28t28.5 -75q0 -182 -215 -348l-63 74q36 25 73.5 66.5t51.5 82.5q-38 6 -60 34t-22 65z" />
    <glyph glyph-name="quotedblleft" unicode="&#x201c;" horiz-adv-x="681" 
d="M494 1145q0 -52 -40 -90.5t-94 -38.5q-45 0 -73.5 27.5t-28.5 74.5q0 182 215 348l72 -73q-37 -26 -79 -69.5t-54 -80.5q38 -6 60 -33.5t22 -64.5zM797 1145q0 -52 -39.5 -90.5t-93.5 -38.5q-45 0 -74 28t-29 74q0 182 215 348l72 -73q-37 -26 -79 -69.5t-54 -80.5
q38 -6 60 -33.5t22 -64.5z" />
    <glyph glyph-name="quotedblright" unicode="&#x201d;" horiz-adv-x="681" 
d="M602 1337q0 52 39.5 90.5t93.5 38.5q45 0 74 -28t29 -74q0 -182 -215 -348l-72 74q38 26 79.5 69t53.5 80q-38 6 -60 33.5t-22 64.5zM299 1337q0 52 39.5 90.5t93.5 38.5q45 0 74 -28t29 -74q0 -181 -216 -348l-71 74q38 26 79.5 69t53.5 80q-38 6 -60 33.5t-22 64.5z
" />
    <glyph glyph-name="quotedblbase" unicode="&#x201e;" horiz-adv-x="681" 
d="M393 72q0 53 38.5 92t92.5 39q46 0 74.5 -28t28.5 -75q0 -182 -215 -348l-64 74q36 25 73.5 66.5t51.5 82.5q-38 6 -59 33.5t-21 63.5zM90 72q0 53 38.5 92t92.5 39q46 0 74.5 -28t28.5 -75q0 -182 -215 -348l-64 74q36 25 73.5 66.5t51.5 82.5q-38 6 -59 33.5t-21 63.5z
" />
    <glyph glyph-name="dagger" unicode="&#x2020;" horiz-adv-x="774" 
d="M303 0l156 934h-236l25 143h235l60 357h162l-60 -357h240l-25 -143h-239l-156 -934h-162z" />
    <glyph glyph-name="daggerdbl" unicode="&#x2021;" horiz-adv-x="804" 
d="M150 387l24 143h236l61 371h-235l24 143h236l65 390h160l-66 -390h242l-25 -143h-241l-62 -371h242l-25 -143h-241l-66 -387h-160l66 387h-235z" />
    <glyph glyph-name="bullet" unicode="&#x2022;" horiz-adv-x="831" 
d="M463 283q-134 0 -216.5 86t-82.5 215q0 164 123.5 283.5t292.5 119.5q133 0 216 -86.5t83 -214.5q0 -164 -123.5 -283.5t-292.5 -119.5z" />
    <glyph glyph-name="perthousand" unicode="&#x2030;" horiz-adv-x="2291" 
d="M1614 240q0 146 111.5 253t261.5 107q124 0 200 -77t76 -193q0 -147 -113 -252t-266 -105q-121 0 -195.5 75.5t-74.5 191.5zM1753 256q0 -68 42.5 -113t111.5 -45q91 0 153 63t62 152q0 69 -43 113.5t-115 44.5q-87 0 -149 -63.5t-62 -151.5zM143 0l1332 1434h172
l-1334 -1434h-170zM537 834q-120 0 -194.5 76t-74.5 190q0 146 110 253t261 107q124 0 200 -77t76 -193q0 -146 -112 -251t-266 -105zM559 961q92 0 153.5 62.5t61.5 150.5q0 69 -41.5 114t-111.5 45q-89 0 -151 -64.5t-62 -152.5q0 -68 41 -111.5t110 -43.5zM872 240
q0 146 110.5 253t262.5 107q123 0 199 -77t76 -193q0 -147 -112.5 -252t-264.5 -105q-121 0 -196 75.5t-75 191.5zM1012 256q0 -69 41 -113.5t110 -44.5q92 0 153.5 63t61.5 152q0 69 -41.5 113.5t-113.5 44.5q-89 0 -150 -63.5t-61 -151.5z" />
    <glyph glyph-name="guilsinglleft" unicode="&#x2039;" horiz-adv-x="552" 
d="M369 223l-199 375l313 377h162l-317 -377l190 -375h-149z" />
    <glyph glyph-name="guilsinglright" unicode="&#x203a;" horiz-adv-x="552" 
d="M389 975l195 -377l-320 -375h-162l324 375l-188 377h151z" />
    <glyph glyph-name="fraction" unicode="&#x2044;" horiz-adv-x="860" 
d="M96 -84h-157l1065 1602h157z" />
    <glyph glyph-name="Euro" unicode="&#x20ac;" horiz-adv-x="1284" 
d="M143 510l21 125h108q8 89 29 180h-106l20 125h129q95 229 297 374.5t440 145.5q224 0 342 -88l-92 -135q-106 70 -254 70q-176 0 -324 -100.5t-227 -266.5h568l-31 -125h-586q-28 -96 -31 -180h572l-31 -125h-530q12 -162 126.5 -270.5t295.5 -108.5q91 0 172 24.5
t133 55.5l49 -133q-52 -38 -157.5 -71.5t-219.5 -33.5q-129 0 -236 42t-178.5 116t-114.5 170.5t-53 208.5h-131z" />
    <glyph glyph-name="numero" unicode="&#x2116;" horiz-adv-x="2293" 
d="M1774 1059q0 -83 50.5 -138t139.5 -55q114 0 190 77.5t76 184.5q0 85 -50.5 141t-139.5 56q-114 0 -190 -79.5t-76 -186.5zM1632 1040q0 109 57 206t156.5 155.5t216.5 58.5q139 0 224.5 -90t85.5 -223q0 -169 -126.5 -292.5t-303.5 -123.5q-141 0 -225.5 88t-84.5 221z
M160 0l239 1434h166l594 -1172l197 1172h164l-240 -1434h-164l-596 1167l-194 -1167h-166zM1561 467l26 151h670l-27 -151h-669z" />
    <glyph glyph-name="trademark" unicode="&#x2122;" horiz-adv-x="1505" 
d="M367 696l104 623h-190l18 115h504l-19 -115h-190l-105 -623h-122zM1237 780h-119l-143 447l-88 -531h-119l123 738h149l162 -512l332 512h147l-122 -738h-117l88 531z" />
    <glyph glyph-name="minus" unicode="&#x2212;" horiz-adv-x="1126" 
d="M178 569l23 138h962l-22 -138h-963z" />
    <glyph glyph-name="commaaccent" unicode="&#xf6c3;" horiz-adv-x="471" 
d="M98 -190q0 50 37 86t88 36q44 0 70 -27.5t26 -72.5q0 -169 -200 -317l-60 73q100 72 119 131q-39 3 -59.5 29.5t-20.5 61.5z" />
    <glyph glyph-name="hyphen.caps" horiz-adv-x="692" 
d="M193 653l24 152h522l-24 -152h-522z" />
    <glyph glyph-name="endash.caps" horiz-adv-x="1228" 
d="M195 666l22 139h1061l-23 -139h-1060z" />
    <glyph glyph-name="emdash.caps" horiz-adv-x="1773" 
d="M195 666l22 139h1604l-23 -139h-1603z" />
    <glyph glyph-name="guillemotleft.caps" horiz-adv-x="876" 
d="M516 731l315 377h162l-319 -377l192 -375h-149zM391 356l-198 375l313 377h162l-318 -377l191 -375h-150z" />
    <glyph glyph-name="guillemotright.caps" horiz-adv-x="876" 
d="M412 1108l194 -377l-319 -375h-162l324 375l-189 377h152zM930 731l-318 -375h-161l323 375l-188 377h151z" />
    <glyph glyph-name="guilsinglleft.caps" horiz-adv-x="552" 
d="M391 356l-198 375l313 377h162l-318 -377l191 -375h-150z" />
    <glyph glyph-name="guilsinglright.caps" horiz-adv-x="552" 
d="M412 1108l194 -377l-319 -375h-162l324 375l-189 377h152z" />
    <glyph glyph-name="parenleft.caps" horiz-adv-x="612" 
d="M520 1317l-203 -1213q-28 -180 140 -180l-25 -141q-161 0 -232 82t-44 248l200 1196q57 329 387 329l-22 -141q-89 0 -138.5 -48.5t-62.5 -131.5z" />
    <glyph glyph-name="parenright.caps" horiz-adv-x="612" 
d="M330 104l202 1213q31 180 -139 180l25 141q333 0 276 -329l-200 -1196q-27 -166 -127 -248t-261 -82l25 141q89 0 137.5 49t61.5 131z" />
    <glyph glyph-name="bracketleft.caps" horiz-adv-x="612" 
d="M100 -217l312 1855h331l-24 -141h-170l-262 -1573h170l-25 -141h-332z" />
    <glyph glyph-name="bracketright.caps" horiz-adv-x="624" 
d="M750 1638l-312 -1855h-332l25 141h170l262 1573h-170l25 141h332z" />
    <glyph glyph-name="braceleft.caps" horiz-adv-x="698" 
d="M242 113l49 293q21 123 -8 177t-103 54l25 147q75 0 121 54t67 178l49 293q57 329 387 329l-24 -141q-170 0 -201 -180l-55 -338q-12 -68 -36.5 -121.5t-54 -82.5t-51.5 -43.5t-40 -20.5q12 -4 25 -13.5t31 -30t27.5 -50t15 -74t-6.5 -101.5l-58 -338
q-14 -83 19.5 -131.5t122.5 -48.5l-25 -141q-330 0 -276 330z" />
    <glyph glyph-name="bar.caps" horiz-adv-x="516" 
d="M123 -344l340 2025h155l-339 -2025h-156z" />
    <glyph glyph-name="braceright.caps" horiz-adv-x="698" 
d="M543 406l-49 -293q-57 -330 -388 -330l25 141q168 0 199 180l57 338q9 55 28 101.5t39.5 74.5t44 49t40 30.5t30.5 13.5q-12 5 -25 14t-31 29.5t-27.5 49.5t-15 73.5t6.5 101.5l55 338q31 180 -139 180l25 141q333 0 276 -329l-49 -293q-21 -123 7.5 -177.5t103.5 -54.5
l-25 -147q-74 0 -120.5 -54t-67.5 -177z" />
    <glyph glyph-name="slash.caps" horiz-adv-x="872" 
d="M20 -166l916 1757h154l-916 -1757h-154z" />
    <glyph glyph-name="backslash.caps" horiz-adv-x="872" 
d="M467 1591l326 -1757h-150l-326 1757h150z" />
    <glyph glyph-name="exclamdown.caps" horiz-adv-x="528" 
d="M516 1073l-166 -1073h-170l195 1073h141zM608 1360q0 -52 -42 -90.5t-95 -38.5q-42 0 -70 28t-28 70q0 53 41 92t94 39q43 0 71.5 -28.5t28.5 -71.5z" />
    <glyph glyph-name="questiondown.caps" horiz-adv-x="956" 
d="M786 1073l-16 -96q-11 -64 -42.5 -119t-73 -96t-89.5 -79t-94 -75.5t-83 -77t-60 -92.5t-23 -114q0 -90 55.5 -145.5t155.5 -55.5q54 0 99 15.5t77.5 43.5t52.5 52.5t41 58.5l132 -57q-138 -263 -424 -263q-156 0 -258.5 92t-102.5 232q0 78 24 145.5t63.5 116.5t87.5 92
t98 80.5t92.5 74.5t73 82.5t38.5 94.5l15 90h161zM866 1360q0 -53 -40 -91t-95 -38q-44 0 -72 28t-28 70q0 54 38 92.5t93 38.5q44 0 74 -28.5t30 -71.5z" />
    <glyph glyph-name="periodcentered.caps" horiz-adv-x="462" 
d="M236 717q0 53 40 91t95 38q44 0 72 -28t28 -70q0 -54 -38 -93t-93 -39q-44 0 -74 29t-30 72z" />
    <glyph glyph-name="bullet.caps" horiz-adv-x="831" 
d="M479 373q-134 0 -216.5 86t-82.5 215q0 164 123.5 283.5t292.5 119.5q133 0 216 -86.5t83 -214.5q0 -164 -123.5 -283.5t-292.5 -119.5z" />
    <glyph glyph-name="zero.tab" horiz-adv-x="1134" 
d="M1149 717q-24 -147 -55.5 -259t-78.5 -205.5t-109 -153.5t-146.5 -93t-190.5 -33q-132 0 -215.5 50t-119.5 145.5t-38 233.5t29 315q29 185 71.5 316.5t110 230.5t166.5 147.5t232 48.5q132 0 215 -50t119 -145t38 -233t-28 -315zM393 717q-13 -81 -20.5 -140t-11 -124
t2 -110t20.5 -88t42 -69t69 -41.5t99 -15.5t104 15.5t81.5 41.5t63.5 69.5t48.5 88.5t37 110.5t28.5 123.5t24 139q10 63 15.5 109t10.5 100t4.5 93t-4.5 81t-15 71t-28.5 56t-43 43t-61 25.5t-79.5 9.5q-65 0 -117 -19.5t-90.5 -59.5t-66.5 -88.5t-49.5 -120.5
t-35.5 -139.5t-28 -160.5z" />
    <glyph glyph-name="one.tab" horiz-adv-x="1134" 
d="M954 0h-727l25 152h291l186 1112l-313 -115l-37 133l409 152h136l-215 -1282h270z" />
    <glyph glyph-name="two.tab" horiz-adv-x="1134" 
d="M131 0l16 88q16 84 71 165t130.5 148t163 132.5t172 130.5t153.5 130t111.5 142.5t42.5 157.5q0 94 -57.5 152.5t-163.5 58.5q-208 0 -301 -222l-154 41q18 45 42 86.5t66.5 88.5t93 81.5t124 57t158.5 22.5q174 0 270 -101t96 -255q0 -76 -26 -148t-70.5 -132.5
t-102 -118t-122.5 -108t-130.5 -98t-127 -93t-111.5 -87.5t-84.5 -86t-44.5 -86h680l-25 -147h-870z" />
    <glyph glyph-name="three.tab" horiz-adv-x="1134" 
d="M1206 1434l-26 -156l-449 -442q62 0 123.5 -20.5t116.5 -60.5t89 -110.5t34 -159.5q0 -141 -74 -259t-197 -184.5t-264 -66.5q-82 0 -148.5 19t-109.5 49.5t-73 73t-44.5 84t-19.5 86.5l149 51q15 -95 79.5 -153t189.5 -58q139 0 239.5 95.5t100.5 234.5q0 237 -281 237
h-125l23 133l452 457h-614l26 150h803z" />
    <glyph glyph-name="four.tab" horiz-adv-x="1134" 
d="M119 362l20 125l811 947h178l-155 -924h188l-24 -148h-189l-61 -362h-164l61 362h-665zM328 510h481l119 709z" />
    <glyph glyph-name="five.tab" horiz-adv-x="1134" 
d="M584 127q151 0 248.5 109.5t97.5 263.5q0 117 -66.5 191.5t-187.5 74.5q-78 0 -136.5 -25t-117.5 -69l-135 24l155 738h732l-27 -152h-582l-94 -442q116 69 252 69q173 0 276 -106t103 -275q0 -149 -69 -276.5t-192.5 -203t-273.5 -75.5q-99 0 -176 28.5t-123 76
t-71.5 100t-32.5 109.5l151 51q13 -95 78.5 -153t190.5 -58z" />
    <glyph glyph-name="six.tab" horiz-adv-x="1134" 
d="M602 129q149 0 245.5 107.5t96.5 285.5q0 114 -60 185t-175 71q-101 0 -189 -53.5t-149 -144.5q-15 -99 -15 -168q0 -283 246 -283zM885 1460q176 0 305 -102l-96 -127q-95 74 -232 74q-103 0 -188 -46.5t-141.5 -126t-92 -172t-51.5 -196.5q58 66 155.5 116t211.5 50
q172 0 265 -104.5t93 -274.5q0 -257 -144.5 -417.5t-385.5 -160.5q-104 0 -181.5 35.5t-123 99t-67.5 144t-22 178.5q0 91 8.5 182.5t30.5 195t56 195t89.5 176.5t125.5 146.5t169 98t216 36.5z" />
    <glyph glyph-name="seven.tab" horiz-adv-x="1134" 
d="M377 1434h880l-20 -127l-725 -1307h-178l717 1282h-699z" />
    <glyph glyph-name="eight.tab" horiz-adv-x="1134" 
d="M561 -27q-184 0 -294.5 100t-110.5 265q0 74 22.5 140t55.5 111.5t77 83t81.5 58.5t74.5 35q-57 31 -103.5 101t-46.5 165q0 184 141.5 306t344.5 122q165 0 268 -90t103 -237q0 -72 -26 -136.5t-67.5 -109t-81.5 -74.5t-79 -47q71 -32 129.5 -110t58.5 -197
q0 -139 -72 -250.5t-197 -173.5t-278 -62zM678 682q-144 0 -247 -89t-103 -231q0 -101 67.5 -169t190.5 -68q157 0 253.5 95.5t96.5 225.5q0 109 -71 172.5t-187 63.5zM705 834q122 0 210.5 81.5t88.5 190.5q0 89 -58 145t-164 56q-134 0 -216.5 -79.5t-82.5 -187.5
q0 -88 62 -147t160 -59z" />
    <glyph glyph-name="nine.tab" horiz-adv-x="1134" 
d="M772 1305q-149 0 -245.5 -108t-96.5 -286q0 -114 60.5 -185t175.5 -71q101 0 189 54t149 145q14 92 14 168q0 283 -246 283zM489 -27q-175 0 -305 103l97 127q95 -74 231 -74q103 0 188 46.5t141.5 126t92 172t51.5 196.5q-58 -66 -155.5 -116t-211.5 -50
q-172 0 -265 104.5t-93 274.5q0 257 145 417t386 160q104 0 181.5 -35.5t122.5 -99t67 -143.5t22 -178q0 -91 -8.5 -182.5t-30.5 -195t-56 -195t-89.5 -177t-125.5 -147t-169 -98t-216 -36.5z" />
    </font>
</defs>
</svg>
