<?xml version="1.0" standalone="no"?>
<!DOCTYPE svg PUBLIC "-//W3C//DTD SVG 1.1//EN" "http://www.w3.org/Graphics/SVG/1.1/DTD/svg11.dtd" >
<svg xmlns="http://www.w3.org/2000/svg" xmlns:xlink="http://www.w3.org/1999/xlink" version="1.1">
<metadata>
Created by FontForge 20170731 at Tue Oct  5 11:52:16 2021
 By Aleksey,,,
Copyright (c) 2014 by atipo. All rights reserved.
</metadata>
<defs>
<font id="Geomanist-Medium" horiz-adv-x="505" >
  <font-face 
    font-family="Geomanist"
    font-weight="500"
    font-stretch="normal"
    units-per-em="2048"
    panose-1="2 0 6 3 0 0 0 2 0 4"
    ascent="1536"
    descent="-512"
    x-height="1071"
    cap-height="1434"
    bbox="-104 -596 2382 2075"
    underline-thickness="102"
    underline-position="-307"
    unicode-range="U+0020-F6C3"
  />
<missing-glyph horiz-adv-x="1040" 
d="M8 0v1434h1024v-1434h-1024zM520 809l348 522h-696zM582 717l348 -522v1044zM111 195l348 522l-348 522v-1044zM172 102h696l-348 523z" />
    <glyph glyph-name="ellipsis" unicode="&#x2e;&#x2e;&#x2e;" horiz-adv-x="1574" 
d="M250 -27q-73 0 -123.5 50.5t-50.5 121.5q0 73 50.5 125t123.5 52t123.5 -52t50.5 -125q0 -71 -50.5 -121.5t-123.5 -50.5zM786 -27q-73 0 -123.5 50.5t-50.5 121.5q0 73 50.5 125t123.5 52t124 -52t51 -125q0 -71 -51 -121.5t-124 -50.5zM1325 -27q-73 0 -123.5 50.5
t-50.5 121.5q0 73 50.5 125t123.5 52t123.5 -52t50.5 -125q0 -71 -50.5 -121.5t-123.5 -50.5z" />
    <glyph glyph-name=".notdef" horiz-adv-x="1040" 
d="M8 0v1434h1024v-1434h-1024zM520 809l348 522h-696zM582 717l348 -522v1044zM111 195l348 522l-348 522v-1044zM172 102h696l-348 523z" />
    <glyph glyph-name=".null" horiz-adv-x="0" 
 />
    <glyph glyph-name="nonmarkingreturn" horiz-adv-x="682" 
 />
    <glyph glyph-name="space" unicode=" " horiz-adv-x="507" 
 />
    <glyph glyph-name="exclam" unicode="!" horiz-adv-x="598" 
d="M172 408l-22 1026h299l-23 -1026h-254zM299 -27q-73 0 -123.5 50.5t-50.5 121.5q0 73 50.5 125t123.5 52t123.5 -52t50.5 -125q0 -71 -50.5 -121.5t-123.5 -50.5z" />
    <glyph glyph-name="quotedbl" unicode="&#x22;" horiz-adv-x="757" 
d="M96 946l-10 488h229l-10 -488h-209zM451 946l-11 488h230l-13 -488h-206z" />
    <glyph glyph-name="numbersign" unicode="#" horiz-adv-x="1349" 
d="M176 0l76 365h-199l43 213h201l55 274h-198l43 215h200l78 367h236l-76 -367h227l76 367h238l-76 -367h196l-43 -215h-198l-56 -274h197l-43 -213h-199l-75 -365h-238l76 365h-228l-75 -365h-238zM535 578h227l55 274h-227z" />
    <glyph glyph-name="dollar" unicode="$" horiz-adv-x="1067" 
d="M455 -174v151q-92 10 -167.5 46.5t-122.5 88t-75.5 98.5t-44.5 95l244 119q33 -79 95.5 -130.5t152.5 -51.5q80 0 125 39t45 108q0 39 -21 72t-57 58.5t-82.5 49t-97.5 48t-102.5 51.5t-98 63.5t-82.5 80.5t-57 106t-21 135q0 162 98.5 270t268.5 131v115h176v-117
q63 -11 118 -38t92 -59.5t67 -72t46 -72t27 -63.5l-240 -109q-14 31 -29 54t-39.5 48.5t-60.5 39.5t-80 14q-72 0 -113.5 -38.5t-41.5 -98.5q0 -48 34.5 -87t89 -68.5t121 -59t133 -67t121 -84t89 -119t34.5 -162.5q0 -166 -98 -281.5t-270 -144.5v-158h-176z" />
    <glyph glyph-name="percent" unicode="%" horiz-adv-x="1646" 
d="M143 0l1086 1434h274l-1085 -1434h-275zM754 1118q0 -143 -99.5 -242.5t-248.5 -99.5t-249 99.5t-100 242.5t100 242.5t249 99.5t248.5 -99.5t99.5 -242.5zM272 1118q0 -57 37 -97t97 -40t96.5 40t36.5 97t-36.5 97t-96.5 40t-97 -40t-37 -97zM1587 311
q0 -143 -99.5 -242.5t-248.5 -99.5t-248.5 99.5t-99.5 242.5t99.5 242.5t248.5 99.5t248.5 -99.5t99.5 -242.5zM1106 311q0 -57 36.5 -97t96.5 -40t96.5 40t36.5 97q0 58 -36.5 98t-96.5 40t-96.5 -40t-36.5 -98z" />
    <glyph glyph-name="ampersand" unicode="&#x26;" horiz-adv-x="1341" 
d="M1114 -41l-139 147q-69 -60 -169.5 -96.5t-219.5 -36.5q-247 0 -389 122.5t-142 316.5q0 130 61.5 226.5t178.5 174.5q-55 65 -87 130t-32 147q0 159 114 264.5t304 105.5q199 0 312.5 -105t113.5 -272q0 -225 -264 -385l213 -204q37 75 37 192h264q0 -231 -109 -397
l144 -150zM590 227q62 0 115.5 22t85.5 54l-328 326q-57 -28 -90 -79.5t-33 -115.5q0 -97 73.5 -152t176.5 -55zM436 1075q0 -63 39.5 -114.5t114.5 -112.5q176 104 176 227q0 69 -45.5 113.5t-122.5 44.5q-70 0 -116 -45t-46 -113z" />
    <glyph glyph-name="quotesingle" unicode="'" horiz-adv-x="407" 
d="M98 946l-10 488h229l-10 -488h-209z" />
    <glyph glyph-name="parenleft" unicode="(" horiz-adv-x="679" 
d="M373 1221v-1143q0 -174 176 -174v-244q-457 0 -457 432v1112q0 434 457 434v-243q-176 0 -176 -174z" />
    <glyph glyph-name="parenright" unicode=")" horiz-adv-x="681" 
d="M307 78v1143q0 174 -176 174v243q457 0 457 -434v-1112q0 -432 -457 -432v244q176 0 176 174z" />
    <glyph glyph-name="asterisk" unicode="*" horiz-adv-x="888" 
d="M74 1165l96 162l176 -100v207h193v-207l178 100l94 -162l-178 -100l180 -98l-96 -164l-178 102v-207h-193v207l-176 -102l-96 162l178 100z" />
    <glyph glyph-name="plus" unicode="+" horiz-adv-x="1126" 
d="M74 524v228h370v393h238v-393h371v-228h-371v-395h-238v395h-370z" />
    <glyph glyph-name="comma" unicode="," horiz-adv-x="499" 
d="M90 -190q41 27 80.5 74t46.5 91q-66 14 -103.5 62.5t-37.5 107.5q0 72 50 124.5t122 52.5q77 0 128.5 -50.5t51.5 -138.5q0 -134 -64 -253.5t-163 -192.5z" />
    <glyph glyph-name="hyphen" unicode="-" horiz-adv-x="755" 
d="M92 496v254h570v-254h-570z" />
    <glyph glyph-name="period" unicode="." horiz-adv-x="501" 
d="M250 -27q-73 0 -123.5 50.5t-50.5 121.5q0 73 50.5 125t123.5 52t123.5 -52t50.5 -125q0 -71 -50.5 -121.5t-123.5 -50.5z" />
    <glyph glyph-name="slash" unicode="/" horiz-adv-x="925" 
d="M31 -221l616 1757h248l-616 -1757h-248z" />
    <glyph glyph-name="zero" unicode="0" horiz-adv-x="1179" 
d="M1083 717q0 -377 -115.5 -560.5t-379.5 -183.5q-262 0 -378 183.5t-116 560.5q0 375 116 559t378 184q263 0 379 -183.5t116 -559.5zM387 717q0 -82 3 -141.5t10.5 -116t21.5 -94t36.5 -66t54.5 -42t75 -13.5q52 0 88.5 21t59 57t35 98t16.5 130t4 167q0 82 -3 141
t-10.5 115.5t-22 94t-36.5 66.5t-54.5 42.5t-76.5 13.5q-43 0 -75 -13.5t-54 -42.5t-36.5 -66.5t-22 -94t-10.5 -115.5t-3 -141z" />
    <glyph glyph-name="one" unicode="1" horiz-adv-x="698" 
d="M117 1098l-72 239l270 97h236v-1434h-285v1149z" />
    <glyph glyph-name="two" unicode="2" horiz-adv-x="1107" 
d="M86 0v102q0 83 35 165t90.5 150t123 133.5t135.5 125.5t123.5 116t90.5 114.5t35 111.5q0 80 -49 128t-135 48q-153 0 -203 -168l-252 74q11 47 31 92.5t58.5 95.5t88 87t125 61t164.5 24q209 0 338 -117.5t129 -312.5q0 -78 -29.5 -152.5t-78 -134t-107 -115
t-119.5 -104.5t-113.5 -93t-90.5 -90.5t-48 -88.5h602v-252h-944z" />
    <glyph glyph-name="three" unicode="3" horiz-adv-x="1107" 
d="M547 -27q-111 0 -199 33t-142.5 87.5t-86.5 112t-47 120.5l247 77q24 -73 79.5 -119t142.5 -46q90 0 145 53.5t55 142.5q0 88 -60.5 141.5t-174.5 53.5h-158v223l297 328h-518v254h848v-254l-301 -316q69 -7 132.5 -38t115 -82t82 -128.5t30.5 -169.5
q0 -208 -137.5 -340.5t-349.5 -132.5z" />
    <glyph glyph-name="four" unicode="4" horiz-adv-x="1204" 
d="M55 334v207l588 893h336v-854h168v-246h-168v-334h-285v334h-639zM352 580h342v532z" />
    <glyph glyph-name="five" unicode="5" horiz-adv-x="1107" 
d="M528 692q-97 0 -170 -78l-239 41l31 779h808v-254h-552l-13 -293q88 49 205 49q186 0 317.5 -127t131.5 -322q0 -224 -137 -369t-351 -145q-88 0 -164.5 22.5t-129 58t-93.5 83t-64.5 94t-35.5 95.5l250 77q21 -76 78 -120.5t145 -44.5q93 0 152 64t59 163q0 93 -59 160
t-169 67z" />
    <glyph glyph-name="six" unicode="6" horiz-adv-x="1150" 
d="M588 244q93 0 143.5 59.5t50.5 167.5q0 101 -51.5 163t-148.5 62q-123 0 -207 -112q0 -51 2.5 -87.5t9.5 -79t21.5 -71t37.5 -53.5t59 -37t83 -12zM668 1460q186 0 336 -94l-113 -233q-87 57 -205 57q-69 0 -122.5 -22.5t-84.5 -56t-51.5 -79.5t-28.5 -86.5t-10 -83.5
q107 92 256 92q190 0 306 -126t116 -349q0 -227 -132 -366.5t-349 -139.5q-115 0 -203 32t-144.5 88t-92 140t-50 179t-14.5 213q0 140 17 258t59 227t107.5 184.5t168 120.5t234.5 45z" />
    <glyph glyph-name="seven" unicode="7" horiz-adv-x="1044" 
d="M51 1434h946v-220l-469 -1214h-311l475 1180h-641v254z" />
    <glyph glyph-name="eight" unicode="8" horiz-adv-x="1155" 
d="M575 -27q-229 0 -365 122t-136 327q0 121 58.5 209t137.5 131q-63 40 -110 116t-47 175q0 179 127.5 293t337.5 114q209 0 336.5 -113.5t127.5 -293.5q0 -99 -47.5 -175t-111.5 -116q82 -44 140 -131.5t58 -208.5q0 -203 -139 -326t-367 -123zM578 618q-95 0 -152 -53.5
t-57 -138.5q0 -83 55.5 -136.5t153.5 -53.5q99 0 153.5 53.5t54.5 136.5q0 86 -57 139t-151 53zM578 1200q-85 0 -132 -46.5t-47 -117.5q0 -74 50 -120t129 -46q78 0 128 46.5t50 119.5q0 70 -47.5 117t-130.5 47z" />
    <glyph glyph-name="nine" unicode="9" horiz-adv-x="1150" 
d="M561 1190q-93 0 -143.5 -59.5t-50.5 -167.5q0 -101 52 -163.5t148 -62.5q122 0 207 113q0 51 -2.5 87.5t-9.5 79t-21.5 71t-37.5 53.5t-59 37t-83 12zM481 -27q-185 0 -336 95l113 233q87 -57 205 -57q69 0 122.5 22.5t84.5 55.5t51.5 79.5t28.5 86.5t10 83
q-107 -92 -256 -92q-190 0 -306 126t-116 349q0 227 132 366.5t349 139.5q143 0 243.5 -47.5t156.5 -138t80 -203.5t24 -262q0 -140 -17 -258.5t-59 -227t-107.5 -184.5t-168 -121t-234.5 -45z" />
    <glyph glyph-name="colon" unicode=":" horiz-adv-x="499" 
d="M250 -27q-73 0 -123.5 50.5t-50.5 121.5q0 73 50.5 125t123.5 52t123.5 -52t50.5 -125q0 -71 -50.5 -121.5t-123.5 -50.5zM250 700q-73 0 -123.5 50.5t-50.5 121.5q0 73 50.5 125t123.5 52t123.5 -52t50.5 -125q0 -71 -50.5 -121.5t-123.5 -50.5z" />
    <glyph glyph-name="semicolon" unicode=";" horiz-adv-x="499" 
d="M250 700q-73 0 -123.5 50.5t-50.5 121.5q0 73 50.5 125t123.5 52t123.5 -52t50.5 -125q0 -71 -50.5 -121.5t-123.5 -50.5zM90 -190q41 27 80.5 74t46.5 91q-66 14 -103.5 62.5t-37.5 107.5q0 72 50 124.5t122 52.5q77 0 128.5 -50.5t51.5 -138.5q0 -134 -64 -253.5
t-163 -192.5z" />
    <glyph glyph-name="less" unicode="&#x3c;" horiz-adv-x="1040" 
d="M92 537v204l856 387v-245l-573 -242l573 -244v-247z" />
    <glyph glyph-name="equal" unicode="=" horiz-adv-x="1126" 
d="M74 711v225h979v-225h-979zM74 322v227h979v-227h-979z" />
    <glyph glyph-name="greater" unicode="&#x3e;" horiz-adv-x="1040" 
d="M948 741v-204l-856 -387v247l574 244l-574 242v245z" />
    <glyph glyph-name="question" unicode="?" horiz-adv-x="987" 
d="M311 408v100q0 76 34 141.5t82 111.5t96 88.5t82 93t34 104.5q0 63 -46.5 108t-125.5 45q-127 0 -182 -127l-226 101q17 48 46.5 93.5t77 91t122.5 73.5t166 28q199 0 328 -111.5t129 -285.5q0 -62 -19 -117t-49 -96t-66.5 -77.5t-73 -69t-66.5 -64.5t-49 -69.5
t-19 -77.5v-84h-275zM449 -27q-73 0 -124 50.5t-51 121.5q0 73 51 125t124 52t123.5 -52t50.5 -125q0 -71 -50.5 -121.5t-123.5 -50.5z" />
    <glyph glyph-name="at" unicode="@" horiz-adv-x="1853" 
d="M1163 266q-12 -19 -31 -39t-51.5 -44.5t-81 -40t-104.5 -15.5q-171 0 -278 112t-107 291q0 175 107 289.5t270 114.5q133 0 215 -82v70h211v-486q0 -125 104 -125q70 0 112 80t42 227q0 273 -174.5 427.5t-458.5 154.5q-192 0 -341 -87.5t-228.5 -237t-79.5 -334.5
q0 -293 182 -472.5t483 -179.5q211 0 387 103l95 -152q-198 -137 -482 -137q-255 0 -455.5 105.5t-312.5 295t-112 431.5q0 184 67 343t182.5 269.5t275.5 173.5t343 63q243 0 434.5 -98.5t296.5 -270.5t105 -386q0 -234 -103 -368t-276 -134q-85 0 -146 37.5t-90 101.5z
M737 530q0 -90 52.5 -148t132.5 -58t133 56t53 152q0 87 -51.5 145t-134.5 58q-79 0 -132 -57t-53 -148z" />
    <glyph glyph-name="A" unicode="A" horiz-adv-x="1351" 
d="M920 369h-488l-125 -369h-291l508 1434h303l508 -1434h-291zM844 608l-168 516l-166 -516h334z" />
    <glyph glyph-name="B" unicode="B" horiz-adv-x="1171" 
d="M137 0v1434h455q214 0 342.5 -103t128.5 -276q0 -98 -47 -182.5t-125 -127.5q102 -43 160.5 -129t58.5 -196q0 -102 -39.5 -183t-107.5 -132t-156.5 -78t-188.5 -27h-481zM426 854h164q76 0 127 47t51 121q0 73 -50 117.5t-132 44.5h-160v-330zM426 248h176
q90 0 149.5 51t59.5 137q0 87 -59 136t-150 49h-176v-373z" />
    <glyph glyph-name="C" unicode="C" horiz-adv-x="1306" 
d="M809 -27q-220 0 -391.5 98t-264 267t-92.5 379q0 156 56.5 293.5t155 236.5t238 156t298.5 57q249 0 426 -131l-82 -254q-66 46 -156 80.5t-188 34.5q-194 0 -320.5 -135t-126.5 -338q0 -206 126 -339.5t321 -133.5q188 0 356 116l82 -251q-186 -136 -438 -136z" />
    <glyph glyph-name="D" unicode="D" horiz-adv-x="1341" 
d="M137 0v1434h381q353 0 556.5 -190.5t203.5 -526.5q0 -341 -203 -529t-557 -188h-381zM426 250h102q209 0 329 120t120 347q0 222 -121 343.5t-328 121.5h-102v-932z" />
    <glyph glyph-name="E" unicode="E" horiz-adv-x="985" 
d="M137 0v1434h737v-260h-448v-320h385v-256h-385v-340h467v-258h-756z" />
    <glyph glyph-name="F" unicode="F" horiz-adv-x="962" 
d="M137 0v1434h733v-260h-444v-338h389v-258h-389v-578h-289z" />
    <glyph glyph-name="G" unicode="G" horiz-adv-x="1529" 
d="M805 1460q106 0 203 -24t166.5 -62.5t116.5 -75.5t79 -75l-182 -189q-21 23 -49 45.5t-74 50.5t-111 45t-137 17q-206 0 -330.5 -135.5t-124.5 -339.5q0 -215 128.5 -344t326.5 -129q131 0 218.5 37t125.5 75v176h-272v244h543v-567q-64 -55 -122.5 -93.5t-134.5 -73
t-168.5 -52t-201.5 -17.5q-121 0 -233 33.5t-204.5 98.5t-161.5 154t-107 207t-38 251q0 153 55.5 289.5t152.5 236.5t236.5 158.5t299.5 58.5z" />
    <glyph glyph-name="H" unicode="H" horiz-adv-x="1447" 
d="M137 0v1434h289v-582h596v582h289v-1434h-289v592h-596v-592h-289z" />
    <glyph glyph-name="I" unicode="I" horiz-adv-x="563" 
d="M137 0v1434h289v-1434h-289z" />
    <glyph glyph-name="J" unicode="J" horiz-adv-x="765" 
d="M41 8l33 256q96 -12 119 -12q72 0 108.5 41t36.5 115v1026h289v-1078q0 -97 -30.5 -169.5t-86 -115t-125.5 -63t-156 -20.5q-93 0 -188 20z" />
    <glyph glyph-name="K" unicode="K" horiz-adv-x="1259" 
d="M137 0v1434h289v-656l473 656h324l-516 -686l532 -748h-332l-481 696v-696h-289z" />
    <glyph glyph-name="L" unicode="L" horiz-adv-x="931" 
d="M137 0v1434h289v-1174h467v-260h-756z" />
    <glyph glyph-name="M" unicode="M" horiz-adv-x="1837" 
d="M508 1434l410 -977l411 977h373v-1434h-277v1024l-372 -903h-269l-372 903v-1024h-277v1434h373z" />
    <glyph glyph-name="N" unicode="N" horiz-adv-x="1460" 
d="M1038 0l-618 971v-971h-285v1434h293l612 -979v979h285v-1434h-287z" />
    <glyph glyph-name="O" unicode="O" horiz-adv-x="1613" 
d="M807 -27q-216 0 -387 97.5t-265 267.5t-94 379q0 208 94 377t265 267.5t387 98.5t387 -98.5t264.5 -267.5t93.5 -377q0 -157 -55 -294t-152 -236.5t-236.5 -156.5t-301.5 -57zM807 1190q-193 0 -319 -135t-126 -338q0 -206 126 -339.5t319 -133.5t318.5 133.5
t125.5 339.5q0 203 -125.5 338t-318.5 135z" />
    <glyph glyph-name="P" unicode="P" horiz-adv-x="1110" 
d="M137 0v1434h457q211 0 341 -122.5t130 -324.5q0 -198 -132.5 -325t-336.5 -127h-170v-535h-289zM426 784h129q95 0 154 56t59 147q0 88 -58.5 142.5t-150.5 54.5h-133v-400z" />
    <glyph glyph-name="Q" unicode="Q" horiz-adv-x="1615" 
d="M807 -27q-216 0 -387 97.5t-265 267.5t-94 379q0 208 94 377t265 267.5t387 98.5t387 -98.5t264.5 -267.5t93.5 -377q0 -237 -131 -430l140 -125l-177 -195l-147 135q-192 -129 -430 -129zM807 1190q-193 0 -319 -135t-126 -338q0 -206 126 -339.5t319 -133.5
q120 0 215 53l-133 121l172 194l139 -127q51 105 51 232q0 203 -125.5 338t-318.5 135z" />
    <glyph glyph-name="R" unicode="R" horiz-adv-x="1198" 
d="M137 0v1434h432q227 0 356.5 -121t129.5 -305q0 -127 -58 -225.5t-159 -153.5l340 -629h-320l-278 561h-154v-561h-289zM426 805h135q83 0 140 50.5t57 141.5q0 86 -56.5 136.5t-154.5 50.5h-121v-379z" />
    <glyph glyph-name="S" unicode="S" horiz-adv-x="1067" 
d="M539 1460q82 0 153 -23t117.5 -56.5t83.5 -78.5t56.5 -82t31.5 -73l-240 -109q-14 31 -29 54t-39.5 48.5t-60.5 39.5t-80 14q-72 0 -113.5 -38.5t-41.5 -98.5q0 -48 34.5 -87t89 -68.5t121 -59t133 -67t121 -84t89 -119t34.5 -162.5q0 -193 -129.5 -315t-349.5 -122
q-88 0 -163 24t-125 59t-90 82t-61.5 87t-35.5 80l244 119q33 -79 95.5 -130.5t152.5 -51.5q80 0 125 39t45 108q0 39 -21 72t-57 58.5t-82.5 49t-97.5 48t-102.5 51.5t-98 63.5t-82.5 80.5t-57 106t-21 135q0 182 123.5 294.5t327.5 112.5z" />
    <glyph glyph-name="T" unicode="T" horiz-adv-x="1046" 
d="M379 0v1174h-336v260h958v-260h-333v-1174h-289z" />
    <glyph glyph-name="U" unicode="U" horiz-adv-x="1417" 
d="M709 -27q-274 0 -426 154t-152 412v895h289v-895q0 -138 76 -217.5t213 -79.5t212.5 79.5t75.5 217.5v895h289v-895q0 -258 -151.5 -412t-425.5 -154z" />
    <glyph glyph-name="V" unicode="V" horiz-adv-x="1392" 
d="M854 0h-313l-529 1434h318l366 -1094l367 1094h317z" />
    <glyph glyph-name="W" unicode="W" horiz-adv-x="2000" 
d="M1270 0l-271 989l-270 -989h-326l-385 1434h316l248 -1074l284 1074h267l284 -1074l250 1074h313l-383 -1434h-327z" />
    <glyph glyph-name="X" unicode="X" horiz-adv-x="1306" 
d="M14 0l465 729l-450 705h342l278 -482l281 482h340l-451 -705l467 -729h-321q-147 236 -316 512l-313 -512h-322z" />
    <glyph glyph-name="Y" unicode="Y" horiz-adv-x="1196" 
d="M455 0v655l-441 779h326l258 -514l258 514h326l-441 -779v-655h-286z" />
    <glyph glyph-name="Z" unicode="Z" horiz-adv-x="1234" 
d="M66 0v188l704 990h-684v256h1069v-189l-709 -989h715v-256h-1095z" />
    <glyph glyph-name="bracketleft" unicode="[" horiz-adv-x="679" 
d="M92 -340v1978h457v-243h-176v-1491h176v-244h-457z" />
    <glyph glyph-name="backslash" unicode="\" horiz-adv-x="925" 
d="M279 1536l616 -1757h-248l-616 1757h248z" />
    <glyph glyph-name="bracketright" unicode="]" horiz-adv-x="684" 
d="M588 1638v-1978h-457v244h176v1491h-176v243h457z" />
    <glyph glyph-name="asciicircum" unicode="^" horiz-adv-x="1140" 
d="M80 651l375 783h231l375 -783h-264l-228 508l-227 -508h-262z" />
    <glyph glyph-name="underscore" unicode="_" horiz-adv-x="1257" 
d="M49 -59h1157v-222h-1157v222z" />
    <glyph glyph-name="grave" unicode="`" horiz-adv-x="989" 
d="M573 1485l138 -295h-236l-199 295h297z" />
    <glyph glyph-name="a" unicode="a" horiz-adv-x="1077" 
d="M49 332q0 159 114.5 256.5t301.5 97.5q75 0 136 -17.5t95 -41.5v69q0 72 -51 115t-143 43q-137 0 -285 -76l-106 193q78 54 191.5 90.5t229.5 36.5q125 0 214 -31t139 -89.5t72 -131.5t22 -168v-678h-250l-18 70q-90 -97 -260 -97q-169 0 -285.5 98t-116.5 261zM332 340
q0 -65 53 -106t133 -41q81 0 132.5 40t51.5 107q0 69 -51.5 109t-134.5 40q-82 0 -133 -41.5t-51 -107.5z" />
    <glyph glyph-name="b" unicode="b" horiz-adv-x="1269" 
d="M111 0v1481h282v-523q13 18 36.5 38.5t62.5 45t97 40.5t122 16q229 0 368.5 -156.5t139.5 -406.5q0 -247 -147.5 -404.5t-377.5 -157.5q-64 0 -121 16t-96.5 41t-62 44t-37.5 37v-111h-266zM385 532q0 -132 74.5 -220.5t199.5 -88.5q122 0 198.5 84t76.5 225
q0 140 -76 228t-199 88q-120 0 -197 -84.5t-77 -231.5z" />
    <glyph glyph-name="c" unicode="c" horiz-adv-x="1003" 
d="M639 223q126 0 242 96l75 -231q-143 -115 -333 -115q-250 0 -411 157t-161 402q0 161 74 290.5t204.5 202.5t291.5 73q185 0 337 -115l-79 -238q-113 103 -250 103q-133 0 -214 -90t-81 -223q0 -137 86 -224.5t219 -87.5z" />
    <glyph glyph-name="d" unicode="d" horiz-adv-x="1269" 
d="M1159 1481v-1481h-266v111q-15 -18 -38 -37t-62.5 -44t-96.5 -41t-121 -16q-230 0 -377 157.5t-147 404.5q0 250 139.5 406.5t368.5 156.5q64 0 122 -16t97 -40.5t62.5 -45t36.5 -38.5v523h282zM885 532q0 147 -77.5 231.5t-197.5 84.5q-123 0 -198.5 -88t-75.5 -228
q0 -141 76 -225t198 -84q125 0 200 88.5t75 220.5z" />
    <glyph glyph-name="e" unicode="e" horiz-adv-x="1144" 
d="M53 532q0 160 67 289.5t187.5 203t270.5 73.5q247 0 383.5 -153.5t136.5 -418.5q0 -41 -2 -61h-754q5 -108 83 -177t196 -69q96 0 161.5 41.5t98.5 89.5l186 -141q-14 -26 -37 -54t-63.5 -61.5t-88.5 -59.5t-117 -43.5t-145 -17.5q-169 0 -297.5 72.5t-197 199
t-68.5 287.5zM350 649h461q-4 98 -68 157.5t-161 59.5t-160 -61t-72 -156z" />
    <glyph glyph-name="f" unicode="f" horiz-adv-x="667" 
d="M160 0v842h-115v229h115v39q0 101 31.5 175t88 115.5t125 61t150.5 19.5q52 0 92 -4v-238q-1 0 -20.5 2t-34.5 2q-150 0 -150 -139v-33h187v-229h-187v-842h-282z" />
    <glyph glyph-name="g" unicode="g" horiz-adv-x="1259" 
d="M188 -295l86 217q27 -14 62.5 -28t106 -30t137.5 -16q62 0 112 10.5t92.5 33.5t66 66t23.5 103v50q-12 -16 -34 -35.5t-60 -44.5t-96 -41.5t-123 -16.5q-230 0 -371 156.5t-141 405.5q0 247 146.5 405t375.5 158q63 0 120.5 -15.5t96.5 -39.5t64 -45t39 -40v113h266v-936
q0 -117 -30 -208t-81.5 -150.5t-125.5 -98t-157 -55t-181 -16.5q-105 0 -211 28t-183 70zM883 537q0 137 -76.5 224t-200.5 87q-121 0 -196.5 -85.5t-75.5 -225.5t76.5 -227t197.5 -87q123 0 199 86t76 228z" />
    <glyph glyph-name="h" unicode="h" horiz-adv-x="1150" 
d="M676 1098q64 0 117 -15t91 -40.5t67 -62.5t47 -77.5t29 -90t15.5 -96t4.5 -98.5v-618h-281v651q0 87 -52 140t-126 53q-88 0 -141.5 -56.5t-53.5 -144.5v-643h-282v1481h282v-535q38 63 112 107.5t171 44.5z" />
    <glyph glyph-name="i" unicode="i" 
d="M111 0v1071h282v-1071h-282zM86 1329q0 69 47.5 115.5t116.5 46.5q71 0 118.5 -46.5t47.5 -115.5t-47.5 -115.5t-118.5 -46.5q-69 0 -116.5 46.5t-47.5 115.5z" />
    <glyph glyph-name="j" unicode="j" 
d="M111 -2v1073h282v-1085q0 -103 -31 -178t-87.5 -117.5t-128.5 -62t-162 -19.5l-70 4v240q29 -5 49 -5q148 0 148 150zM86 1329q0 69 47.5 115.5t116.5 46.5q71 0 118.5 -46.5t47.5 -115.5t-47.5 -115.5t-118.5 -46.5q-69 0 -116.5 46.5t-47.5 115.5z" />
    <glyph glyph-name="k" unicode="k" horiz-adv-x="1089" 
d="M111 0v1481h282v-860l344 450h318l-377 -485l405 -586h-331l-359 553v-553h-282z" />
    <glyph glyph-name="l" unicode="l" 
d="M111 0v1481h282v-1481h-282z" />
    <glyph glyph-name="m" unicode="m" horiz-adv-x="1742" 
d="M1640 707v-707h-282v641q0 95 -45 149t-123 54t-126 -55t-48 -150v-639h-283v651q0 91 -44 142t-122 51q-77 0 -125.5 -55t-48.5 -148v-641h-282v1071h276v-125q33 63 105.5 107.5t173.5 44.5q100 0 175 -42.5t117 -117.5q48 75 130.5 117.5t187.5 42.5q178 0 271 -106.5
t93 -284.5z" />
    <glyph glyph-name="n" unicode="n" horiz-adv-x="1146" 
d="M674 1098q88 0 155 -28.5t107 -74.5t65 -111t34 -128.5t9 -137.5v-618h-282v651q0 87 -52 140t-126 53q-86 0 -138.5 -56.5t-52.5 -144.5v-643h-282v1071h276v-125q38 62 114 107t173 45z" />
    <glyph glyph-name="o" unicode="o" horiz-adv-x="1255" 
d="M51 532q0 160 75.5 290t207.5 203t293 73q162 0 294 -73.5t207.5 -203t75.5 -289.5q0 -243 -162.5 -401t-414.5 -158q-250 0 -413 158t-163 401zM334 532q0 -136 83 -222.5t210 -86.5q128 0 211.5 86.5t83.5 222.5q0 137 -84 226.5t-211 89.5q-128 0 -210.5 -89
t-82.5 -227z" />
    <glyph glyph-name="p" unicode="p" horiz-adv-x="1271" 
d="M111 -383v1454h266v-113q14 18 37.5 38t62.5 45t96 41t121 16q230 0 377.5 -157.5t147.5 -403.5q0 -251 -139.5 -407.5t-368.5 -156.5q-64 0 -122 16t-97 40.5t-62.5 44.5t-36.5 37v-494h-282zM385 539q0 -147 77 -231.5t197 -84.5q123 0 199 88t76 228q0 141 -76.5 225
t-198.5 84q-125 0 -199.5 -88.5t-74.5 -220.5z" />
    <glyph glyph-name="q" unicode="q" horiz-adv-x="1271" 
d="M1159 1071v-1454h-282v494q-13 -17 -36.5 -37t-62.5 -44.5t-97 -40.5t-122 -16q-229 0 -368.5 156.5t-139.5 407.5q0 246 147 403.5t377 157.5q64 0 121.5 -16t96.5 -41t62.5 -45t37.5 -38v113h266zM885 539q0 132 -75 220.5t-200 88.5q-122 0 -198 -84t-76 -225
q0 -140 75.5 -228t198.5 -88q120 0 197.5 84.5t77.5 231.5z" />
    <glyph glyph-name="r" unicode="r" horiz-adv-x="737" 
d="M682 1098v-287q-152 0 -220.5 -88.5t-68.5 -255.5v-467h-282v1071h276v-156q36 82 114 132.5t181 50.5z" />
    <glyph glyph-name="s" unicode="s" horiz-adv-x="890" 
d="M438 -27q-145 0 -247 59t-152 140l166 147q101 -116 246 -116q61 0 96 25.5t35 70.5q0 33 -28 58t-72.5 43t-98.5 37t-108 46t-98.5 63t-72.5 96.5t-28 137.5q0 146 110 232t279 86q137 0 228 -56.5t138 -134.5l-186 -139q-82 102 -192 102q-50 0 -80.5 -23.5
t-30.5 -62.5q0 -34 28 -59t73 -42t99 -34.5t108 -43.5t99 -60.5t73 -94t28 -137.5q0 -154 -117.5 -247t-294.5 -93z" />
    <glyph glyph-name="t" unicode="t" horiz-adv-x="681" 
d="M137 1071v225h279v-225h200v-229h-200v-414q0 -115 35.5 -153.5t121.5 -38.5q29 0 52 2v-242q-43 -10 -121 -10q-190 0 -279.5 107t-89.5 327v422h-112v229h114z" />
    <glyph glyph-name="u" unicode="u" horiz-adv-x="1138" 
d="M473 -27q-88 0 -155.5 28.5t-107.5 74.5t-65 111t-34 128.5t-9 137.5v618h283v-651q0 -87 52 -140t126 -53q86 0 138.5 56.5t52.5 144.5v643h282v-1071h-276v125q-38 -62 -114 -107t-173 -45z" />
    <glyph glyph-name="v" unicode="v" horiz-adv-x="1110" 
d="M719 0h-328l-383 1071h301l246 -770l246 770h301z" />
    <glyph glyph-name="w" unicode="w" horiz-adv-x="1695" 
d="M1044 0l-196 686l-199 -686h-315l-320 1071h308l188 -760l205 760h266l203 -760l190 760h307l-321 -1071h-316z" />
    <glyph glyph-name="x" unicode="x" horiz-adv-x="1089" 
d="M772 0l-227 336l-230 -336h-305l377 547l-360 524h317l201 -326l200 326h318l-361 -524l377 -547h-307z" />
    <glyph glyph-name="y" unicode="y" horiz-adv-x="1105" 
d="M545 -367h-271l150 394l-412 1044h303l240 -698l242 698h295z" />
    <glyph glyph-name="z" unicode="z" horiz-adv-x="958" 
d="M891 895l-483 -659h489v-236h-840v174l484 662h-469v235h819v-176z" />
    <glyph glyph-name="braceleft" unicode="{" horiz-adv-x="794" 
d="M324 649q18 -4 42 -19.5t52.5 -45t47.5 -82.5t19 -119v-305q0 -174 179 -174v-244q-457 0 -457 434v221q0 203 -150 203v264q150 0 150 203v219q0 434 457 434v-243q-179 0 -179 -174v-303q0 -66 -19 -119.5t-47.5 -83.5t-52 -45.5t-42.5 -20.5z" />
    <glyph glyph-name="bar" unicode="|" horiz-adv-x="577" 
d="M156 -481v2169h266v-2169h-266z" />
    <glyph glyph-name="braceright" unicode="}" horiz-adv-x="794" 
d="M471 649q-19 5 -42.5 20.5t-52.5 45.5t-48 83.5t-19 119.5v303q0 174 -178 174v243q457 0 457 -434v-219q0 -203 149 -203v-264q-149 0 -149 -203v-221q0 -434 -457 -434v244q178 0 178 174v305q0 66 19.5 119t47.5 82.5t52.5 45t42.5 19.5z" />
    <glyph glyph-name="asciitilde" unicode="~" horiz-adv-x="1118" 
d="M745 444q-52 0 -104 16.5t-88 36t-80.5 36t-83.5 16.5q-47 0 -72.5 -30t-25.5 -77h-219q0 162 81.5 262.5t219.5 100.5q62 0 128.5 -26.5t124.5 -52.5t99 -26q47 0 72.5 29t27.5 76h219q0 -154 -81 -257.5t-218 -103.5z" />
    <glyph glyph-name="exclamdown" unicode="&#xa1;" horiz-adv-x="598" 
d="M150 -313l22 1026h254l23 -1026h-299zM299 1147q73 0 123.5 -50.5t50.5 -121.5q0 -73 -50.5 -124.5t-123.5 -51.5t-123.5 51.5t-50.5 124.5q0 71 50.5 121.5t123.5 50.5z" />
    <glyph glyph-name="cent" unicode="&#xa2;" horiz-adv-x="1003" 
d="M539 0v133q-218 28 -353 180t-135 375q0 221 136.5 376t351.5 183v187h178v-189q128 -22 241 -106l-79 -238q-113 103 -250 103q-133 0 -214 -90.5t-81 -223.5q0 -136 85.5 -223.5t219.5 -87.5q126 0 242 96l75 -231q-107 -85 -239 -107v-137h-178z" />
    <glyph glyph-name="sterling" unicode="&#xa3;" horiz-adv-x="1173" 
d="M86 598v217h104v209q0 192 126 314t331 122q76 0 141.5 -20.5t110 -51.5t79.5 -72.5t54.5 -79t30.5 -75.5l-236 -100q-46 123 -178 123q-75 0 -123.5 -49t-48.5 -125v-195h318v-217h-318v-346h619v-252h-1024v252h118v346h-104z" />
    <glyph glyph-name="yen" unicode="&#xa5;" horiz-adv-x="1196" 
d="M461 0v324h-316v186h316v145h-316v187h209l-334 592h326l258 -514l258 514h326l-336 -592h197v-187h-301v-145h301v-186h-301v-324h-287z" />
    <glyph glyph-name="section" unicode="&#xa7;" horiz-adv-x="1046" 
d="M977 481q0 -91 -47 -161.5t-131 -110.5q155 -123 155 -291q0 -167 -116.5 -271t-311.5 -104q-82 0 -154 22t-120.5 55t-87.5 76t-60 80t-34 72l235 103q28 -60 84 -104t137 -44q64 0 102 32t38 87q0 50 -33.5 87.5t-102.5 78.5l-256 154q-99 59 -152.5 135.5t-53.5 185.5
q0 89 47.5 160.5t128.5 110.5q-154 122 -154 290t117 272.5t313 104.5q82 0 153.5 -22.5t119.5 -55.5t87 -76.5t59.5 -80.5t33.5 -72l-236 -102q-28 61 -82.5 105t-134.5 44q-63 0 -102 -34t-39 -87q0 -50 33 -87.5t100 -78.5l236 -139q110 -65 169.5 -145t59.5 -189z
M713 475q0 73 -84 119l-170 92q-58 -1 -92.5 -35.5t-34.5 -83.5q0 -70 63 -104l189 -107q58 1 93.5 35.5t35.5 83.5z" />
    <glyph glyph-name="dieresis" unicode="&#xa8;" horiz-adv-x="989" 
d="M297 1198q-61 0 -100 40t-39 99q0 58 39.5 99t99.5 41q59 0 99 -41t40 -99q0 -59 -39.5 -99t-99.5 -40zM690 1198q-62 0 -100.5 39.5t-38.5 99.5q0 59 38.5 99.5t100.5 40.5q59 0 99 -41t40 -99q0 -59 -39.5 -99t-99.5 -40z" />
    <glyph glyph-name="copyright" unicode="&#xa9;" horiz-adv-x="1617" 
d="M809 141q160 0 285.5 74.5t193.5 205.5t68 296q0 248 -152.5 409.5t-396.5 161.5q-241 0 -394 -161.5t-153 -409.5q0 -165 68.5 -296t194.5 -205.5t286 -74.5zM440 715q0 168 105 280.5t270 112.5q191 0 303 -156l-149 -121q-61 82 -152 82q-76 0 -120 -55t-44 -143
t44 -143.5t120 -55.5q91 0 152 82l149 -119q-109 -157 -303 -157q-165 0 -270 112.5t-105 280.5zM807 1460q210 0 379.5 -99t263.5 -269.5t94 -378.5q0 -206 -94 -375.5t-263 -268t-378 -98.5t-378.5 98.5t-264 268t-94.5 375.5q0 155 55.5 293t152.5 237.5t234 158
t293 58.5z" />
    <glyph glyph-name="ordfeminine" unicode="&#xaa;" horiz-adv-x="841" 
d="M70 885q0 120 85 193t226 73q98 0 172 -41v47q0 53 -37.5 84t-105.5 31q-108 0 -215 -58l-82 148q146 98 321 98q93 0 159.5 -23.5t104 -68t54 -100t16.5 -127.5v-508h-190l-15 49q-68 -68 -192 -68q-128 0 -214.5 73t-86.5 198zM283 891q0 -49 39 -79t100 -30
q60 0 98.5 29.5t38.5 79.5t-38.5 79t-98.5 29q-61 0 -100 -30.5t-39 -77.5z" />
    <glyph glyph-name="guillemotleft" unicode="&#xab;" horiz-adv-x="1003" 
d="M307 217l-250 383l250 385h252l-250 -385l250 -383h-252zM692 217l-250 383l250 385h252l-250 -385l250 -383h-252z" />
    <glyph glyph-name="registered" unicode="&#xae;" horiz-adv-x="925" 
d="M463 1030h-43v-153h-121v442h180q72 0 116 -42t44 -101q0 -43 -20.5 -75.5t-49.5 -45.5l82 -178h-125zM469 1217h-49v-89h49q19 0 32 13t13 33t-13 31.5t-32 11.5zM33 1094q0 181 119 303.5t307 122.5q196 0 315 -121t119 -303q0 -178 -119 -301t-311 -123t-311 120
t-119 302zM147 1094q0 -138 85.5 -228t230.5 -90q146 0 230.5 89.5t84.5 230.5q0 143 -85 230t-234 87q-143 0 -227.5 -88.5t-84.5 -230.5z" />
    <glyph glyph-name="macron" unicode="&#xaf;" horiz-adv-x="911" 
d="M180 1235v207h549v-207h-549z" />
    <glyph glyph-name="degree" unicode="&#xb0;" horiz-adv-x="774" 
d="M387 815q-145 0 -238.5 92t-93.5 228q0 138 94 231.5t238 93.5q143 0 236.5 -93t93.5 -230q0 -138 -92.5 -230t-237.5 -92zM387 1268q-58 0 -93.5 -37.5t-35.5 -93.5q0 -58 35.5 -94.5t93.5 -36.5q61 0 95 36t34 95q0 56 -35.5 93.5t-93.5 37.5z" />
    <glyph glyph-name="twosuperior" unicode="&#xb2;" horiz-adv-x="737" 
d="M76 621v86q0 57 27.5 110t68 91t88.5 76t88.5 66.5t68 62t27.5 63.5q0 38 -24 61t-66 23q-81 0 -116 -93l-170 62q11 37 31 71.5t54 70.5t88 57.5t121 21.5q131 0 216.5 -71t85.5 -195q0 -59 -31.5 -110t-79 -87.5t-96.5 -67.5t-90 -62.5t-52 -59.5h359v-176h-598z" />
    <glyph glyph-name="threesuperior" unicode="&#xb3;" horiz-adv-x="731" 
d="M641 1434v-140l-182 -182q91 -11 151 -74t60 -164q0 -128 -87.5 -199t-220.5 -71q-67 0 -122 21.5t-89.5 56.5t-55 69.5t-32.5 71.5q28 12 84.5 32.5t83.5 31.5q38 -94 123 -94q44 0 71.5 25.5t27.5 68.5q0 45 -32 70.5t-85 25.5h-92v139l133 135h-277v177h541z" />
    <glyph glyph-name="acute" unicode="&#xb4;" horiz-adv-x="989" 
d="M276 1190l138 295h297l-199 -295h-236z" />
    <glyph glyph-name="paragraph" unicode="&#xb6;" horiz-adv-x="1116" 
d="M459 -92v754q-163 2 -274 112.5t-111 274.5t111.5 274.5t275.5 110.5h217v-1526h-219zM801 -92v1526h219v-1526h-219z" />
    <glyph glyph-name="periodcentered" unicode="&#xb7;" horiz-adv-x="509" 
d="M254 469q-73 0 -123.5 50.5t-50.5 121.5q0 73 50.5 124.5t123.5 51.5t123.5 -51.5t50.5 -124.5q0 -71 -50.5 -121.5t-123.5 -50.5z" />
    <glyph glyph-name="cedilla" unicode="&#xb8;" horiz-adv-x="911" 
d="M389 -477q-59 0 -119 18l33 146q44 -11 68 -11q38 0 63 17.5t25 50.5q0 31 -30 47t-73 16l-34 -4l32 222h148l-17 -105q73 -15 114.5 -67t41.5 -121q0 -97 -72 -153t-180 -56z" />
    <glyph glyph-name="onesuperior" unicode="&#xb9;" horiz-adv-x="585" 
d="M137 1192l-53 180l176 62h176v-813h-213v604z" />
    <glyph glyph-name="ordmasculine" unicode="&#xba;" horiz-adv-x="983" 
d="M57 1034q0 184 124 305t311 121q190 0 311 -120t121 -304q0 -182 -124 -302t-311 -120q-188 0 -310 119t-122 301zM274 1034q0 -101 60.5 -165t154.5 -64q95 0 157.5 65.5t62.5 165.5q0 102 -62.5 167t-157.5 65t-155 -65.5t-60 -168.5z" />
    <glyph glyph-name="guillemotright" unicode="&#xbb;" horiz-adv-x="1003" 
d="M944 600l-250 -383h-252l250 383l-250 385h252zM559 600l-250 -383h-252l250 383l-250 385h252z" />
    <glyph glyph-name="onequarter" unicode="&#xbc;" horiz-adv-x="1701" 
d="M1339 0v150h-378v157l358 506h233v-483h90v-180h-90v-150h-213zM1161 330h178v262zM571 -84h-241l766 1602h243zM156 1192l-54 180l177 62h176v-813h-213v604z" />
    <glyph glyph-name="onehalf" unicode="&#xbd;" horiz-adv-x="1726" 
d="M156 1192l-54 180l177 62h176v-813h-213v604zM541 -84h-242l766 1602h244zM1036 0v86q0 50 20.5 96t53 81.5t71.5 68t78.5 61t72 54.5t53 54t20.5 54q0 38 -24 61t-66 23q-83 0 -117 -92l-170 61q11 37 31.5 72t54.5 70.5t88 57t121 21.5q130 0 215.5 -71t85.5 -195
q0 -59 -31.5 -110t-79 -87.5t-96 -67.5t-89.5 -62.5t-52 -59.5h358v-176h-598z" />
    <glyph glyph-name="threequarters" unicode="&#xbe;" horiz-adv-x="1794" 
d="M666 -84h-242l766 1602h244zM1415 0v150h-379v157l359 506h233v-483h90v-180h-90v-150h-213zM1237 330h178v262zM651 1434v-140l-182 -182q91 -11 151 -74t60 -164q0 -128 -87.5 -199t-219.5 -71q-67 0 -122 21.5t-89.5 56.5t-55 69.5t-32.5 71.5q28 12 84.5 32.5
t83.5 31.5q38 -94 123 -94q44 0 71 25.5t27 68.5q0 45 -32 70.5t-85 25.5h-92v139l133 135h-276v177h540z" />
    <glyph glyph-name="questiondown" unicode="&#xbf;" horiz-adv-x="987" 
d="M676 713v-101q0 -56 -18 -106t-47 -87t-64 -71.5t-70 -65.5t-64 -62t-47 -68.5t-18 -77.5q0 -63 47 -108.5t125 -45.5q127 0 182 127l226 -100q-13 -37 -33 -73.5t-55.5 -76t-79 -69t-107.5 -49t-137 -19.5q-199 0 -328 111.5t-129 285.5q0 62 19 117.5t49 96t66.5 77.5
t73 69.5t66.5 64.5t49 69.5t19 77.5v84h275zM539 1147q73 0 123.5 -50.5t50.5 -121.5q0 -73 -50.5 -124.5t-123.5 -51.5t-123.5 51.5t-50.5 124.5q0 71 50.5 121.5t123.5 50.5z" />
    <glyph glyph-name="Agrave" unicode="&#xc0;" horiz-adv-x="1351" 
d="M920 369h-488l-125 -369h-291l508 1434h303l508 -1434h-291zM844 608l-168 516l-166 -516h334zM664 1806l137 -295h-236l-198 295h297z" />
    <glyph glyph-name="Aacute" unicode="&#xc1;" horiz-adv-x="1351" 
d="M920 369h-488l-125 -369h-291l508 1434h303l508 -1434h-291zM844 608l-168 516l-166 -516h334zM537 1511l137 295h297l-199 -295h-235z" />
    <glyph glyph-name="Acircumflex" unicode="&#xc2;" horiz-adv-x="1351" 
d="M920 369h-488l-125 -369h-291l508 1434h303l508 -1434h-291zM844 608l-168 516l-166 -516h334zM776 1513l-100 146l-101 -146h-239l194 287h291l195 -287h-240z" />
    <glyph glyph-name="Atilde" unicode="&#xc3;" horiz-adv-x="1351" 
d="M920 369h-488l-125 -369h-291l508 1434h303l508 -1434h-291zM844 608l-168 516l-166 -516h334zM815 1524q-59 0 -142.5 37.5t-113.5 37.5q-31 0 -48 -20t-17 -57h-179q0 123 62.5 198.5t163.5 75.5q48 0 97 -19t89 -38t66 -19q30 0 47.5 21t17.5 57h178
q0 -125 -60.5 -199.5t-160.5 -74.5z" />
    <glyph glyph-name="Adieresis" unicode="&#xc4;" horiz-adv-x="1351" 
d="M920 369h-488l-125 -369h-291l508 1434h303l508 -1434h-291zM844 608l-168 516l-166 -516h334zM479 1524q-61 0 -100 40t-39 99q0 58 39.5 98.5t99.5 40.5q59 0 99 -40.5t40 -98.5q0 -59 -39.5 -99t-99.5 -40zM872 1524q-62 0 -100.5 39.5t-38.5 99.5q0 58 38.5 98.5
t100.5 40.5q59 0 99.5 -40.5t40.5 -98.5q0 -59 -40 -99t-100 -40z" />
    <glyph glyph-name="Aring" unicode="&#xc5;" horiz-adv-x="1351" 
d="M920 369h-488l-125 -369h-291l508 1434h303l508 -1434h-291zM844 608l-168 516l-166 -516h334zM674 1497q-93 0 -155 57t-62 146q0 90 62 146.5t155 56.5q96 0 158.5 -56t62.5 -145q0 -90 -62.5 -147.5t-158.5 -57.5zM676 1620q35 0 56.5 22.5t21.5 59.5q0 34 -21.5 56
t-56.5 22t-56.5 -22.5t-21.5 -57.5t21.5 -57.5t56.5 -22.5z" />
    <glyph glyph-name="AE" unicode="&#xc6;" horiz-adv-x="1755" 
d="M16 0l748 1434h881v-260h-447v-320h383v-256h-383v-340h465v-258h-754v369h-393l-186 -369h-314zM899 1153l-276 -545h286v545h-10z" />
    <glyph glyph-name="Ccedilla" unicode="&#xc7;" horiz-adv-x="1306" 
d="M676 -477q-59 0 -119 18l33 146q44 -11 67 -11q38 0 63 17.5t25 50.5q0 32 -29.5 47.5t-72.5 15.5l-35 -4l27 187q-261 54 -417.5 253t-156.5 474q0 156 56.5 293.5t155 236.5t238 156t298.5 57q249 0 426 -131l-82 -254q-66 46 -156 80.5t-188 34.5q-194 0 -320.5 -135
t-126.5 -338q0 -206 126 -339.5t321 -133.5q188 0 356 116l82 -251q-186 -136 -438 -136l-29 2l-8 -55q73 -15 114.5 -67t41.5 -121q0 -97 -72 -153t-180 -56z" />
    <glyph glyph-name="Egrave" unicode="&#xc8;" horiz-adv-x="985" 
d="M137 0v1434h737v-260h-448v-320h385v-256h-385v-340h467v-258h-756zM537 1806l137 -295h-236l-198 295h297z" />
    <glyph glyph-name="Eacute" unicode="&#xc9;" horiz-adv-x="985" 
d="M137 0v1434h737v-260h-448v-320h385v-256h-385v-340h467v-258h-756zM365 1511l137 295h297l-199 -295h-235z" />
    <glyph glyph-name="Ecircumflex" unicode="&#xca;" horiz-adv-x="985" 
d="M137 0v1434h737v-260h-448v-320h385v-256h-385v-340h467v-258h-756zM614 1513l-100 146l-100 -146h-240l195 287h290l195 -287h-240z" />
    <glyph glyph-name="Edieresis" unicode="&#xcb;" horiz-adv-x="985" 
d="M137 0v1434h737v-260h-448v-320h385v-256h-385v-340h467v-258h-756zM319 1524q-61 0 -100 40t-39 99q0 58 39.5 98.5t99.5 40.5q59 0 99.5 -40.5t40.5 -98.5q0 -59 -40 -99t-100 -40zM713 1524q-62 0 -101 40t-39 99q0 58 39 98.5t101 40.5q59 0 99 -40.5t40 -98.5
q0 -59 -39.5 -99t-99.5 -40z" />
    <glyph glyph-name="Igrave" unicode="&#xcc;" horiz-adv-x="563" 
d="M137 0v1434h289v-1434h-289zM301 1806l137 -295h-235l-199 295h297z" />
    <glyph glyph-name="Iacute" unicode="&#xcd;" horiz-adv-x="563" 
d="M137 0v1434h289v-1434h-289zM141 1511l138 295h296l-198 -295h-236z" />
    <glyph glyph-name="Icircumflex" unicode="&#xce;" horiz-adv-x="563" 
d="M137 0v1434h289v-1434h-289zM387 1513l-100 146l-101 -146h-239l194 287h291l195 -287h-240z" />
    <glyph glyph-name="Idieresis" unicode="&#xcf;" horiz-adv-x="563" 
d="M137 0v1434h289v-1434h-289zM98 1524q-61 0 -100 40t-39 99q0 58 39.5 98.5t99.5 40.5q59 0 99.5 -40.5t40.5 -98.5q0 -59 -40 -99t-100 -40zM492 1524q-62 0 -101 40t-39 99q0 58 39 98.5t101 40.5q59 0 99 -40.5t40 -98.5q0 -59 -39.5 -99t-99.5 -40z" />
    <glyph glyph-name="Eth" unicode="&#xd0;" horiz-adv-x="1363" 
d="M45 594v254h115v586h379q354 0 557.5 -190.5t203.5 -526.5q0 -341 -203.5 -529t-557.5 -188h-379v594h-115zM449 250h102q207 0 327.5 120t120.5 347q0 222 -121 343.5t-327 121.5h-102v-334h223v-254h-223v-344z" />
    <glyph glyph-name="Ntilde" unicode="&#xd1;" horiz-adv-x="1460" 
d="M1038 0l-618 971v-971h-285v1434h293l612 -979v979h285v-1434h-287zM877 1524q-59 0 -142.5 37.5t-113.5 37.5q-31 0 -48.5 -20t-17.5 -57h-178q0 123 62 198.5t163 75.5q48 0 97 -19t89 -38t66 -19q31 0 48.5 21t17.5 57h178q0 -125 -60.5 -199.5t-160.5 -74.5z" />
    <glyph glyph-name="Ograve" unicode="&#xd2;" horiz-adv-x="1613" 
d="M807 -27q-216 0 -387 97.5t-265 267.5t-94 379q0 208 94 377t265 267.5t387 98.5t387 -98.5t264.5 -267.5t93.5 -377q0 -157 -55 -294t-152 -236.5t-236.5 -156.5t-301.5 -57zM807 1190q-193 0 -319 -135t-126 -338q0 -206 126 -339.5t319 -133.5t318.5 133.5
t125.5 339.5q0 203 -125.5 338t-318.5 135zM807 1806l137 -295h-235l-199 295h297z" />
    <glyph glyph-name="Oacute" unicode="&#xd3;" horiz-adv-x="1613" 
d="M807 -27q-216 0 -387 97.5t-265 267.5t-94 379q0 208 94 377t265 267.5t387 98.5t387 -98.5t264.5 -267.5t93.5 -377q0 -157 -55 -294t-152 -236.5t-236.5 -156.5t-301.5 -57zM807 1190q-193 0 -319 -135t-126 -338q0 -206 126 -339.5t319 -133.5t318.5 133.5
t125.5 339.5q0 203 -125.5 338t-318.5 135zM662 1511l137 295h297l-199 -295h-235z" />
    <glyph glyph-name="Ocircumflex" unicode="&#xd4;" horiz-adv-x="1613" 
d="M807 -27q-216 0 -387 97.5t-265 267.5t-94 379q0 208 94 377t265 267.5t387 98.5t387 -98.5t264.5 -267.5t93.5 -377q0 -157 -55 -294t-152 -236.5t-236.5 -156.5t-301.5 -57zM807 1190q-193 0 -319 -135t-126 -338q0 -206 126 -339.5t319 -133.5t318.5 133.5
t125.5 339.5q0 203 -125.5 338t-318.5 135zM913 1513l-100 146l-100 -146h-240l195 287h290l195 -287h-240z" />
    <glyph glyph-name="Otilde" unicode="&#xd5;" horiz-adv-x="1613" 
d="M807 -27q-216 0 -387 97.5t-265 267.5t-94 379q0 208 94 377t265 267.5t387 98.5t387 -98.5t264.5 -267.5t93.5 -377q0 -157 -55 -294t-152 -236.5t-236.5 -156.5t-301.5 -57zM807 1190q-193 0 -319 -135t-126 -338q0 -206 126 -339.5t319 -133.5t318.5 133.5
t125.5 339.5q0 203 -125.5 338t-318.5 135zM948 1524q-59 0 -142.5 37.5t-113.5 37.5q-31 0 -48 -20t-17 -57h-178q0 123 62 198.5t163 75.5q48 0 97 -19t89 -38t66 -19q30 0 47.5 21t17.5 57h178q0 -125 -60.5 -199.5t-160.5 -74.5z" />
    <glyph glyph-name="Odieresis" unicode="&#xd6;" horiz-adv-x="1615" 
d="M807 -27q-216 0 -387 97.5t-265 267.5t-94 379q0 208 94 377t265 267.5t387 98.5t387 -98.5t264.5 -267.5t93.5 -377q0 -157 -55 -294t-152 -236.5t-236.5 -156.5t-301.5 -57zM807 1190q-193 0 -319 -135t-126 -338q0 -206 126 -339.5t319 -133.5t318.5 133.5
t125.5 339.5q0 203 -125.5 338t-318.5 135zM616 1524q-61 0 -100 40t-39 99q0 58 39.5 98.5t99.5 40.5q59 0 99.5 -40.5t40.5 -98.5q0 -59 -40 -99t-100 -40zM1010 1524q-62 0 -101 40t-39 99q0 58 39 98.5t101 40.5q59 0 99 -40.5t40 -98.5q0 -59 -39.5 -99t-99.5 -40z" />
    <glyph glyph-name="multiply" unicode="&#xd7;" horiz-adv-x="1083" 
d="M850 141l-311 332l-312 -332l-159 160l315 334l-315 334l159 159l312 -331l311 331l160 -159l-316 -334l316 -334z" />
    <glyph glyph-name="Oslash" unicode="&#xd8;" horiz-adv-x="1613" 
d="M807 -27q-217 0 -391 99l-97 -121l-153 123l96 121q-96 99 -148.5 233.5t-52.5 288.5q0 208 94 377t265 267.5t387 98.5q208 0 383 -96l94 119l156 -123l-94 -117q99 -100 152.5 -236t53.5 -290q0 -157 -55 -294t-152 -236.5t-236.5 -156.5t-301.5 -57zM1251 717
q0 167 -90 293l-567 -715q94 -51 213 -51q193 0 318.5 133.5t125.5 339.5zM807 1190q-193 0 -319 -135t-126 -338q0 -165 84 -289l566 713q-93 49 -205 49z" />
    <glyph glyph-name="Ugrave" unicode="&#xd9;" horiz-adv-x="1417" 
d="M709 -27q-274 0 -426 154t-152 412v895h289v-895q0 -138 76 -217.5t213 -79.5t212.5 79.5t75.5 217.5v895h289v-895q0 -258 -151.5 -412t-425.5 -154zM717 1806l137 -295h-236l-198 295h297z" />
    <glyph glyph-name="Uacute" unicode="&#xda;" horiz-adv-x="1417" 
d="M709 -27q-274 0 -426 154t-152 412v895h289v-895q0 -138 76 -217.5t213 -79.5t212.5 79.5t75.5 217.5v895h289v-895q0 -258 -151.5 -412t-425.5 -154zM573 1511l138 295h297l-199 -295h-236z" />
    <glyph glyph-name="Ucircumflex" unicode="&#xdb;" horiz-adv-x="1417" 
d="M709 -27q-274 0 -426 154t-152 412v895h289v-895q0 -138 76 -217.5t213 -79.5t212.5 79.5t75.5 217.5v895h289v-895q0 -258 -151.5 -412t-425.5 -154zM809 1513l-100 146l-101 -146h-239l194 287h291l195 -287h-240z" />
    <glyph glyph-name="Udieresis" unicode="&#xdc;" horiz-adv-x="1417" 
d="M709 -27q-274 0 -426 154t-152 412v895h289v-895q0 -138 76 -217.5t213 -79.5t212.5 79.5t75.5 217.5v895h289v-895q0 -258 -151.5 -412t-425.5 -154zM518 1524q-61 0 -100 40t-39 99q0 58 39.5 98.5t99.5 40.5q59 0 99 -40.5t40 -98.5q0 -59 -39.5 -99t-99.5 -40z
M911 1524q-62 0 -100.5 39.5t-38.5 99.5q0 58 38.5 98.5t100.5 40.5q59 0 99.5 -40.5t40.5 -98.5q0 -59 -40 -99t-100 -40z" />
    <glyph glyph-name="Yacute" unicode="&#xdd;" horiz-adv-x="1196" 
d="M455 0v655l-441 779h326l258 -514l258 514h326l-441 -779v-655h-286zM467 1511l137 295h297l-199 -295h-235z" />
    <glyph glyph-name="Thorn" unicode="&#xde;" horiz-adv-x="1110" 
d="M137 0v1434h289v-252h168q211 0 341 -122.5t130 -324.5q0 -198 -132.5 -325t-336.5 -127h-170v-283h-289zM426 532h129q95 0 154 56t59 147q0 88 -58.5 142.5t-150.5 54.5h-133v-400z" />
    <glyph glyph-name="germandbls" unicode="&#xdf;" horiz-adv-x="1146" 
d="M535 1481q212 0 327 -89t115 -251q0 -83 -40.5 -147t-92.5 -93q254 -124 254 -407q0 -225 -159.5 -359.5t-422.5 -134.5v238q138 0 218.5 68.5t80.5 189.5q0 125 -84.5 188.5t-214.5 63.5v225q86 0 135 37t49 104q0 54 -41 91.5t-114 37.5t-112.5 -39t-39.5 -110v-1094
h-282v1110q0 99 33.5 172.5t93 115.5t134 62.5t163.5 20.5z" />
    <glyph glyph-name="agrave" unicode="&#xe0;" horiz-adv-x="1077" 
d="M49 332q0 159 114.5 256.5t301.5 97.5q75 0 136 -17.5t95 -41.5v69q0 72 -51 115t-143 43q-137 0 -285 -76l-106 193q78 54 191.5 90.5t229.5 36.5q125 0 214 -31t139 -89.5t72 -131.5t22 -168v-678h-250l-18 70q-90 -97 -260 -97q-169 0 -285.5 98t-116.5 261zM332 340
q0 -65 53 -106t133 -41q81 0 132.5 40t51.5 107q0 69 -51.5 109t-134.5 40q-82 0 -133 -41.5t-51 -107.5zM557 1485l137 -295h-235l-199 295h297z" />
    <glyph glyph-name="aacute" unicode="&#xe1;" horiz-adv-x="1077" 
d="M49 332q0 159 114.5 256.5t301.5 97.5q75 0 136 -17.5t95 -41.5v69q0 72 -51 115t-143 43q-137 0 -285 -76l-106 193q78 54 191.5 90.5t229.5 36.5q125 0 214 -31t139 -89.5t72 -131.5t22 -168v-678h-250l-18 70q-90 -97 -260 -97q-169 0 -285.5 98t-116.5 261zM332 340
q0 -65 53 -106t133 -41q81 0 132.5 40t51.5 107q0 69 -51.5 109t-134.5 40q-82 0 -133 -41.5t-51 -107.5zM399 1190l138 295h297l-199 -295h-236z" />
    <glyph glyph-name="acircumflex" unicode="&#xe2;" horiz-adv-x="1077" 
d="M49 332q0 159 114.5 256.5t301.5 97.5q75 0 136 -17.5t95 -41.5v69q0 72 -51 115t-143 43q-137 0 -285 -76l-106 193q78 54 191.5 90.5t229.5 36.5q125 0 214 -31t139 -89.5t72 -131.5t22 -168v-678h-250l-18 70q-90 -97 -260 -97q-169 0 -285.5 98t-116.5 261zM332 340
q0 -65 53 -106t133 -41q81 0 132.5 40t51.5 107q0 69 -51.5 109t-134.5 40q-82 0 -133 -41.5t-51 -107.5zM639 1196l-100 145l-101 -145h-239l194 287h291l195 -287h-240z" />
    <glyph glyph-name="atilde" unicode="&#xe3;" horiz-adv-x="1077" 
d="M49 332q0 159 114.5 256.5t301.5 97.5q75 0 136 -17.5t95 -41.5v69q0 72 -51 115t-143 43q-137 0 -285 -76l-106 193q78 54 191.5 90.5t229.5 36.5q125 0 214 -31t139 -89.5t72 -131.5t22 -168v-678h-250l-18 70q-90 -97 -260 -97q-169 0 -285.5 98t-116.5 261zM332 340
q0 -65 53 -106t133 -41q81 0 132.5 40t51.5 107q0 69 -51.5 109t-134.5 40q-82 0 -133 -41.5t-51 -107.5zM668 1202q-59 0 -142.5 38t-113.5 38q-31 0 -48.5 -20.5t-17.5 -57.5h-178q0 123 62 199t163 76q48 0 97 -19t89 -38t66 -19q31 0 48.5 21t17.5 57h178
q0 -126 -60.5 -200.5t-160.5 -74.5z" />
    <glyph glyph-name="adieresis" unicode="&#xe4;" horiz-adv-x="1077" 
d="M49 332q0 159 114.5 256.5t301.5 97.5q75 0 136 -17.5t95 -41.5v69q0 72 -51 115t-143 43q-137 0 -285 -76l-106 193q78 54 191.5 90.5t229.5 36.5q125 0 214 -31t139 -89.5t72 -131.5t22 -168v-678h-250l-18 70q-90 -97 -260 -97q-169 0 -285.5 98t-116.5 261zM332 340
q0 -65 53 -106t133 -41q81 0 132.5 40t51.5 107q0 69 -51.5 109t-134.5 40q-82 0 -133 -41.5t-51 -107.5zM352 1198q-61 0 -100 40t-39 99q0 58 39.5 99t99.5 41q59 0 99.5 -41t40.5 -99q0 -59 -40 -99t-100 -40zM745 1198q-62 0 -100.5 39.5t-38.5 99.5q0 59 38.5 99.5
t100.5 40.5q59 0 99.5 -41t40.5 -99q0 -59 -40 -99t-100 -40z" />
    <glyph glyph-name="aring" unicode="&#xe5;" horiz-adv-x="1077" 
d="M49 332q0 159 114.5 256.5t301.5 97.5q75 0 136 -17.5t95 -41.5v69q0 72 -51 115t-143 43q-137 0 -285 -76l-106 193q78 54 191.5 90.5t229.5 36.5q125 0 214 -31t139 -89.5t72 -131.5t22 -168v-678h-250l-18 70q-90 -97 -260 -97q-169 0 -285.5 98t-116.5 261zM332 340
q0 -65 53 -106t133 -41q81 0 132.5 40t51.5 107q0 69 -51.5 109t-134.5 40q-82 0 -133 -41.5t-51 -107.5zM547 1155q-93 0 -155 57t-62 146q0 90 62 146.5t155 56.5q96 0 158.5 -56t62.5 -145q0 -90 -62.5 -147.5t-158.5 -57.5zM549 1278q35 0 56.5 22.5t21.5 59.5
q0 34 -21.5 56t-56.5 22t-56.5 -22.5t-21.5 -57.5t21.5 -57.5t56.5 -22.5z" />
    <glyph glyph-name="ae" unicode="&#xe6;" horiz-adv-x="1781" 
d="M332 340q0 -65 53 -106t133 -41t131 40t51 107q0 69 -50.5 109t-133.5 40q-82 0 -133 -41.5t-51 -107.5zM987 649h459q-4 98 -67.5 157.5t-161.5 59.5q-96 0 -158.5 -61t-71.5 -156zM979 465q5 -108 82 -177t196 -69q96 0 162 41.5t99 89.5l186 -141q-14 -26 -37 -54
t-63.5 -61.5t-88.5 -59.5t-117 -43.5t-145 -17.5q-136 0 -245.5 46t-180.5 133q-115 -179 -376 -179q-169 0 -285.5 98t-116.5 261q0 159 114.5 256.5t301.5 97.5q75 0 136 -17.5t95 -41.5v69q0 72 -51 115t-143 43q-137 0 -285 -76q-22 37 -59.5 106.5t-46.5 86.5
q192 127 421 127q238 0 342 -135q135 135 338 135q248 0 385.5 -153.5t137.5 -418.5q0 -41 -2 -61h-754z" />
    <glyph glyph-name="ccedilla" unicode="&#xe7;" horiz-adv-x="1003" 
d="M518 -477q-59 0 -119 18l33 146q44 -11 68 -11q38 0 63 17.5t25 50.5q0 31 -30 47t-73 16l-34 -4l26 187q-193 41 -309.5 188.5t-116.5 353.5q0 161 74 290.5t204.5 202.5t291.5 73q185 0 337 -115l-79 -238q-113 103 -250 103q-133 0 -214 -90t-81 -223
q0 -137 86 -224.5t219 -87.5q126 0 242 96l75 -231q-143 -115 -333 -115l-9 -53q73 -15 114.5 -67t41.5 -121q0 -97 -72 -153t-180 -56z" />
    <glyph glyph-name="egrave" unicode="&#xe8;" horiz-adv-x="1144" 
d="M53 532q0 160 67 289.5t187.5 203t270.5 73.5q247 0 383.5 -153.5t136.5 -418.5q0 -41 -2 -61h-754q5 -108 83 -177t196 -69q96 0 161.5 41.5t98.5 89.5l186 -141q-14 -26 -37 -54t-63.5 -61.5t-88.5 -59.5t-117 -43.5t-145 -17.5q-169 0 -297.5 72.5t-197 199
t-68.5 287.5zM350 649h461q-4 98 -68 157.5t-161 59.5t-160 -61t-72 -156zM594 1485l137 -295h-235l-199 295h297z" />
    <glyph glyph-name="eacute" unicode="&#xe9;" horiz-adv-x="1144" 
d="M53 532q0 160 67 289.5t187.5 203t270.5 73.5q247 0 383.5 -153.5t136.5 -418.5q0 -41 -2 -61h-754q5 -108 83 -177t196 -69q96 0 161.5 41.5t98.5 89.5l186 -141q-14 -26 -37 -54t-63.5 -61.5t-88.5 -59.5t-117 -43.5t-145 -17.5q-169 0 -297.5 72.5t-197 199
t-68.5 287.5zM350 649h461q-4 98 -68 157.5t-161 59.5t-160 -61t-72 -156zM432 1190l137 295h297l-198 -295h-236z" />
    <glyph glyph-name="ecircumflex" unicode="&#xea;" horiz-adv-x="1144" 
d="M53 532q0 160 67 289.5t187.5 203t270.5 73.5q247 0 383.5 -153.5t136.5 -418.5q0 -41 -2 -61h-754q5 -108 83 -177t196 -69q96 0 161.5 41.5t98.5 89.5l186 -141q-14 -26 -37 -54t-63.5 -61.5t-88.5 -59.5t-117 -43.5t-145 -17.5q-169 0 -297.5 72.5t-197 199
t-68.5 287.5zM350 649h461q-4 98 -68 157.5t-161 59.5t-160 -61t-72 -156zM688 1196l-100 145l-101 -145h-239l194 287h291l195 -287h-240z" />
    <glyph glyph-name="edieresis" unicode="&#xeb;" horiz-adv-x="1144" 
d="M53 532q0 160 67 289.5t187.5 203t270.5 73.5q247 0 383.5 -153.5t136.5 -418.5q0 -41 -2 -61h-754q5 -108 83 -177t196 -69q96 0 161.5 41.5t98.5 89.5l186 -141q-14 -26 -37 -54t-63.5 -61.5t-88.5 -59.5t-117 -43.5t-145 -17.5q-169 0 -297.5 72.5t-197 199
t-68.5 287.5zM350 649h461q-4 98 -68 157.5t-161 59.5t-160 -61t-72 -156zM393 1198q-61 0 -100 40t-39 99q0 58 39.5 99t99.5 41q59 0 99 -41t40 -99q0 -59 -39.5 -99t-99.5 -40zM786 1198q-62 0 -100.5 39.5t-38.5 99.5q0 59 38.5 99.5t100.5 40.5q59 0 99.5 -41t40.5 -99
q0 -59 -40 -99t-100 -40z" />
    <glyph glyph-name="igrave" unicode="&#xec;" 
d="M268 1485l138 -295h-236l-199 295h297zM111 0v1071h282v-1071h-282z" />
    <glyph glyph-name="iacute" unicode="&#xed;" 
d="M98 1190l138 295h296l-198 -295h-236zM111 0v1071h282v-1071h-282z" />
    <glyph glyph-name="icircumflex" unicode="&#xee;" 
d="M111 0v1071h282v-1071h-282zM360 1196l-100 145l-100 -145h-240l195 287h291l194 -287h-240z" />
    <glyph glyph-name="idieresis" unicode="&#xef;" 
d="M63 1198q-61 0 -100 40t-39 99q0 58 39.5 99t99.5 41q59 0 99.5 -41t40.5 -99q0 -59 -40 -99t-100 -40zM457 1198q-62 0 -101 40t-39 99q0 58 39 99t101 41q59 0 99 -41t40 -99q0 -59 -39.5 -99t-99.5 -40zM111 0v1071h282v-1071h-282z" />
    <glyph glyph-name="eth" unicode="&#xf0;" horiz-adv-x="1204" 
d="M51 512q0 150 69 268t184.5 181t254.5 63q67 0 121 -16q-47 73 -129 133l-326 -117l-24 178l186 70q-66 47 -174 110l162 142q131 -56 287 -158l270 102l26 -184l-143 -53q330 -295 330 -666q0 -95 -20 -181t-63.5 -161.5t-107 -130.5t-156 -87t-204.5 -32
q-162 0 -287 73t-190.5 195t-65.5 271zM334 512q0 -124 70 -207.5t188 -83.5q131 0 200.5 84t69.5 215q0 113 -72 193t-186 80q-126 0 -198 -79.5t-72 -201.5z" />
    <glyph glyph-name="ntilde" unicode="&#xf1;" horiz-adv-x="1146" 
d="M674 1098q88 0 155 -28.5t107 -74.5t65 -111t34 -128.5t9 -137.5v-618h-282v651q0 87 -52 140t-126 53q-86 0 -138.5 -56.5t-52.5 -144.5v-643h-282v1071h276v-125q38 62 114 107t173 45zM717 1202q-59 0 -142.5 38t-113.5 38q-31 0 -48.5 -20.5t-17.5 -57.5h-178
q0 123 62 199t163 76q48 0 97 -19t89 -38t66 -19q31 0 48.5 21t17.5 57h178q0 -126 -60.5 -200.5t-160.5 -74.5z" />
    <glyph glyph-name="ograve" unicode="&#xf2;" horiz-adv-x="1255" 
d="M51 532q0 160 75.5 290t207.5 203t293 73q162 0 294 -73.5t207.5 -203t75.5 -289.5q0 -243 -162.5 -401t-414.5 -158q-250 0 -413 158t-163 401zM334 532q0 -136 83 -222.5t210 -86.5q128 0 211.5 86.5t83.5 222.5q0 137 -84 226.5t-211 89.5q-128 0 -210.5 -89
t-82.5 -227zM627 1485l137 -295h-236l-198 295h297z" />
    <glyph glyph-name="oacute" unicode="&#xf3;" horiz-adv-x="1255" 
d="M51 532q0 160 75.5 290t207.5 203t293 73q162 0 294 -73.5t207.5 -203t75.5 -289.5q0 -243 -162.5 -401t-414.5 -158q-250 0 -413 158t-163 401zM334 532q0 -136 83 -222.5t210 -86.5q128 0 211.5 86.5t83.5 222.5q0 137 -84 226.5t-211 89.5q-128 0 -210.5 -89
t-82.5 -227zM477 1190l137 295h297l-198 -295h-236z" />
    <glyph glyph-name="ocircumflex" unicode="&#xf4;" horiz-adv-x="1255" 
d="M51 532q0 160 75.5 290t207.5 203t293 73q162 0 294 -73.5t207.5 -203t75.5 -289.5q0 -243 -162.5 -401t-414.5 -158q-250 0 -413 158t-163 401zM334 532q0 -136 83 -222.5t210 -86.5q128 0 211.5 86.5t83.5 222.5q0 137 -84 226.5t-211 89.5q-128 0 -210.5 -89
t-82.5 -227zM735 1196l-100 145l-100 -145h-240l194 287h291l195 -287h-240z" />
    <glyph glyph-name="otilde" unicode="&#xf5;" horiz-adv-x="1255" 
d="M51 532q0 160 75.5 290t207.5 203t293 73q162 0 294 -73.5t207.5 -203t75.5 -289.5q0 -243 -162.5 -401t-414.5 -158q-250 0 -413 158t-163 401zM334 532q0 -136 83 -222.5t210 -86.5q128 0 211.5 86.5t83.5 222.5q0 137 -84 226.5t-211 89.5q-128 0 -210.5 -89
t-82.5 -227zM770 1202q-59 0 -142.5 38t-113.5 38q-31 0 -48 -20.5t-17 -57.5h-179q0 123 62.5 199t163.5 76q48 0 97 -19t89 -38t66 -19q30 0 47.5 21t17.5 57h178q0 -126 -60.5 -200.5t-160.5 -74.5z" />
    <glyph glyph-name="odieresis" unicode="&#xf6;" horiz-adv-x="1255" 
d="M51 532q0 160 75.5 290t207.5 203t293 73q162 0 294 -73.5t207.5 -203t75.5 -289.5q0 -243 -162.5 -401t-414.5 -158q-250 0 -413 158t-163 401zM334 532q0 -136 83 -222.5t210 -86.5q128 0 211.5 86.5t83.5 222.5q0 137 -84 226.5t-211 89.5q-128 0 -210.5 -89
t-82.5 -227zM438 1198q-61 0 -100 40t-39 99q0 58 39.5 99t99.5 41q59 0 99.5 -41t40.5 -99q0 -59 -40 -99t-100 -40zM831 1198q-62 0 -100.5 39.5t-38.5 99.5q0 59 38.5 99.5t100.5 40.5q59 0 99.5 -41t40.5 -99q0 -59 -40 -99t-100 -40z" />
    <glyph glyph-name="divide" unicode="&#xf7;" horiz-adv-x="1128" 
d="M563 883q-61 0 -103 42t-42 101q0 62 42 106t103 44t104.5 -44t43.5 -106q0 -59 -43.5 -101t-104.5 -42zM563 100q-61 0 -103 43.5t-42 102.5q0 62 42 104.5t103 42.5q62 0 105 -43t43 -104q0 -59 -43.5 -102.5t-104.5 -43.5zM76 524v228h977v-228h-977z" />
    <glyph glyph-name="oslash" unicode="&#xf8;" horiz-adv-x="1255" 
d="M51 532q0 160 75.5 290t207.5 203t293 73q153 0 284 -70l78 98l135 -104l-75 -96q74 -77 114.5 -178t40.5 -216q0 -243 -162.5 -401t-414.5 -158q-153 0 -281 64l-80 -103l-133 105l76 96q-158 161 -158 397zM334 532q0 -104 47 -178l369 467q-62 27 -123 27
q-128 0 -210.5 -89t-82.5 -227zM922 532q0 99 -45 175l-365 -463q52 -21 115 -21q128 0 211.5 86.5t83.5 222.5z" />
    <glyph glyph-name="ugrave" unicode="&#xf9;" horiz-adv-x="1138" 
d="M473 -27q-88 0 -155.5 28.5t-107.5 74.5t-65 111t-34 128.5t-9 137.5v618h283v-651q0 -87 52 -140t126 -53q86 0 138.5 56.5t52.5 144.5v643h282v-1071h-276v125q-38 -62 -114 -107t-173 -45zM590 1485l137 -295h-235l-199 295h297z" />
    <glyph glyph-name="uacute" unicode="&#xfa;" horiz-adv-x="1138" 
d="M473 -27q-88 0 -155.5 28.5t-107.5 74.5t-65 111t-34 128.5t-9 137.5v618h283v-651q0 -87 52 -140t126 -53q86 0 138.5 56.5t52.5 144.5v643h282v-1071h-276v125q-38 -62 -114 -107t-173 -45zM424 1190l137 295h297l-199 -295h-235z" />
    <glyph glyph-name="ucircumflex" unicode="&#xfb;" horiz-adv-x="1138" 
d="M473 -27q-88 0 -155.5 28.5t-107.5 74.5t-65 111t-34 128.5t-9 137.5v618h283v-651q0 -87 52 -140t126 -53q86 0 138.5 56.5t52.5 144.5v643h282v-1071h-276v125q-38 -62 -114 -107t-173 -45zM676 1196l-101 145l-100 -145h-239l194 287h291l194 -287h-239z" />
    <glyph glyph-name="udieresis" unicode="&#xfc;" horiz-adv-x="1138" 
d="M473 -27q-88 0 -155.5 28.5t-107.5 74.5t-65 111t-34 128.5t-9 137.5v618h283v-651q0 -87 52 -140t126 -53q86 0 138.5 56.5t52.5 144.5v643h282v-1071h-276v125q-38 -62 -114 -107t-173 -45zM385 1198q-61 0 -100 40t-39 99q0 58 39.5 99t99.5 41q59 0 99 -41t40 -99
q0 -59 -39.5 -99t-99.5 -40zM778 1198q-62 0 -100.5 39.5t-38.5 99.5q0 59 38.5 99.5t100.5 40.5q59 0 99.5 -41t40.5 -99q0 -59 -40 -99t-100 -40z" />
    <glyph glyph-name="yacute" unicode="&#xfd;" horiz-adv-x="1105" 
d="M545 -367h-271l150 394l-412 1044h303l240 -698l242 698h295zM416 1190l137 295h297l-199 -295h-235z" />
    <glyph glyph-name="thorn" unicode="&#xfe;" horiz-adv-x="1271" 
d="M111 -383v1864h282v-506q117 123 301 123q230 0 377.5 -157.5t147.5 -403.5q0 -251 -139.5 -407.5t-368.5 -156.5q-64 0 -122 16t-97 40.5t-62.5 44.5t-36.5 37v-494h-282zM385 539q0 -147 77 -231.5t197 -84.5q123 0 199 88t76 228t-77 224.5t-198 84.5
q-125 0 -199.5 -88.5t-74.5 -220.5z" />
    <glyph glyph-name="ydieresis" unicode="&#xff;" horiz-adv-x="1105" 
d="M545 -367h-271l150 394l-412 1044h303l240 -698l242 698h295zM360 1198q-61 0 -100 40t-39 99q0 58 39.5 99t99.5 41q59 0 99.5 -41t40.5 -99q0 -59 -40 -99t-100 -40zM754 1198q-62 0 -101 40t-39 99q0 58 39 99t101 41q59 0 99 -41t40 -99q0 -59 -39.5 -99t-99.5 -40z
" />
    <glyph glyph-name="Amacron" unicode="&#x100;" horiz-adv-x="1351" 
d="M920 369h-488l-125 -369h-291l508 1434h303l508 -1434h-291zM844 608l-168 516l-166 -516h334zM401 1538v207h549v-207h-549z" />
    <glyph glyph-name="amacron" unicode="&#x101;" horiz-adv-x="1077" 
d="M49 332q0 159 114.5 256.5t301.5 97.5q75 0 136 -17.5t95 -41.5v69q0 72 -51 115t-143 43q-137 0 -285 -76l-106 193q78 54 191.5 90.5t229.5 36.5q125 0 214 -31t139 -89.5t72 -131.5t22 -168v-678h-250l-18 70q-90 -97 -260 -97q-169 0 -285.5 98t-116.5 261zM332 340
q0 -65 53 -106t133 -41q81 0 132.5 40t51.5 107q0 69 -51.5 109t-134.5 40q-82 0 -133 -41.5t-51 -107.5zM272 1235v207h549v-207h-549z" />
    <glyph glyph-name="Abreve" unicode="&#x102;" horiz-adv-x="1351" 
d="M920 369h-488l-125 -369h-291l508 1434h303l508 -1434h-291zM844 608l-168 516l-166 -516h334zM676 1518q-145 0 -227 81t-82 211h202q0 -55 24.5 -91t82.5 -36q108 0 108 127h203q0 -131 -82 -211.5t-229 -80.5z" />
    <glyph glyph-name="abreve" unicode="&#x103;" horiz-adv-x="1077" 
d="M49 332q0 159 114.5 256.5t301.5 97.5q75 0 136 -17.5t95 -41.5v69q0 72 -51 115t-143 43q-137 0 -285 -76l-106 193q78 54 191.5 90.5t229.5 36.5q125 0 214 -31t139 -89.5t72 -131.5t22 -168v-678h-250l-18 70q-90 -97 -260 -97q-169 0 -285.5 98t-116.5 261zM332 340
q0 -65 53 -106t133 -41q81 0 132.5 40t51.5 107q0 69 -51.5 109t-134.5 40q-82 0 -133 -41.5t-51 -107.5zM535 1190q-145 0 -227.5 81.5t-82.5 211.5h203q0 -55 24.5 -91t82.5 -36q108 0 108 127h203q0 -131 -82 -212t-229 -81z" />
    <glyph glyph-name="Aogonek" unicode="&#x104;" horiz-adv-x="1351" 
d="M989 -221q0 77 49.5 135t108.5 86h-103l-124 369h-488l-125 -369h-291l508 1434h303l508 -1434q-13 -5 -28.5 -14t-36 -25t-34 -40.5t-13.5 -51.5q0 -38 32.5 -60t73.5 -22v-201q-28 -8 -72 -8q-52 0 -96 9t-84.5 30t-64 62.5t-23.5 99.5zM844 608l-168 516l-166 -516
h334z" />
    <glyph glyph-name="aogonek" unicode="&#x105;" horiz-adv-x="1077" 
d="M633 -221q0 77 49.5 135t108.5 86h-62l-18 70q-90 -97 -260 -97q-169 0 -285.5 98t-116.5 261q0 159 114.5 256.5t301.5 97.5q75 0 136 -17.5t95 -41.5v69q0 72 -51 115t-143 43q-137 0 -285 -76l-106 193q78 54 191.5 90.5t229.5 36.5q125 0 214 -31t139 -89.5
t72 -131.5t22 -168v-678q-13 -5 -28.5 -14t-36.5 -25t-34.5 -40.5t-13.5 -51.5q0 -38 33 -60t74 -22v-201q-28 -8 -72 -8q-52 0 -96 9t-84.5 30t-64 62.5t-23.5 99.5zM332 340q0 -65 53 -106t133 -41q81 0 132.5 40t51.5 107q0 69 -51.5 109t-134.5 40q-82 0 -133 -41.5
t-51 -107.5z" />
    <glyph glyph-name="Cacute" unicode="&#x106;" horiz-adv-x="1306" 
d="M809 -27q-220 0 -391.5 98t-264 267t-92.5 379q0 156 56.5 293.5t155 236.5t238 156t298.5 57q249 0 426 -131l-82 -254q-66 46 -156 80.5t-188 34.5q-194 0 -320.5 -135t-126.5 -338q0 -206 126 -339.5t321 -133.5q188 0 356 116l82 -251q-186 -136 -438 -136zM621 1511
l137 295h297l-199 -295h-235z" />
    <glyph glyph-name="cacute" unicode="&#x107;" horiz-adv-x="1003" 
d="M639 223q126 0 242 96l75 -231q-143 -115 -333 -115q-250 0 -411 157t-161 402q0 161 74 290.5t204.5 202.5t291.5 73q185 0 337 -115l-79 -238q-113 103 -250 103q-133 0 -214 -90t-81 -223q0 -137 86 -224.5t219 -87.5zM438 1190l137 295h297l-198 -295h-236z" />
    <glyph glyph-name="Ccircumflex" unicode="&#x108;" horiz-adv-x="1306" 
d="M809 -27q-220 0 -391.5 98t-264 267t-92.5 379q0 156 56.5 293.5t155 236.5t238 156t298.5 57q249 0 426 -131l-82 -254q-66 46 -156 80.5t-188 34.5q-194 0 -320.5 -135t-126.5 -338q0 -206 126 -339.5t321 -133.5q188 0 356 116l82 -251q-186 -136 -438 -136zM903 1513
l-100 146l-101 -146h-239l194 287h291l195 -287h-240z" />
    <glyph glyph-name="ccircumflex" unicode="&#x109;" horiz-adv-x="1003" 
d="M639 223q126 0 242 96l75 -231q-143 -115 -333 -115q-250 0 -411 157t-161 402q0 161 74 290.5t204.5 202.5t291.5 73q185 0 337 -115l-79 -238q-113 103 -250 103q-133 0 -214 -90t-81 -223q0 -137 86 -224.5t219 -87.5zM711 1196l-101 145l-100 -145h-240l195 287h291
l194 -287h-239z" />
    <glyph glyph-name="Cdotaccent" unicode="&#x10a;" horiz-adv-x="1306" 
d="M809 -27q-220 0 -391.5 98t-264 267t-92.5 379q0 156 56.5 293.5t155 236.5t238 156t298.5 57q249 0 426 -131l-82 -254q-66 46 -156 80.5t-188 34.5q-194 0 -320.5 -135t-126.5 -338q0 -206 126 -339.5t321 -133.5q188 0 356 116l82 -251q-186 -136 -438 -136zM645 1657
q0 69 47.5 115.5t116.5 46.5q71 0 118.5 -46.5t47.5 -115.5t-47.5 -115.5t-118.5 -46.5q-69 0 -116.5 46.5t-47.5 115.5z" />
    <glyph glyph-name="cdotaccent" unicode="&#x10b;" horiz-adv-x="1003" 
d="M637 223q126 0 242 96l75 -231q-143 -115 -333 -115q-250 0 -411 157t-161 402q0 244 162 405t407 161q186 0 338 -115l-79 -238q-113 103 -250 103q-133 0 -214 -90t-81 -223q0 -137 86 -224.5t219 -87.5zM453 1329q0 69 47 115.5t116 46.5q71 0 118.5 -46.5
t47.5 -115.5t-47.5 -115.5t-118.5 -46.5q-69 0 -116 46.5t-47 115.5z" />
    <glyph glyph-name="Ccaron" unicode="&#x10c;" horiz-adv-x="1306" 
d="M809 -27q-220 0 -391.5 98t-264 267t-92.5 379q0 156 56.5 293.5t155 236.5t238 156t298.5 57q249 0 426 -131l-82 -254q-66 46 -156 80.5t-188 34.5q-194 0 -320.5 -135t-126.5 -338q0 -206 126 -339.5t321 -133.5q188 0 356 116l82 -251q-186 -136 -438 -136zM803 1655
l100 145h240l-195 -287h-291l-194 287h239z" />
    <glyph glyph-name="ccaron" unicode="&#x10d;" horiz-adv-x="1003" 
d="M639 223q126 0 242 96l75 -231q-143 -115 -333 -115q-250 0 -411 157t-161 402q0 161 74 290.5t204.5 202.5t291.5 73q185 0 337 -115l-79 -238q-113 103 -250 103q-133 0 -214 -90t-81 -223q0 -137 86 -224.5t219 -87.5zM604 1337l101 146h239l-194 -287h-291l-195 287
h240z" />
    <glyph glyph-name="Dcaron" unicode="&#x10e;" horiz-adv-x="1341" 
d="M137 0v1434h381q353 0 556.5 -190.5t203.5 -526.5q0 -341 -203 -529t-557 -188h-381zM426 250h102q209 0 329 120t120 347q0 222 -121 343.5t-328 121.5h-102v-932zM575 1655l101 145h239l-194 -287h-291l-194 287h239z" />
    <glyph glyph-name="dcaron" unicode="&#x10f;" horiz-adv-x="1269" 
d="M1225 1124l14 357h266l-94 -357h-186zM1159 1481v-1481h-266v111q-15 -18 -38 -37t-62.5 -44t-96.5 -41t-121 -16q-230 0 -377 157.5t-147 404.5q0 250 139.5 406.5t368.5 156.5q64 0 122 -16t97 -40.5t62.5 -45t36.5 -38.5v523h282zM885 532q0 147 -77.5 231.5
t-197.5 84.5q-123 0 -198.5 -88t-75.5 -228q0 -141 76 -225t198 -84q125 0 200 88.5t75 220.5z" />
    <glyph glyph-name="Dcroat" unicode="&#x110;" horiz-adv-x="1361" 
d="M45 594v254h115v586h379q354 0 556.5 -190.5t202.5 -526.5q0 -341 -202.5 -529t-556.5 -188h-379v594h-115zM449 250h102q207 0 327.5 120t120.5 347q0 222 -121 343.5t-327 121.5h-102v-334h223v-254h-223v-344z" />
    <glyph glyph-name="dcroat" unicode="&#x111;" horiz-adv-x="1269" 
d="M1159 1481v-133h119v-183h-119v-1165h-266v111q-15 -18 -38 -37t-62.5 -44t-96.5 -41t-121 -16q-230 0 -377 157.5t-147 404.5q0 250 139.5 406.5t368.5 156.5q64 0 122 -16t97 -40.5t62.5 -45t36.5 -38.5v207h-261v183h261v133h282zM885 532q0 147 -77.5 231.5
t-197.5 84.5q-123 0 -198.5 -88t-75.5 -228q0 -141 76 -225t198 -84q125 0 200 88.5t75 220.5z" />
    <glyph glyph-name="Emacron" unicode="&#x112;" horiz-adv-x="985" 
d="M137 0v1434h737v-260h-448v-320h385v-256h-385v-340h467v-258h-756zM246 1538v207h549v-207h-549z" />
    <glyph glyph-name="emacron" unicode="&#x113;" horiz-adv-x="1144" 
d="M53 532q0 160 67 289.5t187.5 203t270.5 73.5q247 0 383.5 -153.5t136.5 -418.5q0 -41 -2 -61h-754q5 -108 83 -177t196 -69q96 0 161.5 41.5t98.5 89.5l186 -141q-14 -26 -37 -54t-63.5 -61.5t-88.5 -59.5t-117 -43.5t-145 -17.5q-169 0 -297.5 72.5t-197 199
t-68.5 287.5zM350 649h461q-4 98 -68 157.5t-161 59.5t-160 -61t-72 -156zM317 1235v207h549v-207h-549z" />
    <glyph glyph-name="Ebreve" unicode="&#x114;" horiz-adv-x="985" 
d="M137 0v1434h737v-260h-448v-320h385v-256h-385v-340h467v-258h-756zM512 1518q-145 0 -227 81t-82 211h203q0 -127 106 -127q109 0 109 127h202q0 -131 -82 -211.5t-229 -80.5z" />
    <glyph glyph-name="ebreve" unicode="&#x115;" horiz-adv-x="1144" 
d="M53 532q0 160 67 289.5t187.5 203t270.5 73.5q247 0 383.5 -153.5t136.5 -418.5q0 -41 -2 -61h-754q5 -108 83 -177t196 -69q96 0 161.5 41.5t98.5 89.5l186 -141q-14 -26 -37 -54t-63.5 -61.5t-88.5 -59.5t-117 -43.5t-145 -17.5q-169 0 -297.5 72.5t-197 199
t-68.5 287.5zM350 649h461q-4 98 -68 157.5t-161 59.5t-160 -61t-72 -156zM578 1190q-145 0 -227.5 81.5t-82.5 211.5h203q0 -55 24.5 -91t82.5 -36q108 0 108 127h203q0 -131 -82 -212t-229 -81z" />
    <glyph glyph-name="Edotaccent" unicode="&#x116;" horiz-adv-x="985" 
d="M137 0v1434h737v-260h-448v-320h385v-256h-385v-340h467v-258h-756zM362 1657q0 69 47.5 115.5t116.5 46.5q71 0 118.5 -46.5t47.5 -115.5t-47.5 -115.5t-118.5 -46.5q-69 0 -116.5 46.5t-47.5 115.5z" />
    <glyph glyph-name="edotaccent" unicode="&#x117;" horiz-adv-x="1144" 
d="M53 532q0 160 67 289.5t187.5 203t270.5 73.5q247 0 383.5 -153.5t136.5 -418.5q0 -41 -2 -61h-754q5 -108 83 -177t196 -69q96 0 161.5 41.5t98.5 89.5l186 -141q-14 -26 -37 -54t-63.5 -61.5t-88.5 -59.5t-117 -43.5t-145 -17.5q-169 0 -297.5 72.5t-197 199
t-68.5 287.5zM350 649h461q-4 98 -68 157.5t-161 59.5t-160 -61t-72 -156zM422 1329q0 69 47.5 115.5t116.5 46.5q71 0 118.5 -46.5t47.5 -115.5t-47.5 -115.5t-118.5 -46.5q-69 0 -116.5 46.5t-47.5 115.5z" />
    <glyph glyph-name="Eogonek" unicode="&#x118;" horiz-adv-x="985" 
d="M137 0v1434h737v-260h-448v-320h385v-256h-385v-340h467v-258q-13 -5 -28.5 -14t-36.5 -25t-34.5 -40.5t-13.5 -51.5q0 -38 33 -60t74 -22v-201q-28 -8 -72 -8q-52 0 -96 9t-84.5 30t-64 62.5t-23.5 99.5q0 77 49.5 135t108.5 86h-568z" />
    <glyph glyph-name="eogonek" unicode="&#x119;" horiz-adv-x="1144" 
d="M524 -221q0 114 113 194h-21q-169 0 -297.5 72.5t-197 199t-68.5 287.5q0 160 67 289.5t187.5 203t270.5 73.5q247 0 383.5 -153.5t136.5 -418.5q0 -41 -2 -61h-754q5 -108 83 -177t196 -69q96 0 161.5 41.5t98.5 89.5l186 -141q-53 -89 -156 -156q-77 -50 -115 -90
t-38 -90q0 -39 32 -62.5t74 -23.5v-201q-28 -8 -71 -8q-52 0 -96.5 9t-85 30t-64 62.5t-23.5 99.5zM350 649h461q-4 98 -68 157.5t-161 59.5t-160 -61t-72 -156z" />
    <glyph glyph-name="Ecaron" unicode="&#x11a;" horiz-adv-x="985" 
d="M137 0v1434h737v-260h-448v-320h385v-256h-385v-340h467v-258h-756zM530 1655l101 145h239l-194 -287h-291l-195 287h240z" />
    <glyph glyph-name="ecaron" unicode="&#x11b;" horiz-adv-x="1144" 
d="M53 532q0 160 67 289.5t187.5 203t270.5 73.5q247 0 383.5 -153.5t136.5 -418.5q0 -41 -2 -61h-754q5 -108 83 -177t196 -69q96 0 161.5 41.5t98.5 89.5l186 -141q-14 -26 -37 -54t-63.5 -61.5t-88.5 -59.5t-117 -43.5t-145 -17.5q-169 0 -297.5 72.5t-197 199
t-68.5 287.5zM350 649h461q-4 98 -68 157.5t-161 59.5t-160 -61t-72 -156zM582 1337l100 146h240l-195 -287h-291l-194 287h239z" />
    <glyph glyph-name="Gcircumflex" unicode="&#x11c;" horiz-adv-x="1529" 
d="M805 1460q106 0 203 -24t166.5 -62.5t116.5 -75.5t79 -75l-182 -189q-21 23 -49 45.5t-74 50.5t-111 45t-137 17q-206 0 -330.5 -135.5t-124.5 -339.5q0 -215 128.5 -344t326.5 -129q131 0 218.5 37t125.5 75v176h-272v244h543v-567q-64 -55 -122.5 -93.5t-134.5 -73
t-168.5 -52t-201.5 -17.5q-121 0 -233 33.5t-204.5 98.5t-161.5 154t-107 207t-38 251q0 153 55.5 289.5t152.5 236.5t236.5 158.5t299.5 58.5zM913 1513l-100 146l-100 -146h-240l195 287h290l195 -287h-240z" />
    <glyph glyph-name="gcircumflex" unicode="&#x11d;" horiz-adv-x="1259" 
d="M188 -295l86 217q27 -14 62.5 -28t106 -30t137.5 -16q62 0 112 10.5t92.5 33.5t66 66t23.5 103v50q-12 -16 -34 -35.5t-60 -44.5t-96 -41.5t-123 -16.5q-230 0 -371 156.5t-141 405.5q0 247 146.5 405t375.5 158q63 0 120.5 -15.5t96.5 -39.5t64 -45t39 -40v113h266v-936
q0 -117 -30 -208t-81.5 -150.5t-125.5 -98t-157 -55t-181 -16.5q-105 0 -211 28t-183 70zM883 537q0 137 -76.5 224t-200.5 87q-121 0 -196.5 -85.5t-75.5 -225.5t76.5 -227t197.5 -87q123 0 199 86t76 228zM731 1196l-100 145l-101 -145h-239l194 287h291l195 -287h-240z
" />
    <glyph glyph-name="Gbreve" unicode="&#x11e;" horiz-adv-x="1529" 
d="M805 1460q106 0 203 -24t166.5 -62.5t116.5 -75.5t79 -75l-182 -189q-21 23 -49 45.5t-74 50.5t-111 45t-137 17q-206 0 -330.5 -135.5t-124.5 -339.5q0 -215 128.5 -344t326.5 -129q131 0 218.5 37t125.5 75v176h-272v244h543v-567q-64 -55 -122.5 -93.5t-134.5 -73
t-168.5 -52t-201.5 -17.5q-121 0 -233 33.5t-204.5 98.5t-161.5 154t-107 207t-38 251q0 153 55.5 289.5t152.5 236.5t236.5 158.5t299.5 58.5zM809 1518q-145 0 -227 81t-82 211h202q0 -55 24.5 -91t82.5 -36q109 0 109 127h202q0 -131 -82 -211.5t-229 -80.5z" />
    <glyph glyph-name="gbreve" unicode="&#x11f;" horiz-adv-x="1259" 
d="M188 -295l86 217q27 -14 62.5 -28t106 -30t137.5 -16q62 0 112 10.5t92.5 33.5t66 66t23.5 103v50q-12 -16 -34 -35.5t-60 -44.5t-96 -41.5t-123 -16.5q-230 0 -371 156.5t-141 405.5q0 247 146.5 405t375.5 158q63 0 120.5 -15.5t96.5 -39.5t64 -45t39 -40v113h266v-936
q0 -117 -30 -208t-81.5 -150.5t-125.5 -98t-157 -55t-181 -16.5q-105 0 -211 28t-183 70zM883 537q0 137 -76.5 224t-200.5 87q-121 0 -196.5 -85.5t-75.5 -225.5t76.5 -227t197.5 -87q123 0 199 86t76 228zM627 1190q-145 0 -227.5 81.5t-82.5 211.5h203q0 -55 24.5 -91
t82.5 -36q108 0 108 127h203q0 -131 -82 -212t-229 -81z" />
    <glyph glyph-name="Gdotaccent" unicode="&#x120;" horiz-adv-x="1529" 
d="M805 1460q106 0 203 -24t166.5 -62.5t116.5 -75.5t79 -75l-182 -189q-21 23 -49 45.5t-74 50.5t-111 45t-137 17q-206 0 -330.5 -135.5t-124.5 -339.5q0 -215 128.5 -344t326.5 -129q131 0 218.5 37t125.5 75v176h-272v244h543v-567q-64 -55 -122.5 -93.5t-134.5 -73
t-168.5 -52t-201.5 -17.5q-121 0 -233 33.5t-204.5 98.5t-161.5 154t-107 207t-38 251q0 153 55.5 289.5t152.5 236.5t236.5 158.5t299.5 58.5zM653 1657q0 69 47.5 115.5t116.5 46.5q71 0 118.5 -46.5t47.5 -115.5t-47.5 -115.5t-118.5 -46.5q-69 0 -116.5 46.5
t-47.5 115.5z" />
    <glyph glyph-name="gdotaccent" unicode="&#x121;" horiz-adv-x="1259" 
d="M188 -295l86 217q27 -14 62.5 -28t106 -30t137.5 -16q62 0 112 10.5t92.5 33.5t66 66t23.5 103v50q-12 -16 -34 -35.5t-60 -44.5t-96 -41.5t-123 -16.5q-230 0 -371 156.5t-141 405.5q0 247 146.5 405t375.5 158q63 0 120.5 -15.5t96.5 -39.5t64 -45t39 -40v113h266v-936
q0 -117 -30 -208t-81.5 -150.5t-125.5 -98t-157 -55t-181 -16.5q-105 0 -211 28t-183 70zM883 537q0 137 -76.5 224t-200.5 87q-121 0 -196.5 -85.5t-75.5 -225.5t76.5 -227t197.5 -87q123 0 199 86t76 228zM465 1329q0 69 47.5 115.5t116.5 46.5q71 0 118.5 -46.5
t47.5 -115.5t-47.5 -115.5t-118.5 -46.5q-69 0 -116.5 46.5t-47.5 115.5z" />
    <glyph glyph-name="Gcommaaccent" unicode="&#x122;" horiz-adv-x="1529" 
d="M805 1460q106 0 203 -24t166.5 -62.5t116.5 -75.5t79 -75l-182 -189q-21 23 -49 45.5t-74 50.5t-111 45t-137 17q-206 0 -330.5 -135.5t-124.5 -339.5q0 -215 128.5 -344t326.5 -129q131 0 218.5 37t125.5 75v176h-272v244h543v-567q-64 -55 -122.5 -93.5t-134.5 -73
t-168.5 -52t-201.5 -17.5q-121 0 -233 33.5t-204.5 98.5t-161.5 154t-107 207t-38 251q0 153 55.5 289.5t152.5 236.5t236.5 158.5t299.5 58.5zM694 -492q84 65 101 134q-57 11 -89 53.5t-32 93.5q0 63 45 107.5t108 44.5q70 0 115 -49t45 -128q0 -108 -53.5 -204
t-140.5 -156z" />
    <glyph glyph-name="gcommaaccent" unicode="&#x123;" horiz-adv-x="1259" 
d="M188 -295l86 217q27 -14 62.5 -28t106 -30t137.5 -16q62 0 112 10.5t92.5 33.5t66 66t23.5 103v50q-12 -16 -34 -35.5t-60 -44.5t-96 -41.5t-123 -16.5q-230 0 -371 156.5t-141 405.5q0 247 146.5 405t375.5 158q63 0 120.5 -15.5t96.5 -39.5t64 -45t39 -40v113h266v-936
q0 -117 -30 -208t-81.5 -150.5t-125.5 -98t-157 -55t-181 -16.5q-105 0 -211 28t-183 70zM883 537q0 137 -76.5 224t-200.5 87q-121 0 -196.5 -85.5t-75.5 -225.5t76.5 -227t197.5 -87q123 0 199 86t76 228zM756 1602q-84 -65 -101 -134q57 -11 89 -53.5t32 -93.5
q0 -63 -45 -107.5t-108 -44.5q-70 0 -115 49t-45 128q0 108 53.5 204t140.5 156z" />
    <glyph glyph-name="Hcircumflex" unicode="&#x124;" horiz-adv-x="1447" 
d="M137 0v1434h289v-582h596v582h289v-1434h-289v592h-596v-592h-289zM834 1513l-101 146l-100 -146h-240l195 287h291l194 -287h-239z" />
    <glyph glyph-name="hcircumflex" unicode="&#x125;" horiz-adv-x="1150" 
d="M676 1098q64 0 117 -15t91 -40.5t67 -62.5t47 -77.5t29 -90t15.5 -96t4.5 -98.5v-618h-281v651q0 87 -52 140t-126 53q-88 0 -141.5 -56.5t-53.5 -144.5v-643h-282v1481h282v-535q38 63 112 107.5t171 44.5zM709 1513l-101 146l-100 -146h-240l195 287h291l194 -287h-239
z" />
    <glyph glyph-name="Hbar" unicode="&#x126;" horiz-adv-x="1447" 
d="M137 0v1047h-117v196h117v191h289v-191h596v191h289v-191h119v-196h-119v-1047h-289v592h-596v-592h-289zM426 852h596v195h-596v-195z" />
    <glyph glyph-name="hbar" unicode="&#x127;" horiz-adv-x="1150" 
d="M676 1098q64 0 117 -15t91 -40.5t67 -62.5t47 -77.5t29 -90t15.5 -96t4.5 -98.5v-618h-281v651q0 87 -52 140t-126 53q-88 0 -141.5 -56.5t-53.5 -144.5v-643h-282v1178h-105v180h105v123h282v-123h266v-180h-266v-232q38 63 112 107.5t171 44.5z" />
    <glyph glyph-name="Itilde" unicode="&#x128;" horiz-adv-x="563" 
d="M137 0v1434h289v-1434h-289zM424 1524q-59 0 -142.5 37.5t-113.5 37.5q-31 0 -48.5 -20t-17.5 -57h-178q0 123 62.5 198.5t163.5 75.5q48 0 97 -19t88.5 -38t65.5 -19q31 0 48.5 21t17.5 57h178q0 -125 -60.5 -199.5t-160.5 -74.5z" />
    <glyph glyph-name="itilde" unicode="&#x129;" horiz-adv-x="503" 
d="M395 1202q-59 0 -142.5 38t-113.5 38q-31 0 -48 -20.5t-17 -57.5h-178q0 123 62 199t163 76q48 0 97 -19t89 -38t66 -19q30 0 47.5 21t17.5 57h178q0 -126 -60.5 -200.5t-160.5 -74.5zM111 0v1071h282v-1071h-282z" />
    <glyph glyph-name="Imacron" unicode="&#x12a;" horiz-adv-x="563" 
d="M137 0v1434h289v-1434h-289zM8 1538v207h549v-207h-549z" />
    <glyph glyph-name="imacron" unicode="&#x12b;" 
d="M-20 1235v207h548v-207h-548zM111 0v1071h282v-1071h-282z" />
    <glyph glyph-name="Ibreve" unicode="&#x12c;" horiz-adv-x="563" 
d="M137 0v1434h289v-1434h-289zM287 1518q-145 0 -227.5 81t-82.5 211h203q0 -55 24.5 -91t82.5 -36q108 0 108 127h203q0 -131 -82 -211.5t-229 -80.5z" />
    <glyph glyph-name="ibreve" unicode="&#x12d;" horiz-adv-x="503" 
d="M258 1190q-145 0 -227 81t-82 212h203q0 -127 106 -127q109 0 109 127h202q0 -131 -82 -212t-229 -81zM111 0v1071h282v-1071h-282z" />
    <glyph glyph-name="Iogonek" unicode="&#x12e;" horiz-adv-x="563" 
d="M137 0v1434h289v-1434q-13 -5 -28.5 -14t-36.5 -25t-34.5 -40.5t-13.5 -51.5q0 -38 33 -60t74 -22v-201q-28 -8 -72 -8q-52 0 -96 9t-84.5 30t-64 62.5t-23.5 99.5q0 77 49.5 135t108.5 86h-101z" />
    <glyph glyph-name="iogonek" unicode="&#x12f;" 
d="M111 0v1071h282v-1071q-13 -5 -28.5 -14t-36 -25t-34 -40.5t-13.5 -51.5q0 -38 32.5 -60t73.5 -22v-201q-28 -8 -72 -8q-52 0 -96 9t-84.5 30t-64 62.5t-23.5 99.5q0 77 49.5 135t108.5 86h-94zM86 1329q0 69 47.5 115.5t116.5 46.5q71 0 118.5 -46.5t47.5 -115.5
t-47.5 -115.5t-118.5 -46.5q-69 0 -116.5 46.5t-47.5 115.5z" />
    <glyph glyph-name="Idotaccent" unicode="&#x130;" horiz-adv-x="563" 
d="M137 0v1434h289v-1434h-289zM123 1657q0 69 47.5 115.5t116.5 46.5q71 0 118.5 -46.5t47.5 -115.5t-47.5 -115.5t-118.5 -46.5q-69 0 -116.5 46.5t-47.5 115.5z" />
    <glyph glyph-name="dotlessi" unicode="&#x131;" 
d="M111 0v1071h282v-1071h-282z" />
    <glyph glyph-name="IJ" unicode="&#x132;" horiz-adv-x="1329" 
d="M137 0v1434h289v-1434h-289zM606 8l33 256q96 -12 119 -12q72 0 108.5 41t36.5 115v1026h289v-1078q0 -97 -30.5 -169.5t-85.5 -115t-125 -63t-156 -20.5q-94 0 -189 20z" />
    <glyph glyph-name="ij" unicode="&#x133;" horiz-adv-x="1011" 
d="M111 0v1071h282v-1071h-282zM86 1329q0 69 47.5 115.5t116.5 46.5q71 0 118.5 -46.5t47.5 -115.5t-47.5 -115.5t-118.5 -46.5q-69 0 -116.5 46.5t-47.5 115.5zM616 -2v1073h283v-1085q0 -103 -31 -178t-88 -117.5t-129 -62t-162 -19.5l-69 4v240q29 -5 49 -5
q147 0 147 150zM592 1329q0 69 47.5 115.5t116.5 46.5q71 0 118.5 -46.5t47.5 -115.5t-47.5 -115.5t-118.5 -46.5q-69 0 -116.5 46.5t-47.5 115.5z" />
    <glyph glyph-name="Jcircumflex" unicode="&#x134;" horiz-adv-x="765" 
d="M41 8l33 256q96 -12 119 -12q72 0 108.5 41t36.5 115v1026h289v-1078q0 -97 -30.5 -169.5t-86 -115t-125.5 -63t-156 -20.5q-93 0 -188 20zM561 1513l-100 146l-101 -146h-239l194 287h291l195 -287h-240z" />
    <glyph glyph-name="jcircumflex" unicode="&#x135;" 
d="M111 -2v1073h282v-1085q0 -103 -31 -178t-87.5 -117.5t-128.5 -62t-162 -19.5l-70 4v240q29 -5 49 -5q148 0 148 150zM356 1196l-100 145l-100 -145h-240l195 287h290l195 -287h-240z" />
    <glyph glyph-name="Kcommaaccent" unicode="&#x136;" horiz-adv-x="1259" 
d="M137 0v1434h289v-656l473 656h324l-516 -686l532 -748h-332l-481 696v-696h-289zM512 -492q82 65 100 134q-57 11 -88.5 53.5t-31.5 93.5q0 63 45 107.5t108 44.5q70 0 115 -49t45 -128q0 -107 -54 -203.5t-141 -156.5z" />
    <glyph glyph-name="kcommaaccent" unicode="&#x137;" horiz-adv-x="1089" 
d="M111 0v1481h282v-860l344 450h318l-377 -485l405 -586h-331l-359 553v-553h-282zM418 -492q82 65 100 134q-57 11 -89 53.5t-32 93.5q0 63 45.5 107.5t108.5 44.5q70 0 115 -49t45 -128q0 -107 -54 -203.5t-141 -156.5z" />
    <glyph glyph-name="kgreenlandic" unicode="&#x138;" horiz-adv-x="1089" 
d="M111 0v1071h282v-461l344 461h318l-377 -496l405 -575h-331l-359 543v-543h-282z" />
    <glyph glyph-name="Lacute" unicode="&#x139;" horiz-adv-x="931" 
d="M137 0v1434h289v-1174h467v-260h-756zM164 1511l137 295h297l-199 -295h-235z" />
    <glyph glyph-name="lacute" unicode="&#x13a;" 
d="M111 0v1481h282v-1481h-282zM121 1536l137 295h297l-199 -295h-235z" />
    <glyph glyph-name="Lcommaaccent" unicode="&#x13b;" horiz-adv-x="931" 
d="M137 0v1434h289v-1174h467v-260h-756zM379 -492q82 65 100 134q-57 11 -89 53.5t-32 93.5q0 63 45.5 107.5t108.5 44.5q70 0 115 -49t45 -128q0 -107 -54 -203.5t-141 -156.5z" />
    <glyph glyph-name="lcommaaccent" unicode="&#x13c;" 
d="M111 0v1481h282v-1481h-282zM115 -492q82 65 100 134q-57 11 -89 53.5t-32 93.5q0 63 45.5 107.5t108.5 44.5q70 0 115 -49t45 -128q0 -107 -54 -203.5t-141 -156.5z" />
    <glyph glyph-name="Lcaron" unicode="&#x13d;" horiz-adv-x="931" 
d="M563 1077l15 357h266l-94 -357h-187zM137 0v1434h289v-1174h467v-260h-756z" />
    <glyph glyph-name="lcaron" unicode="&#x13e;" 
d="M459 1124l14 357h266l-94 -357h-186zM111 0v1481h282v-1481h-282z" />
    <glyph glyph-name="Ldot" unicode="&#x13f;" horiz-adv-x="931" 
d="M137 0v1434h289v-1174h467v-260h-756zM735 580q-73 0 -123.5 50.5t-50.5 121.5q0 73 50.5 124.5t123.5 51.5t123.5 -51.5t50.5 -124.5q0 -71 -50.5 -121.5t-123.5 -50.5z" />
    <glyph glyph-name="ldot" unicode="&#x140;" horiz-adv-x="825" 
d="M111 0v1481h282v-1481h-282zM643 551q-73 0 -123.5 50.5t-50.5 121.5q0 73 50.5 124.5t123.5 51.5t123.5 -51.5t50.5 -124.5q0 -71 -50.5 -121.5t-123.5 -50.5z" />
    <glyph glyph-name="Lslash" unicode="&#x141;" horiz-adv-x="931" 
d="M23 391v271l114 65v707h289v-547l221 127v-275l-221 -123v-358h467v-258h-756v459z" />
    <glyph glyph-name="lslash" unicode="&#x142;" horiz-adv-x="602" 
d="M43 487v271l109 65v658h282v-492l125 76v-277l-125 -75v-713h-282v553z" />
    <glyph glyph-name="Nacute" unicode="&#x143;" horiz-adv-x="1460" 
d="M1038 0l-618 971v-971h-285v1434h293l612 -979v979h285v-1434h-287zM606 1511l137 295h297l-198 -295h-236z" />
    <glyph glyph-name="nacute" unicode="&#x144;" horiz-adv-x="1146" 
d="M674 1098q88 0 155 -28.5t107 -74.5t65 -111t34 -128.5t9 -137.5v-618h-282v651q0 87 -52 140t-126 53q-86 0 -138.5 -56.5t-52.5 -144.5v-643h-282v1071h276v-125q38 62 114 107t173 45zM442 1190l138 295h297l-199 -295h-236z" />
    <glyph glyph-name="Ncommaaccent" unicode="&#x145;" horiz-adv-x="1460" 
d="M1038 0l-618 971v-971h-285v1434h293l612 -979v979h285v-1434h-287zM592 -492q82 65 100 134q-57 11 -89 53.5t-32 93.5q0 63 45.5 107.5t108.5 44.5q70 0 115 -49t45 -128q0 -107 -54 -203.5t-141 -156.5z" />
    <glyph glyph-name="ncommaaccent" unicode="&#x146;" horiz-adv-x="1146" 
d="M674 1098q88 0 155 -28.5t107 -74.5t65 -111t34 -128.5t9 -137.5v-618h-282v651q0 87 -52 140t-126 53q-86 0 -138.5 -56.5t-52.5 -144.5v-643h-282v1071h276v-125q38 62 114 107t173 45zM436 -492q84 65 101 134q-57 11 -89 53.5t-32 93.5q0 63 45 107.5t108 44.5
q70 0 115 -49t45 -128q0 -108 -53.5 -204t-140.5 -156z" />
    <glyph glyph-name="Ncaron" unicode="&#x147;" horiz-adv-x="1460" 
d="M1038 0l-618 971v-971h-285v1434h293l612 -979v979h285v-1434h-287zM741 1655l101 145h239l-194 -287h-291l-195 287h240z" />
    <glyph glyph-name="ncaron" unicode="&#x148;" horiz-adv-x="1146" 
d="M674 1098q88 0 155 -28.5t107 -74.5t65 -111t34 -128.5t9 -137.5v-618h-282v651q0 87 -52 140t-126 53q-86 0 -138.5 -56.5t-52.5 -144.5v-643h-282v1071h276v-125q38 62 114 107t173 45zM580 1337l100 146h240l-195 -287h-291l-194 287h239z" />
    <glyph glyph-name="napostrophe" unicode="&#x149;" horiz-adv-x="1302" 
d="M827 1098q88 0 155.5 -28.5t107.5 -74.5t65 -111t34 -128.5t9 -137.5v-618h-283v651q0 87 -52 140t-126 53q-86 0 -138 -56.5t-52 -144.5v-643h-283v1071h277v-125q38 62 113.5 107t172.5 45zM-47 1059q83 65 100 133q-57 11 -89 53.5t-32 93.5q0 63 45.5 107.5
t108.5 44.5q70 0 115 -48.5t45 -127.5q0 -107 -54 -204t-141 -157z" />
    <glyph glyph-name="Eng" unicode="&#x14a;" horiz-adv-x="1460" 
d="M739 -371l33 256q96 -12 119 -12q66 0 102 36t41 99l-614 967v-975h-285v1434h293l612 -983v983h285v-1457q0 -97 -30.5 -169.5t-85.5 -115t-125 -63t-156 -20.5q-94 0 -189 20z" />
    <glyph glyph-name="eng" unicode="&#x14b;" horiz-adv-x="1146" 
d="M762 -2v653q0 87 -52 140t-126 53q-86 0 -138.5 -56.5t-52.5 -144.5v-643h-282v1071h276v-125q38 62 114 107t173 45q88 0 155 -28.5t107 -74.5t65 -111t34 -128.5t9 -137.5v-632q0 -103 -31 -178t-87.5 -117.5t-128.5 -62t-162 -19.5l-70 4v240q29 -5 49 -5
q148 0 148 150z" />
    <glyph glyph-name="Omacron" unicode="&#x14c;" horiz-adv-x="1613" 
d="M807 -27q-216 0 -387 97.5t-265 267.5t-94 379q0 208 94 377t265 267.5t387 98.5t387 -98.5t264.5 -267.5t93.5 -377q0 -157 -55 -294t-152 -236.5t-236.5 -156.5t-301.5 -57zM807 1190q-193 0 -319 -135t-126 -338q0 -206 126 -339.5t319 -133.5t318.5 133.5
t125.5 339.5q0 203 -125.5 338t-318.5 135zM532 1538v207h549v-207h-549z" />
    <glyph glyph-name="omacron" unicode="&#x14d;" horiz-adv-x="1255" 
d="M51 532q0 160 75.5 290t207.5 203t293 73q162 0 294 -73.5t207.5 -203t75.5 -289.5q0 -243 -162.5 -401t-414.5 -158q-250 0 -413 158t-163 401zM334 532q0 -136 83 -222.5t210 -86.5q128 0 211.5 86.5t83.5 222.5q0 137 -84 226.5t-211 89.5q-128 0 -210.5 -89
t-82.5 -227zM354 1235v207h549v-207h-549z" />
    <glyph glyph-name="Obreve" unicode="&#x14e;" horiz-adv-x="1613" 
d="M807 -27q-216 0 -387 97.5t-265 267.5t-94 379q0 208 94 377t265 267.5t387 98.5t387 -98.5t264.5 -267.5t93.5 -377q0 -157 -55 -294t-152 -236.5t-236.5 -156.5t-301.5 -57zM807 1190q-193 0 -319 -135t-126 -338q0 -206 126 -339.5t319 -133.5t318.5 133.5
t125.5 339.5q0 203 -125.5 338t-318.5 135zM807 1518q-145 0 -227 81t-82 211h202q0 -55 24.5 -91t82.5 -36q108 0 108 127h203q0 -131 -82 -211.5t-229 -80.5z" />
    <glyph glyph-name="obreve" unicode="&#x14f;" horiz-adv-x="1255" 
d="M51 532q0 160 75.5 290t207.5 203t293 73q162 0 294 -73.5t207.5 -203t75.5 -289.5q0 -243 -162.5 -401t-414.5 -158q-250 0 -413 158t-163 401zM334 532q0 -136 83 -222.5t210 -86.5q128 0 211.5 86.5t83.5 222.5q0 137 -84 226.5t-211 89.5q-128 0 -210.5 -89
t-82.5 -227zM621 1190q-145 0 -227.5 81.5t-82.5 211.5h203q0 -55 24.5 -91t82.5 -36q108 0 108 127h203q0 -131 -82 -212t-229 -81z" />
    <glyph glyph-name="Ohungarumlaut" unicode="&#x150;" horiz-adv-x="1613" 
d="M807 -27q-216 0 -387 97.5t-265 267.5t-94 379q0 208 94 377t265 267.5t387 98.5t387 -98.5t264.5 -267.5t93.5 -377q0 -157 -55 -294t-152 -236.5t-236.5 -156.5t-301.5 -57zM807 1190q-193 0 -319 -135t-126 -338q0 -206 126 -339.5t319 -133.5t318.5 133.5
t125.5 339.5q0 203 -125.5 338t-318.5 135zM850 1511l139 295h271l-197 -295h-213zM494 1511l137 295h272l-198 -295h-211z" />
    <glyph glyph-name="ohungarumlaut" unicode="&#x151;" horiz-adv-x="1255" 
d="M51 532q0 160 75.5 290t207.5 203t293 73q162 0 294 -73.5t207.5 -203t75.5 -289.5q0 -243 -162.5 -401t-414.5 -158q-250 0 -413 158t-163 401zM334 532q0 -136 83 -222.5t210 -86.5q128 0 211.5 86.5t83.5 222.5q0 137 -84 226.5t-211 89.5q-128 0 -210.5 -89
t-82.5 -227zM700 1190l140 295h270l-197 -295h-213zM344 1190l137 295h273l-199 -295h-211z" />
    <glyph glyph-name="OE" unicode="&#x152;" horiz-adv-x="2103" 
d="M807 -27q-216 0 -387 97.5t-265 267.5t-94 379q0 208 94 377t265 267.5t387 98.5q102 0 209 -26h975v-260h-590q108 -132 139 -320h387v-256h-385q-23 -190 -141 -340h608v-258h-993q-111 -27 -209 -27zM807 1190q-193 0 -319 -135t-126 -338q0 -206 126 -339.5
t319 -133.5t318.5 133.5t125.5 339.5q0 203 -125.5 338t-318.5 135z" />
    <glyph glyph-name="oe" unicode="&#x153;" horiz-adv-x="2004" 
d="M51 532q0 160 75 290t206.5 203t292.5 73q133 0 243 -49t185 -138q67 89 166 138t217 49q248 0 385 -153.5t137 -418.5q0 -41 -2 -61h-756q5 -109 83 -177.5t198 -68.5q96 0 161.5 41.5t98.5 89.5l186 -141q-18 -33 -52 -69.5t-88 -76t-136 -65t-176 -25.5
q-136 0 -244 49t-178 138q-75 -88 -186.5 -137.5t-241.5 -49.5q-250 0 -412 158t-162 401zM334 532q0 -136 82 -222.5t209 -86.5q128 0 212.5 89t84.5 225t-84.5 223.5t-212.5 87.5q-127 0 -209 -89t-82 -227zM1210 649h459q-4 98 -67.5 157.5t-161.5 59.5t-160 -61
t-70 -156z" />
    <glyph glyph-name="Racute" unicode="&#x154;" horiz-adv-x="1198" 
d="M137 0v1434h432q227 0 356.5 -121t129.5 -305q0 -127 -58 -225.5t-159 -153.5l340 -629h-320l-278 561h-154v-561h-289zM426 805h135q83 0 140 50.5t57 141.5q0 86 -56.5 136.5t-154.5 50.5h-121v-379zM406 1511l137 295h297l-199 -295h-235z" />
    <glyph glyph-name="racute" unicode="&#x155;" horiz-adv-x="737" 
d="M682 1098v-287q-152 0 -220.5 -88.5t-68.5 -255.5v-467h-282v1071h276v-156q36 82 114 132.5t181 50.5zM233 1190l138 295h297l-199 -295h-236z" />
    <glyph glyph-name="Rcommaaccent" unicode="&#x156;" horiz-adv-x="1198" 
d="M137 0v1434h432q227 0 356.5 -121t129.5 -305q0 -127 -58 -225.5t-159 -153.5l340 -629h-320l-278 561h-154v-561h-289zM426 805h135q83 0 140 50.5t57 141.5q0 86 -56.5 136.5t-154.5 50.5h-121v-379zM465 -492q82 65 100 134q-57 11 -89 53.5t-32 93.5q0 63 45.5 107.5
t108.5 44.5q70 0 115 -49t45 -128q0 -107 -54 -203.5t-141 -156.5z" />
    <glyph glyph-name="rcommaaccent" unicode="&#x157;" horiz-adv-x="737" 
d="M682 1098v-287q-152 0 -220.5 -88.5t-68.5 -255.5v-467h-282v1071h276v-156q36 82 114 132.5t181 50.5zM168 -492q82 65 100 134q-57 11 -89 53.5t-32 93.5q0 63 45.5 107.5t108.5 44.5q70 0 115 -49t45 -128q0 -107 -54 -203.5t-141 -156.5z" />
    <glyph glyph-name="Rcaron" unicode="&#x158;" horiz-adv-x="1198" 
d="M137 0v1434h432q227 0 356.5 -121t129.5 -305q0 -127 -58 -225.5t-159 -153.5l340 -629h-320l-278 561h-154v-561h-289zM426 805h135q83 0 140 50.5t57 141.5q0 86 -56.5 136.5t-154.5 50.5h-121v-379zM549 1655l100 145h240l-195 -287h-291l-194 287h240z" />
    <glyph glyph-name="rcaron" unicode="&#x159;" horiz-adv-x="737" 
d="M682 1098v-287q-152 0 -220.5 -88.5t-68.5 -255.5v-467h-282v1071h276v-156q36 82 114 132.5t181 50.5zM371 1337l100 146h240l-195 -287h-291l-194 287h239z" />
    <glyph glyph-name="Sacute" unicode="&#x15a;" horiz-adv-x="1067" 
d="M539 1460q82 0 153 -23t117.5 -56.5t83.5 -78.5t56.5 -82t31.5 -73l-240 -109q-14 31 -29 54t-39.5 48.5t-60.5 39.5t-80 14q-72 0 -113.5 -38.5t-41.5 -98.5q0 -48 34.5 -87t89 -68.5t121 -59t133 -67t121 -84t89 -119t34.5 -162.5q0 -193 -129.5 -315t-349.5 -122
q-88 0 -163 24t-125 59t-90 82t-61.5 87t-35.5 80l244 119q33 -79 95.5 -130.5t152.5 -51.5q80 0 125 39t45 108q0 39 -21 72t-57 58.5t-82.5 49t-97.5 48t-102.5 51.5t-98 63.5t-82.5 80.5t-57 106t-21 135q0 182 123.5 294.5t327.5 112.5zM387 1511l137 295h297l-198 -295
h-236z" />
    <glyph glyph-name="sacute" unicode="&#x15b;" horiz-adv-x="890" 
d="M438 -27q-145 0 -247 59t-152 140l166 147q101 -116 246 -116q61 0 96 25.5t35 70.5q0 33 -28 58t-72.5 43t-98.5 37t-108 46t-98.5 63t-72.5 96.5t-28 137.5q0 146 110 232t279 86q137 0 228 -56.5t138 -134.5l-186 -139q-82 102 -192 102q-50 0 -80.5 -23.5
t-30.5 -62.5q0 -34 28 -59t73 -42t99 -34.5t108 -43.5t99 -60.5t73 -94t28 -137.5q0 -154 -117.5 -247t-294.5 -93zM303 1190l137 295h297l-198 -295h-236z" />
    <glyph glyph-name="Scircumflex" unicode="&#x15c;" horiz-adv-x="1067" 
d="M539 1460q82 0 153 -23t117.5 -56.5t83.5 -78.5t56.5 -82t31.5 -73l-240 -109q-14 31 -29 54t-39.5 48.5t-60.5 39.5t-80 14q-72 0 -113.5 -38.5t-41.5 -98.5q0 -48 34.5 -87t89 -68.5t121 -59t133 -67t121 -84t89 -119t34.5 -162.5q0 -193 -129.5 -315t-349.5 -122
q-88 0 -163 24t-125 59t-90 82t-61.5 87t-35.5 80l244 119q33 -79 95.5 -130.5t152.5 -51.5q80 0 125 39t45 108q0 39 -21 72t-57 58.5t-82.5 49t-97.5 48t-102.5 51.5t-98 63.5t-82.5 80.5t-57 106t-21 135q0 182 123.5 294.5t327.5 112.5zM641 1513l-100 146l-101 -146
h-239l194 287h291l195 -287h-240z" />
    <glyph glyph-name="scircumflex" unicode="&#x15d;" horiz-adv-x="890" 
d="M438 -27q-145 0 -247 59t-152 140l166 147q101 -116 246 -116q61 0 96 25.5t35 70.5q0 33 -28 58t-72.5 43t-98.5 37t-108 46t-98.5 63t-72.5 96.5t-28 137.5q0 146 110 232t279 86q137 0 228 -56.5t138 -134.5l-186 -139q-82 102 -192 102q-50 0 -80.5 -23.5
t-30.5 -62.5q0 -34 28 -59t73 -42t99 -34.5t108 -43.5t99 -60.5t73 -94t28 -137.5q0 -154 -117.5 -247t-294.5 -93zM569 1196l-100 145l-100 -145h-240l195 287h290l195 -287h-240z" />
    <glyph glyph-name="Scedilla" unicode="&#x15e;" horiz-adv-x="1067" 
d="M492 -477q-59 0 -119 18l33 146q44 -11 67 -11q38 0 63 17.5t25 50.5q0 32 -29.5 47.5t-72.5 15.5l-35 -4l25 174q-90 10 -164.5 47t-121 88.5t-74.5 98t-44 94.5l244 119q33 -79 95.5 -130.5t152.5 -51.5q80 0 125 39t45 108q0 39 -21 72t-57 58.5t-82.5 49t-97.5 48
t-102.5 51.5t-98 63.5t-82.5 80.5t-57 106t-21 135q0 182 123.5 294.5t327.5 112.5q82 0 153 -23t117.5 -56.5t83.5 -78.5t56.5 -82t31.5 -73l-240 -109q-14 31 -29 54t-39.5 48.5t-60.5 39.5t-80 14q-72 0 -113.5 -38.5t-41.5 -98.5q0 -48 34.5 -87t89 -68.5t121 -59
t133 -67t121 -84t89 -119t34.5 -162.5q0 -174 -107.5 -293t-295.5 -140l-8 -57q73 -15 114 -66.5t41 -121.5q0 -97 -71.5 -153t-179.5 -56z" />
    <glyph glyph-name="scedilla" unicode="&#x15f;" horiz-adv-x="890" 
d="M406 -477q-59 0 -119 18l32 146q44 -11 68 -11q38 0 63 17.5t25 50.5q0 32 -29.5 47.5t-72.5 15.5l-35 -4l24 177q-117 14 -199 68t-124 124l166 147q101 -116 246 -116q61 0 96 25.5t35 70.5q0 33 -28 58t-72.5 43t-98.5 37t-108 46t-98.5 63t-72.5 96.5t-28 137.5
q0 146 110 232t279 86q137 0 228 -56.5t138 -134.5l-186 -139q-82 102 -192 102q-50 0 -80.5 -23.5t-30.5 -62.5q0 -34 28 -59t73 -42t99 -34.5t108 -43.5t99 -60.5t73 -94t28 -137.5q0 -137 -94.5 -226t-245.5 -107l-8 -60q73 -15 114 -66.5t41 -121.5q0 -97 -71.5 -153
t-179.5 -56z" />
    <glyph glyph-name="Scaron" unicode="&#x160;" horiz-adv-x="1067" 
d="M539 1460q82 0 153 -23t117.5 -56.5t83.5 -78.5t56.5 -82t31.5 -73l-240 -109q-14 31 -29 54t-39.5 48.5t-60.5 39.5t-80 14q-72 0 -113.5 -38.5t-41.5 -98.5q0 -48 34.5 -87t89 -68.5t121 -59t133 -67t121 -84t89 -119t34.5 -162.5q0 -193 -129.5 -315t-349.5 -122
q-88 0 -163 24t-125 59t-90 82t-61.5 87t-35.5 80l244 119q33 -79 95.5 -130.5t152.5 -51.5q80 0 125 39t45 108q0 39 -21 72t-57 58.5t-82.5 49t-97.5 48t-102.5 51.5t-98 63.5t-82.5 80.5t-57 106t-21 135q0 182 123.5 294.5t327.5 112.5zM530 1655l101 145h239l-194 -287
h-291l-195 287h240z" />
    <glyph glyph-name="scaron" unicode="&#x161;" horiz-adv-x="890" 
d="M438 -27q-145 0 -247 59t-152 140l166 147q101 -116 246 -116q61 0 96 25.5t35 70.5q0 33 -28 58t-72.5 43t-98.5 37t-108 46t-98.5 63t-72.5 96.5t-28 137.5q0 146 110 232t279 86q137 0 228 -56.5t138 -134.5l-186 -139q-82 102 -192 102q-50 0 -80.5 -23.5
t-30.5 -62.5q0 -34 28 -59t73 -42t99 -34.5t108 -43.5t99 -60.5t73 -94t28 -137.5q0 -154 -117.5 -247t-294.5 -93zM461 1337l100 146h240l-195 -287h-291l-194 287h239z" />
    <glyph glyph-name="Tcommaaccent" unicode="&#x162;" horiz-adv-x="1046" 
d="M379 0v1174h-336v260h958v-260h-333v-1174h-97l-12 -80q73 -15 114.5 -67t41.5 -121q0 -97 -72 -153t-180 -56q-59 0 -119 18l33 146q44 -11 67 -11q38 0 63 17.5t25 50.5q0 32 -30 47.5t-72 15.5l-35 -4l29 197h-45z" />
    <glyph glyph-name="tcommaaccent" unicode="&#x163;" horiz-adv-x="681" 
d="M137 1071v225h279v-225h200v-229h-200v-414q0 -115 35.5 -153.5t121.5 -38.5q29 0 52 2v-242q-43 -10 -121 -10q-24 0 -70 4l-10 -70q73 -15 114.5 -67t41.5 -121q0 -97 -72 -153t-180 -56q-59 0 -119 18l33 146q44 -11 67 -11q38 0 63 17.5t25 50.5q0 32 -29.5 47.5
t-72.5 15.5l-35 -4l27 236q-152 96 -152 381v422h-112v229h114z" />
    <glyph glyph-name="Tcaron" unicode="&#x164;" horiz-adv-x="1046" 
d="M379 0v1174h-336v260h958v-260h-333v-1174h-289zM522 1655l101 145h239l-194 -287h-291l-195 287h240z" />
    <glyph glyph-name="tcaron" unicode="&#x165;" horiz-adv-x="686" 
d="M508 1124l14 357h266l-94 -357h-186zM137 1071v225h279v-225h200v-229h-200v-414q0 -115 35.5 -153.5t121.5 -38.5q29 0 52 2v-242q-43 -10 -121 -10q-190 0 -279.5 107t-89.5 327v422h-112v229h114z" />
    <glyph glyph-name="Tbar" unicode="&#x166;" horiz-adv-x="1046" 
d="M145 635v211h238v328h-336v260h959v-260h-334v-328h235v-211h-235v-635h-289v635h-238z" />
    <glyph glyph-name="tbar" unicode="&#x167;" horiz-adv-x="681" 
d="M137 1071v225h279v-225h200v-229h-200v-164h184v-186h-184v-64q0 -115 35.5 -153.5t121.5 -38.5q29 0 52 2v-242q-43 -10 -121 -10q-190 0 -279.5 107t-89.5 327v72h-112v186h112v164h-112v229h114z" />
    <glyph glyph-name="Utilde" unicode="&#x168;" horiz-adv-x="1417" 
d="M709 -27q-274 0 -426 154t-152 412v895h289v-895q0 -138 76 -217.5t213 -79.5t212.5 79.5t75.5 217.5v895h289v-895q0 -258 -151.5 -412t-425.5 -154zM866 1524q-59 0 -142.5 37.5t-113.5 37.5q-31 0 -48 -20t-17 -57h-178q0 123 62 198.5t163 75.5q48 0 97 -19t89 -38
t66 -19q30 0 47.5 21t17.5 57h178q0 -125 -60.5 -199.5t-160.5 -74.5z" />
    <glyph glyph-name="utilde" unicode="&#x169;" horiz-adv-x="1138" 
d="M473 -27q-88 0 -155.5 28.5t-107.5 74.5t-65 111t-34 128.5t-9 137.5v618h283v-651q0 -87 52 -140t126 -53q86 0 138.5 56.5t52.5 144.5v643h282v-1071h-276v125q-38 -62 -114 -107t-173 -45zM713 1202q-59 0 -142.5 38t-113.5 38q-31 0 -48.5 -20.5t-17.5 -57.5h-178
q0 123 62 199t163 76q48 0 97 -19t89 -38t66 -19q31 0 48.5 21t17.5 57h178q0 -126 -60.5 -200.5t-160.5 -74.5z" />
    <glyph glyph-name="Umacron" unicode="&#x16a;" horiz-adv-x="1417" 
d="M709 -27q-274 0 -426 154t-152 412v895h289v-895q0 -138 76 -217.5t213 -79.5t212.5 79.5t75.5 217.5v895h289v-895q0 -258 -151.5 -412t-425.5 -154zM438 1538v207h549v-207h-549z" />
    <glyph glyph-name="umacron" unicode="&#x16b;" horiz-adv-x="1138" 
d="M473 -27q-88 0 -155.5 28.5t-107.5 74.5t-65 111t-34 128.5t-9 137.5v618h283v-651q0 -87 52 -140t126 -53q86 0 138.5 56.5t52.5 144.5v643h282v-1071h-276v125q-38 -62 -114 -107t-173 -45zM303 1235v207h549v-207h-549z" />
    <glyph glyph-name="Ubreve" unicode="&#x16c;" horiz-adv-x="1417" 
d="M709 -27q-274 0 -426 154t-152 412v895h289v-895q0 -138 76 -217.5t213 -79.5t212.5 79.5t75.5 217.5v895h289v-895q0 -258 -151.5 -412t-425.5 -154zM723 1518q-145 0 -227 81t-82 211h202q0 -55 24.5 -91t82.5 -36q108 0 108 127h203q0 -131 -82 -211.5t-229 -80.5z
" />
    <glyph glyph-name="ubreve" unicode="&#x16d;" horiz-adv-x="1138" 
d="M473 -27q-88 0 -155.5 28.5t-107.5 74.5t-65 111t-34 128.5t-9 137.5v618h283v-651q0 -87 52 -140t126 -53q86 0 138.5 56.5t52.5 144.5v643h282v-1071h-276v125q-38 -62 -114 -107t-173 -45zM573 1190q-145 0 -227 81t-82 212h203q0 -127 106 -127q109 0 109 127h203
q0 -131 -82.5 -212t-229.5 -81z" />
    <glyph glyph-name="Uring" unicode="&#x16e;" horiz-adv-x="1417" 
d="M709 -27q-274 0 -426 154t-152 412v895h289v-895q0 -138 76 -217.5t213 -79.5t212.5 79.5t75.5 217.5v895h289v-895q0 -258 -151.5 -412t-425.5 -154zM713 1497q-93 0 -155 57t-62 146q0 90 62 146.5t155 56.5q96 0 158.5 -56t62.5 -145q0 -90 -62.5 -147.5t-158.5 -57.5
zM715 1620q35 0 56.5 22.5t21.5 59.5q0 34 -21.5 56t-56.5 22t-56.5 -22.5t-21.5 -57.5t21.5 -57.5t56.5 -22.5z" />
    <glyph glyph-name="uring" unicode="&#x16f;" horiz-adv-x="1138" 
d="M473 -27q-88 0 -155.5 28.5t-107.5 74.5t-65 111t-34 128.5t-9 137.5v618h283v-651q0 -87 52 -140t126 -53q86 0 138.5 56.5t52.5 144.5v643h282v-1071h-276v125q-38 -62 -114 -107t-173 -45zM575 1155q-93 0 -155 57t-62 146q0 90 62 146.5t155 56.5q96 0 159 -56
t63 -145q0 -90 -63 -147.5t-159 -57.5zM578 1278q35 0 56 22.5t21 59.5q0 34 -21 56t-56 22t-56.5 -22.5t-21.5 -57.5t21.5 -57.5t56.5 -22.5z" />
    <glyph glyph-name="Uhungarumlaut" unicode="&#x170;" horiz-adv-x="1423" 
d="M709 -27q-274 0 -426 154t-152 412v895h289v-895q0 -138 76 -217.5t213 -79.5t212.5 79.5t75.5 217.5v895h289v-895q0 -258 -151.5 -412t-425.5 -154zM778 1511l140 295h270l-197 -295h-213zM422 1511l137 295h272l-198 -295h-211z" />
    <glyph glyph-name="uhungarumlaut" unicode="&#x171;" horiz-adv-x="1138" 
d="M473 -27q-88 0 -155.5 28.5t-107.5 74.5t-65 111t-34 128.5t-9 137.5v618h283v-651q0 -87 52 -140t126 -53q86 0 138.5 56.5t52.5 144.5v643h282v-1071h-276v125q-38 -62 -114 -107t-173 -45zM610 1190l140 295h270l-197 -295h-213zM254 1190l137 295h273l-199 -295h-211
z" />
    <glyph glyph-name="Uogonek" unicode="&#x172;" horiz-adv-x="1417" 
d="M645 -221q0 114 115 196q-35 -2 -51 -2q-274 0 -426 154t-152 412v895h289v-895q0 -138 76 -217.5t213 -79.5t212.5 79.5t75.5 217.5v895h289v-895q0 -180 -76.5 -312t-218.5 -198q-42 -20 -77 -57.5t-35 -88.5q0 -42 33 -69t73 -27v-201q-28 -8 -72 -8q-52 0 -96 9
t-84.5 30t-64 62.5t-23.5 99.5z" />
    <glyph glyph-name="uogonek" unicode="&#x173;" horiz-adv-x="1138" 
d="M690 -221q0 77 49.5 135t108.5 86h-88v125q-38 -62 -114 -107t-173 -45q-88 0 -155.5 28.5t-107.5 74.5t-65 111t-34 128.5t-9 137.5v618h283v-651q0 -87 52 -140t126 -53q86 0 138.5 56.5t52.5 144.5v643h282v-1071q-13 -5 -28.5 -14t-36 -25t-34 -40.5t-13.5 -51.5
q0 -38 32.5 -60t73.5 -22v-201q-28 -8 -72 -8q-52 0 -96 9t-84.5 30t-64 62.5t-23.5 99.5z" />
    <glyph glyph-name="Wcircumflex" unicode="&#x174;" horiz-adv-x="2000" 
d="M1270 0l-271 989l-270 -989h-326l-385 1434h316l248 -1074l284 1074h267l284 -1074l250 1074h313l-383 -1434h-327zM1102 1513l-101 146l-100 -146h-239l194 287h291l194 -287h-239z" />
    <glyph glyph-name="wcircumflex" unicode="&#x175;" horiz-adv-x="1695" 
d="M1044 0l-196 686l-199 -686h-315l-320 1071h308l188 -760l205 760h266l203 -760l190 760h307l-321 -1071h-316zM948 1196l-100 145l-100 -145h-240l194 287h291l195 -287h-240z" />
    <glyph glyph-name="Ycircumflex" unicode="&#x176;" horiz-adv-x="1196" 
d="M455 0v655l-441 779h326l258 -514l258 514h326l-441 -779v-655h-286zM700 1513l-100 146l-100 -146h-240l195 287h290l195 -287h-240z" />
    <glyph glyph-name="ycircumflex" unicode="&#x177;" horiz-adv-x="1105" 
d="M545 -367h-271l150 394l-412 1044h303l240 -698l242 698h295zM659 1196l-100 145l-100 -145h-240l195 287h291l194 -287h-240z" />
    <glyph glyph-name="Ydieresis" unicode="&#x178;" horiz-adv-x="1196" 
d="M455 0v655l-441 779h326l258 -514l258 514h326l-441 -779v-655h-286zM403 1536q-61 0 -100 40t-39 99q0 58 39.5 99t99.5 41q59 0 99.5 -41t40.5 -99q0 -59 -40 -99t-100 -40zM797 1536q-62 0 -101 40t-39 99q0 58 39 99t101 41q59 0 99 -41t40 -99q0 -59 -39.5 -99
t-99.5 -40z" />
    <glyph glyph-name="Zacute" unicode="&#x179;" horiz-adv-x="1234" 
d="M66 0v188l704 990h-684v256h1069v-189l-709 -989h715v-256h-1095zM461 1511l137 295h297l-199 -295h-235z" />
    <glyph glyph-name="zacute" unicode="&#x17a;" horiz-adv-x="958" 
d="M891 895l-483 -659h489v-236h-840v174l484 662h-469v235h819v-176zM324 1190l137 295h297l-199 -295h-235z" />
    <glyph glyph-name="Zdotaccent" unicode="&#x17b;" horiz-adv-x="1234" 
d="M66 0v188l704 990h-684v256h1069v-189l-709 -989h715v-256h-1095zM453 1657q0 69 47 115.5t116 46.5q71 0 118.5 -46.5t47.5 -115.5t-47.5 -115.5t-118.5 -46.5q-69 0 -116 46.5t-47 115.5z" />
    <glyph glyph-name="zdotaccent" unicode="&#x17c;" horiz-adv-x="958" 
d="M891 895l-483 -659h489v-236h-840v174l484 662h-469v235h819v-176zM324 1329q0 69 47 115.5t116 46.5q71 0 118.5 -46.5t47.5 -115.5t-47.5 -115.5t-118.5 -46.5q-69 0 -116 46.5t-47 115.5z" />
    <glyph glyph-name="Zcaron" unicode="&#x17d;" horiz-adv-x="1234" 
d="M66 0v188l704 990h-684v256h1069v-189l-709 -989h715v-256h-1095zM614 1655l101 145h239l-194 -287h-291l-195 287h240z" />
    <glyph glyph-name="zcaron" unicode="&#x17e;" horiz-adv-x="958" 
d="M891 895l-483 -659h489v-236h-840v174l484 662h-469v235h819v-176zM485 1337l101 146h239l-194 -287h-291l-195 287h240z" />
    <glyph glyph-name="florin" unicode="&#x192;" horiz-adv-x="974" 
d="M584 662l-88 -670q-52 -385 -422 -385q-60 0 -129 12l32 236q40 -9 72 -9q87 0 122.5 45.5t53.5 171.5l80 599h-123v229h154l26 203q11 81 41 145t70.5 104t92.5 66t104.5 36.5t109.5 10.5q34 0 66.5 -3t48.5 -6l16 -3l-30 -236q-45 9 -74 9q-147 0 -168 -152l-25 -174
h179v-229h-209z" />
    <glyph glyph-name="Aringacute" unicode="&#x1fa;" horiz-adv-x="1351" 
d="M920 369h-488l-125 -369h-291l490 1384q-49 55 -49 136q0 90 62 146t155 56q96 0 158.5 -55.5t62.5 -144.5q0 -84 -51 -138l491 -1384h-291zM844 608l-168 516l-166 -516h334zM541 1780l137 295h297l-199 -295h-235zM676 1440q35 0 56.5 22.5t21.5 59.5q0 34 -21.5 55.5
t-56.5 21.5t-56.5 -22t-21.5 -57t21.5 -57.5t56.5 -22.5z" />
    <glyph glyph-name="aringacute" unicode="&#x1fb;" horiz-adv-x="1077" 
d="M49 332q0 159 114.5 256.5t301.5 97.5q75 0 136 -17.5t95 -41.5v69q0 72 -51 115t-143 43q-137 0 -285 -76l-106 193q78 54 191.5 90.5t229.5 36.5q125 0 214 -31t139 -89.5t72 -131.5t22 -168v-678h-250l-18 70q-90 -97 -260 -97q-169 0 -285.5 98t-116.5 261zM332 340
q0 -65 53 -106t133 -41q81 0 132.5 40t51.5 107q0 69 -51.5 109t-134.5 40q-82 0 -133 -41.5t-51 -107.5zM537 1141q-93 0 -155.5 57t-62.5 145q0 90 62.5 146.5t155.5 56.5q96 0 158.5 -55.5t62.5 -144.5q0 -90 -62.5 -147.5t-158.5 -57.5zM539 1264q35 0 56 22.5t21 59.5
q0 34 -21 55.5t-56 21.5t-56.5 -22.5t-21.5 -57.5t21.5 -57t56.5 -22zM399 1585l138 295h297l-199 -295h-236z" />
    <glyph glyph-name="AEacute" unicode="&#x1fc;" horiz-adv-x="1755" 
d="M16 0l748 1434h881v-260h-447v-320h383v-256h-383v-340h465v-258h-754v369h-393l-186 -369h-314zM899 1153l-276 -545h286v545h-10zM913 1511l138 295h297l-199 -295h-236z" />
    <glyph glyph-name="aeacute" unicode="&#x1fd;" horiz-adv-x="1781" 
d="M332 340q0 -65 53 -106t133 -41t131 40t51 107q0 69 -50.5 109t-133.5 40q-82 0 -133 -41.5t-51 -107.5zM987 649h459q-4 98 -67.5 157.5t-161.5 59.5q-96 0 -158.5 -61t-71.5 -156zM979 465q5 -108 82 -177t196 -69q96 0 162 41.5t99 89.5l186 -141q-14 -26 -37 -54
t-63.5 -61.5t-88.5 -59.5t-117 -43.5t-145 -17.5q-136 0 -245.5 46t-180.5 133q-115 -179 -376 -179q-169 0 -285.5 98t-116.5 261q0 159 114.5 256.5t301.5 97.5q75 0 136 -17.5t95 -41.5v69q0 72 -51 115t-143 43q-137 0 -285 -76q-22 37 -59.5 106.5t-46.5 86.5
q192 127 421 127q238 0 342 -135q135 135 338 135q248 0 385.5 -153.5t137.5 -418.5q0 -41 -2 -61h-754zM743 1190l138 295h297l-199 -295h-236z" />
    <glyph glyph-name="Oslashacute" unicode="&#x1fe;" horiz-adv-x="1613" 
d="M807 -27q-217 0 -391 99l-97 -121l-153 123l96 121q-96 99 -148.5 233.5t-52.5 288.5q0 208 94 377t265 267.5t387 98.5q208 0 383 -96l94 119l156 -123l-94 -117q99 -100 152.5 -236t53.5 -290q0 -157 -55 -294t-152 -236.5t-236.5 -156.5t-301.5 -57zM1251 717
q0 167 -90 293l-567 -715q94 -51 213 -51q193 0 318.5 133.5t125.5 339.5zM807 1190q-193 0 -319 -135t-126 -338q0 -165 84 -289l566 713q-93 49 -205 49zM662 1511l137 295h297l-199 -295h-235z" />
    <glyph glyph-name="oslashacute" unicode="&#x1ff;" horiz-adv-x="1255" 
d="M51 532q0 160 75.5 290t207.5 203t293 73q153 0 284 -70l78 98l135 -104l-75 -96q74 -77 114.5 -178t40.5 -216q0 -243 -162.5 -401t-414.5 -158q-153 0 -281 64l-80 -103l-133 105l76 96q-158 161 -158 397zM334 532q0 -104 47 -178l369 467q-62 27 -123 27
q-128 0 -210.5 -89t-82.5 -227zM922 532q0 99 -45 175l-365 -463q52 -21 115 -21q128 0 211.5 86.5t83.5 222.5zM477 1190l137 295h297l-198 -295h-236z" />
    <glyph glyph-name="Scommaaccent" unicode="&#x218;" horiz-adv-x="1067" 
d="M539 1460q82 0 153 -23t117.5 -56.5t83.5 -78.5t56.5 -82t31.5 -73l-240 -109q-14 31 -29 54t-39.5 48.5t-60.5 39.5t-80 14q-72 0 -113.5 -38.5t-41.5 -98.5q0 -48 34.5 -87t89 -68.5t121 -59t133 -67t121 -84t89 -119t34.5 -162.5q0 -193 -129.5 -315t-349.5 -122
q-88 0 -163 24t-125 59t-90 82t-61.5 87t-35.5 80l244 119q33 -79 95.5 -130.5t152.5 -51.5q80 0 125 39t45 108q0 39 -21 72t-57 58.5t-82.5 49t-97.5 48t-102.5 51.5t-98 63.5t-82.5 80.5t-57 106t-21 135q0 182 123.5 294.5t327.5 112.5zM385 -492q82 65 100 134
q-57 11 -88.5 53.5t-31.5 93.5q0 63 45 107.5t108 44.5q70 0 115 -49t45 -128q0 -107 -54 -203.5t-141 -156.5z" />
    <glyph glyph-name="scommaaccent" unicode="&#x219;" horiz-adv-x="890" 
d="M438 -27q-145 0 -247 59t-152 140l166 147q101 -116 246 -116q61 0 96 25.5t35 70.5q0 33 -28 58t-72.5 43t-98.5 37t-108 46t-98.5 63t-72.5 96.5t-28 137.5q0 146 110 232t279 86q137 0 228 -56.5t138 -134.5l-186 -139q-82 102 -192 102q-50 0 -80.5 -23.5
t-30.5 -62.5q0 -34 28 -59t73 -42t99 -34.5t108 -43.5t99 -60.5t73 -94t28 -137.5q0 -154 -117.5 -247t-294.5 -93zM315 -492q84 65 101 134q-57 11 -89 53.5t-32 93.5q0 63 45.5 107.5t108.5 44.5q70 0 114.5 -49t44.5 -128q0 -108 -53.5 -204t-140.5 -156z" />
    <glyph glyph-name="uni021A" unicode="&#x21a;" horiz-adv-x="1046" 
d="M379 0v1174h-336v260h958v-260h-333v-1174h-289zM381 -492q82 65 100 134q-57 11 -89 53.5t-32 93.5q0 63 45.5 107.5t108.5 44.5q70 0 115 -49t45 -128q0 -107 -54 -203.5t-141 -156.5z" />
    <glyph glyph-name="uni021B" unicode="&#x21b;" horiz-adv-x="681" 
d="M137 1071v225h279v-225h200v-229h-200v-414q0 -115 35.5 -153.5t121.5 -38.5q29 0 52 2v-242q-43 -10 -121 -10q-190 0 -279.5 107t-89.5 327v422h-112v229h114zM270 -492q84 65 101 134q-57 11 -89 53.5t-32 93.5q0 63 45 107.5t108 44.5q70 0 115 -49t45 -128
q0 -108 -53.5 -204t-140.5 -156z" />
    <glyph glyph-name="dotlessj" unicode="&#x237;" 
d="M111 -2v1073h282v-1085q0 -103 -31 -178t-87.5 -117.5t-128.5 -62t-162 -19.5l-70 4v240q29 -5 49 -5q148 0 148 150z" />
    <glyph glyph-name="circumflex" unicode="&#x2c6;" horiz-adv-x="911" 
d="M555 1196l-100 145l-101 -145h-239l194 287h291l195 -287h-240z" />
    <glyph glyph-name="caron" unicode="&#x2c7;" horiz-adv-x="911" 
d="M455 1337l100 146h240l-195 -287h-291l-194 287h239z" />
    <glyph glyph-name="breve" unicode="&#x2d8;" horiz-adv-x="911" 
d="M453 1190q-145 0 -227.5 81.5t-82.5 211.5h203q0 -55 24.5 -91t82.5 -36q108 0 108 127h203q0 -131 -82 -212t-229 -81z" />
    <glyph glyph-name="dotaccent" unicode="&#x2d9;" horiz-adv-x="911" 
d="M291 1329q0 69 47.5 115.5t116.5 46.5q71 0 118.5 -46.5t47.5 -115.5t-47.5 -115.5t-118.5 -46.5q-69 0 -116.5 46.5t-47.5 115.5z" />
    <glyph glyph-name="ring" unicode="&#x2da;" horiz-adv-x="911" 
d="M453 1155q-93 0 -155 57t-62 146q0 90 62 146.5t155 56.5q96 0 158.5 -56t62.5 -145q0 -90 -62.5 -147.5t-158.5 -57.5zM455 1278q35 0 56 22.5t21 59.5q0 34 -21 56t-56 22t-56.5 -22.5t-21.5 -57.5t21.5 -57.5t56.5 -22.5z" />
    <glyph glyph-name="ogonek" unicode="&#x2db;" horiz-adv-x="911" 
d="M283 -221q0 77 49 135t108 86h189q-13 -5 -28.5 -14t-36.5 -25t-34.5 -40.5t-13.5 -51.5q0 -38 33 -60t74 -22v-201q-28 -8 -72 -8q-52 0 -96 9t-84.5 30t-64 62.5t-23.5 99.5z" />
    <glyph glyph-name="tilde" unicode="&#x2dc;" horiz-adv-x="911" 
d="M594 1202q-59 0 -142.5 38t-113.5 38q-31 0 -48.5 -20.5t-17.5 -57.5h-178q0 123 62 199t163 76q48 0 97 -19t89 -38t66 -19q31 0 48.5 21t17.5 57h178q0 -126 -60.5 -200.5t-160.5 -74.5z" />
    <glyph glyph-name="hungarumlaut" unicode="&#x2dd;" horiz-adv-x="952" 
d="M449 1190l139 295h270l-196 -295h-213zM92 1190l137 295h273l-199 -295h-211z" />
    <glyph glyph-name="Wgrave" unicode="&#x1e80;" horiz-adv-x="1996" 
d="M1270 0l-271 989l-270 -989h-326l-385 1434h316l248 -1074l284 1074h267l284 -1074l250 1074h313l-383 -1434h-327zM958 1806l138 -295h-236l-198 295h296z" />
    <glyph glyph-name="wgrave" unicode="&#x1e81;" horiz-adv-x="1695" 
d="M1044 0l-196 686l-199 -686h-315l-320 1071h308l188 -760l205 760h266l203 -760l190 760h307l-321 -1071h-316zM821 1485l137 -295h-235l-199 295h297z" />
    <glyph glyph-name="Wacute" unicode="&#x1e82;" horiz-adv-x="1998" 
d="M1270 0l-271 989l-270 -989h-326l-385 1434h316l248 -1074l284 1074h267l284 -1074l250 1074h313l-383 -1434h-327zM872 1511l138 295h297l-199 -295h-236z" />
    <glyph glyph-name="wacute" unicode="&#x1e83;" horiz-adv-x="1695" 
d="M1044 0l-196 686l-199 -686h-315l-320 1071h308l188 -760l205 760h266l203 -760l190 760h307l-321 -1071h-316zM735 1190l137 295h297l-198 -295h-236z" />
    <glyph glyph-name="Wdieresis" unicode="&#x1e84;" horiz-adv-x="1998" 
d="M1270 0l-271 989l-270 -989h-326l-385 1434h316l248 -1074l284 1074h267l284 -1074l250 1074h313l-383 -1434h-327zM805 1524q-61 0 -100 40t-39 99q0 58 39.5 98.5t99.5 40.5q59 0 99 -40.5t40 -98.5q0 -59 -39.5 -99t-99.5 -40zM1198 1524q-62 0 -100.5 39.5
t-38.5 99.5q0 58 38.5 98.5t100.5 40.5q59 0 99 -40.5t40 -98.5q0 -59 -39.5 -99t-99.5 -40z" />
    <glyph glyph-name="wdieresis" unicode="&#x1e85;" horiz-adv-x="1695" 
d="M1044 0l-196 686l-199 -686h-315l-320 1071h308l188 -760l205 760h266l203 -760l190 760h307l-321 -1071h-316zM649 1198q-61 0 -100 40t-39 99q0 58 39.5 99t99.5 41q59 0 99 -41t40 -99q0 -59 -39.5 -99t-99.5 -40zM1042 1198q-62 0 -100.5 39.5t-38.5 99.5
q0 59 38.5 99.5t100.5 40.5q59 0 99.5 -41t40.5 -99q0 -59 -40 -99t-100 -40z" />
    <glyph glyph-name="Ygrave" unicode="&#x1ef2;" horiz-adv-x="1196" 
d="M455 0v655l-441 779h326l258 -514l258 514h326l-441 -779v-655h-286zM608 1806l137 -295h-235l-199 295h297z" />
    <glyph glyph-name="ygrave" unicode="&#x1ef3;" horiz-adv-x="1105" 
d="M545 -367h-271l150 394l-412 1044h303l240 -698l242 698h295zM567 1485l138 -295h-236l-199 295h297z" />
    <glyph glyph-name="endash" unicode="&#x2013;" horiz-adv-x="1327" 
d="M92 514v231h1143v-231h-1143z" />
    <glyph glyph-name="emdash" unicode="&#x2014;" horiz-adv-x="1880" 
d="M92 514v231h1694v-231h-1694z" />
    <glyph glyph-name="quoteleft" unicode="&#x2018;" horiz-adv-x="460" 
d="M391 1376q-40 -27 -80 -74t-47 -92q66 -14 104 -63t38 -107q0 -72 -50.5 -124t-122.5 -52q-77 0 -128.5 50.5t-51.5 138.5q0 134 64.5 253.5t163.5 192.5z" />
    <glyph glyph-name="quoteright" unicode="&#x2019;" horiz-adv-x="460" 
d="M68 987q40 27 80 74t47 92q-66 14 -104 63t-38 107q0 72 50 124t122 52q77 0 129 -50.5t52 -137.5q0 -134 -64.5 -254t-163.5 -193z" />
    <glyph glyph-name="quotesinglbase" unicode="&#x201a;" horiz-adv-x="499" 
d="M90 -190q41 27 80.5 74t46.5 91q-66 14 -103.5 62.5t-37.5 107.5q0 72 50 124.5t122 52.5q77 0 128.5 -50.5t51.5 -138.5q0 -134 -64 -253.5t-163 -192.5z" />
    <glyph glyph-name="quotedblleft" unicode="&#x201c;" horiz-adv-x="870" 
d="M391 1376q-40 -27 -80 -74t-47 -92q66 -14 104 -63t38 -107q0 -72 -50.5 -124t-122.5 -52q-77 0 -128.5 50.5t-51.5 138.5q0 134 64.5 253.5t163.5 192.5zM801 1376q-40 -27 -80 -74t-47 -92q66 -14 103.5 -62.5t37.5 -107.5q0 -72 -50 -124t-122 -52q-77 0 -128.5 50.5
t-51.5 138.5q0 134 64 253.5t163 192.5z" />
    <glyph glyph-name="quotedblright" unicode="&#x201d;" horiz-adv-x="870" 
d="M477 987q40 27 80 74t47 92q-66 14 -103.5 62.5t-37.5 107.5q0 72 50 124t122 52q77 0 128.5 -50t51.5 -138q0 -134 -64 -254t-163 -193zM68 987q40 27 80 74t47 92q-66 14 -104 63t-38 107q0 72 50 124t122 52q77 0 129 -50.5t52 -137.5q0 -134 -64.5 -254t-163.5 -193z
" />
    <glyph glyph-name="quotedblbase" unicode="&#x201e;" horiz-adv-x="870" 
d="M68 -190q41 27 80.5 74t46.5 91q-66 14 -104 63t-38 107q0 72 50 124.5t122 52.5q77 0 129 -50.5t52 -138.5q0 -134 -64.5 -253.5t-163.5 -192.5zM477 -190q41 27 80.5 74t46.5 91q-66 14 -103.5 62.5t-37.5 107.5q0 72 50 124.5t122 52.5q77 0 128.5 -50.5t51.5 -138.5
q0 -134 -64 -253.5t-163 -192.5z" />
    <glyph glyph-name="dagger" unicode="&#x2020;" horiz-adv-x="870" 
d="M295 0v852h-240v246h240v336h276v-336h244v-246h-244v-852h-276z" />
    <glyph glyph-name="daggerdbl" unicode="&#x2021;" horiz-adv-x="868" 
d="M815 590v-244h-240v-346h-276v346h-244v244h244v250h-244v245h244v349h276v-349h240v-245h-240v-250h240z" />
    <glyph glyph-name="bullet" unicode="&#x2022;" horiz-adv-x="831" 
d="M416 283q-151 0 -252 102t-101 250t101 250t252 102t251.5 -102t100.5 -250t-100.5 -250t-251.5 -102z" />
    <glyph glyph-name="perthousand" unicode="&#x2030;" horiz-adv-x="2439" 
d="M143 0l1086 1434h274l-1085 -1434h-275zM754 1118q0 -143 -99.5 -242.5t-248.5 -99.5t-249 99.5t-100 242.5t100 242.5t249 99.5t248.5 -99.5t99.5 -242.5zM272 1118q0 -57 37 -97t97 -40t96.5 40t36.5 97t-36.5 97t-96.5 40t-97 -40t-37 -97zM1587 311
q0 -143 -99.5 -242.5t-248.5 -99.5t-248.5 99.5t-99.5 242.5t99.5 242.5t248.5 99.5t248.5 -99.5t99.5 -242.5zM1106 311q0 -57 36.5 -97t96.5 -40t96.5 40t36.5 97q0 58 -36.5 98t-96.5 40t-96.5 -40t-36.5 -98zM2382 311q0 -143 -99.5 -242.5t-248.5 -99.5t-248.5 99.5
t-99.5 242.5t99.5 242.5t248.5 99.5t248.5 -99.5t99.5 -242.5zM1901 311q0 -57 36.5 -97t96.5 -40t96.5 40t36.5 97q0 58 -36.5 98t-96.5 40t-96.5 -40t-36.5 -98z" />
    <glyph glyph-name="guilsinglleft" unicode="&#x2039;" horiz-adv-x="618" 
d="M307 217l-250 383l250 385h252l-250 -385l250 -383h-252z" />
    <glyph glyph-name="guilsinglright" unicode="&#x203a;" horiz-adv-x="618" 
d="M559 600l-250 -383h-252l250 383l-250 385h252z" />
    <glyph glyph-name="fraction" unicode="&#x2044;" horiz-adv-x="942" 
d="M209 -84h-242l766 1602h244z" />
    <glyph glyph-name="Euro" unicode="&#x20ac;" horiz-adv-x="1320" 
d="M49 473v186h103q-5 20 -5 60q0 20 5 65h-103v189h139q68 215 248.5 351t419.5 136q223 0 367 -92l-119 -235q-111 63 -242 63q-122 0 -217.5 -60.5t-140.5 -162.5h452l-18 -189h-485q-4 -40 -4 -63q0 -38 6 -62h473l-19 -186h-397q47 -104 143 -165.5t222 -61.5
q77 0 143.5 20.5t105.5 46.5l111 -233q-44 -41 -142.5 -74t-217.5 -33q-258 0 -441 138t-250 362h-137z" />
    <glyph glyph-name="numero" unicode="&#x2116;" horiz-adv-x="2351" 
d="M1679 1085q0 -72 48.5 -123t125.5 -51q75 0 125 51.5t50 122.5q0 72 -49 125.5t-126 53.5t-125.5 -53.5t-48.5 -125.5zM1475 1085q0 153 107.5 264t270.5 111q164 0 271.5 -111t107.5 -264t-107.5 -261.5t-271.5 -108.5t-271 108.5t-107 261.5zM1509 387v227h686v-227
h-686zM1038 0l-618 975v-975h-285v1434h293l612 -983v983h285v-1434h-287z" />
    <glyph glyph-name="trademark" unicode="&#x2122;" horiz-adv-x="1591" 
d="M246 694v566h-180v174h550v-174h-178v-566h-192zM1194 776h-176l-146 348v-430h-186v740h244l174 -435l176 435h246v-740h-187v430z" />
    <glyph glyph-name="minus" unicode="&#x2212;" horiz-adv-x="1126" 
d="M74 524v228h979v-228h-979z" />
    <glyph glyph-name="commaaccent" unicode="&#xf6c3;" horiz-adv-x="598" 
d="M162 -492q82 65 100 134q-57 11 -89 53.5t-32 93.5q0 63 45.5 107.5t108.5 44.5q70 0 115 -49t45 -128q0 -107 -54 -203.5t-141 -156.5z" />
    <glyph glyph-name="hyphen.caps" horiz-adv-x="755" 
d="M92 592v254h570v-254h-570z" />
    <glyph glyph-name="endash.caps" horiz-adv-x="1327" 
d="M92 608v232h1143v-232h-1143z" />
    <glyph glyph-name="emdash.caps" horiz-adv-x="1880" 
d="M92 608v232h1694v-232h-1694z" />
    <glyph glyph-name="guillemotleft.caps" horiz-adv-x="1003" 
d="M307 348l-250 383l250 385h252l-250 -385l250 -383h-252zM692 348l-250 383l250 385h252l-250 -385l250 -383h-252z" />
    <glyph glyph-name="guillemotright.caps" horiz-adv-x="1003" 
d="M944 731l-250 -383h-252l250 383l-250 385h252zM559 731l-250 -383h-252l250 383l-250 385h252z" />
    <glyph glyph-name="guilsinglleft.caps" horiz-adv-x="618" 
d="M307 348l-250 383l250 385h252l-250 -385l250 -383h-252z" />
    <glyph glyph-name="guilsinglright.caps" horiz-adv-x="618" 
d="M559 731l-250 -383h-252l250 383l-250 385h252z" />
    <glyph glyph-name="parenleft.caps" horiz-adv-x="679" 
d="M373 1286v-1143q0 -174 176 -174v-243q-457 0 -457 432v1112q0 434 457 434v-244q-176 0 -176 -174z" />
    <glyph glyph-name="parenright.caps" horiz-adv-x="681" 
d="M307 143v1143q0 174 -176 174v244q457 0 457 -434v-1112q0 -432 -457 -432v243q176 0 176 174z" />
    <glyph glyph-name="bracketleft.caps" horiz-adv-x="679" 
d="M92 -274v1978h457v-244h-176v-1491h176v-243h-457z" />
    <glyph glyph-name="bracketright.caps" horiz-adv-x="684" 
d="M588 1704v-1978h-457v243h176v1491h-176v244h457z" />
    <glyph glyph-name="braceleft.caps" horiz-adv-x="794" 
d="M324 715q18 -4 42 -19.5t52.5 -45t47.5 -82.5t19 -119v-306q0 -174 179 -174v-243q-457 0 -457 434v221q0 203 -150 203v264q150 0 150 203v219q0 434 457 434v-244q-179 0 -179 -174v-303q0 -66 -19 -119.5t-47.5 -83t-52 -45t-42.5 -20.5z" />
    <glyph glyph-name="bar.caps" horiz-adv-x="577" 
d="M156 -420v2169h266v-2169h-266z" />
    <glyph glyph-name="braceright.caps" horiz-adv-x="794" 
d="M471 715q-19 5 -42.5 20.5t-52.5 45t-48 83t-19 119.5v303q0 174 -178 174v244q457 0 457 -434v-219q0 -203 149 -203v-264q-149 0 -149 -203v-221q0 -434 -457 -434v243q178 0 178 174v306q0 66 19.5 119t47.5 82.5t52.5 45t42.5 19.5z" />
    <glyph glyph-name="slash.caps" horiz-adv-x="925" 
d="M31 -166l616 1757h248l-616 -1757h-248z" />
    <glyph glyph-name="backslash.caps" horiz-adv-x="925" 
d="M279 1591l616 -1757h-248l-616 1757h248z" />
    <glyph glyph-name="exclamdown.caps" horiz-adv-x="598" 
d="M150 0l22 1026h254l23 -1026h-299zM299 1460q73 0 123.5 -50.5t50.5 -121.5q0 -73 -50.5 -124.5t-123.5 -51.5t-123.5 51.5t-50.5 124.5q0 71 50.5 121.5t123.5 50.5z" />
    <glyph glyph-name="questiondown.caps" horiz-adv-x="987" 
d="M676 1026v-100q0 -76 -34 -141.5t-82 -111.5t-96 -88.5t-82 -93t-34 -104.5q0 -63 47 -108.5t125 -45.5q127 0 182 127l226 -100q-13 -37 -33 -73.5t-55.5 -76t-79 -69t-107.5 -49t-137 -19.5q-199 0 -328 112t-129 286q0 62 19 117t49 96t66.5 77.5t73 69t66.5 64.5
t49 69.5t19 77.5v84h275zM539 1460q73 0 123.5 -50.5t50.5 -121.5q0 -73 -50.5 -124.5t-123.5 -51.5t-123.5 51.5t-50.5 124.5q0 71 50.5 121.5t123.5 50.5z" />
    <glyph glyph-name="periodcentered.caps" horiz-adv-x="509" 
d="M254 553q-73 0 -123.5 50.5t-50.5 121.5q0 73 50.5 124.5t123.5 51.5t123.5 -51.5t50.5 -124.5q0 -71 -50.5 -121.5t-123.5 -50.5z" />
    <glyph glyph-name="bullet.caps" horiz-adv-x="831" 
d="M416 373q-151 0 -252 102t-101 250t101 250t252 102t251.5 -102t100.5 -250t-100.5 -250t-251.5 -102z" />
    <glyph glyph-name="zero.tab" horiz-adv-x="1189" 
d="M1090 717q0 -377 -116 -560.5t-380 -183.5q-262 0 -378 183.5t-116 560.5q0 375 116 559t378 184q264 0 380 -183.5t116 -559.5zM393 717q0 -82 3 -141.5t10.5 -116t21.5 -94t36.5 -66t54.5 -42t75 -13.5q52 0 88.5 21t59 57t35 98t16.5 130t4 167q0 82 -3 141
t-10.5 115.5t-22 94t-36.5 66.5t-54.5 42.5t-76.5 13.5q-43 0 -75 -13.5t-54 -42.5t-36.5 -66.5t-22 -94t-10.5 -115.5t-3 -141z" />
    <glyph glyph-name="one.tab" horiz-adv-x="1189" 
d="M158 0v252h364v897l-305 -133l-100 219l454 199h236v-1182h266v-252h-915z" />
    <glyph glyph-name="two.tab" horiz-adv-x="1189" 
d="M125 0v102q0 83 35 165t90.5 150t123.5 133.5t135.5 125.5t123 116t90.5 114.5t35 111.5q0 80 -49.5 128t-135.5 48q-152 0 -202 -168l-252 74q11 47 31 92.5t58.5 95.5t88 87t125 61t164.5 24q209 0 338 -117.5t129 -312.5q0 -78 -29.5 -152.5t-78 -134t-107 -115
t-119.5 -104.5t-113.5 -93t-90.5 -90.5t-48 -88.5h602v-252h-944z" />
    <glyph glyph-name="three.tab" horiz-adv-x="1189" 
d="M588 -27q-111 0 -199 33t-142.5 87.5t-86.5 112t-47 120.5l247 77q24 -73 79.5 -119t142.5 -46q90 0 145 53.5t55 142.5q0 88 -60.5 141.5t-174.5 53.5h-158v223l297 328h-518v254h848v-254l-301 -316q69 -7 132.5 -38t115 -82t82 -128.5t30.5 -169.5
q0 -208 -137.5 -340.5t-349.5 -132.5z" />
    <glyph glyph-name="four.tab" horiz-adv-x="1189" 
d="M49 334v207l588 893h336v-854h168v-246h-168v-334h-285v334h-639zM346 580h342v532z" />
    <glyph glyph-name="five.tab" horiz-adv-x="1189" 
d="M563 692q-97 0 -170 -78l-239 41l30 779h809v-254h-553l-12 -293q88 49 205 49q186 0 317 -127t131 -322q0 -225 -137 -369.5t-350 -144.5q-88 0 -164.5 22.5t-129 58t-94 83t-65 94t-35.5 95.5l250 77q21 -76 78.5 -120.5t145.5 -44.5q93 0 152 64t59 163q0 93 -59 160
t-169 67z" />
    <glyph glyph-name="six.tab" horiz-adv-x="1189" 
d="M608 244q93 0 144 59.5t51 167.5q0 100 -52 162.5t-149 62.5q-123 0 -207 -112q0 -51 2.5 -87.5t9.5 -79t21.5 -71t37.5 -53.5t59 -37t83 -12zM688 1460q186 0 336 -94l-113 -233q-87 57 -204 57q-69 0 -122.5 -22.5t-84.5 -56t-51.5 -79.5t-28.5 -86.5t-10 -83.5
q107 92 256 92q190 0 305.5 -126t115.5 -349q0 -227 -132 -366.5t-349 -139.5q-115 0 -203 32t-144.5 88t-92 140t-50 179t-14.5 213q0 140 17 258t59 227t107.5 184.5t168 120.5t234.5 45z" />
    <glyph glyph-name="seven.tab" horiz-adv-x="1189" 
d="M115 1434h958v-220l-481 -1214h-311l487 1180h-653v254z" />
    <glyph glyph-name="eight.tab" horiz-adv-x="1189" 
d="M592 -27q-229 0 -365.5 122t-136.5 327q0 121 59 209t138 131q-63 40 -110.5 116t-47.5 175q0 179 127.5 293t337.5 114q209 0 337 -113.5t128 -293.5q0 -99 -48 -175t-112 -116q82 -44 140.5 -131.5t58.5 -208.5q0 -203 -139 -326t-367 -123zM594 618q-95 0 -152 -53.5
t-57 -138.5q0 -83 55.5 -136.5t153.5 -53.5q99 0 154 53.5t55 136.5q0 85 -57 138.5t-152 53.5zM594 1200q-84 0 -131 -46.5t-47 -117.5q0 -74 49.5 -120t128.5 -46q78 0 128 46.5t50 119.5q0 70 -47.5 117t-130.5 47z" />
    <glyph glyph-name="nine.tab" horiz-adv-x="1204" 
d="M588 1190q-93 0 -144 -59.5t-51 -167.5q0 -101 52 -163.5t149 -62.5q122 0 207 113q0 51 -2.5 87.5t-9.5 79t-21.5 71t-37.5 53.5t-59 37t-83 12zM508 -27q-185 0 -336 95l113 233q87 -57 204 -57q69 0 122.5 22.5t84.5 55.5t51.5 79.5t28.5 86.5t10 83
q-107 -92 -256 -92q-190 0 -305.5 126t-115.5 349q0 227 132 366.5t349 139.5q143 0 243.5 -47.5t156.5 -138t80 -203.5t24 -262q0 -140 -17 -258.5t-59 -227t-107.5 -184.5t-168 -121t-234.5 -45z" />
    </font>
</defs>
</svg>
