<?xml version="1.0" standalone="no"?>
<!DOCTYPE svg PUBLIC "-//W3C//DTD SVG 1.1//EN" "http://www.w3.org/Graphics/SVG/1.1/DTD/svg11.dtd" >
<svg xmlns="http://www.w3.org/2000/svg" xmlns:xlink="http://www.w3.org/1999/xlink" version="1.1">
<metadata>
Created by FontForge 20170731 at Tue Oct  5 11:52:15 2021
 By Aleksey,,,
Copyright (c) 2014 by atipo. All rights reserved.
</metadata>
<defs>
<font id="Geomanist-Ultra" horiz-adv-x="569" >
  <font-face 
    font-family="Geomanist"
    font-weight="900"
    font-stretch="normal"
    units-per-em="2048"
    panose-1="2 0 5 3 4 0 0 2 0 4"
    ascent="1536"
    descent="-512"
    x-height="1090"
    cap-height="1434"
    bbox="-172 -723 2652 2062"
    underline-thickness="102"
    underline-position="-307"
    unicode-range="U+0020-F6C3"
  />
<missing-glyph horiz-adv-x="1040" 
d="M8 0v1434h1024v-1434h-1024zM520 809l348 522h-696zM582 717l348 -522v1044zM111 195l348 522l-348 522v-1044zM172 102h696l-348 523z" />
    <glyph glyph-name="ellipsis" unicode="&#x2e;&#x2e;&#x2e;" horiz-adv-x="1792" 
d="M18 209q0 101 72 170.5t184 69.5q114 0 186 -69t72 -171q0 -98 -72.5 -167t-185.5 -69q-112 0 -184 69t-72 167zM647 209q0 101 72 170.5t184 69.5q114 0 186 -69t72 -171q0 -98 -72.5 -167t-185.5 -69q-112 0 -184 69t-72 167zM1260 209q0 101 72 170.5t184 69.5
q114 0 186 -69t72 -171q0 -98 -72.5 -167t-185.5 -69q-112 0 -184 69t-72 167z" />
    <glyph glyph-name=".notdef" horiz-adv-x="1040" 
d="M8 0v1434h1024v-1434h-1024zM520 809l348 522h-696zM582 717l348 -522v1044zM111 195l348 522l-348 522v-1044zM172 102h696l-348 523z" />
    <glyph glyph-name=".null" horiz-adv-x="0" 
 />
    <glyph glyph-name="nonmarkingreturn" horiz-adv-x="682" 
 />
    <glyph glyph-name="space" unicode=" " horiz-adv-x="395" 
 />
    <glyph glyph-name="exclam" unicode="!" horiz-adv-x="671" 
d="M78 209q0 101 72 170.5t184 69.5q114 0 186 -69t72 -171q0 -98 -72.5 -167t-185.5 -69q-112 0 -184 69t-72 167zM119 477l-35 957h504l-35 -957h-434z" />
    <glyph glyph-name="quotedbl" unicode="&#x22;" horiz-adv-x="911" 
d="M70 858l-19 576h385l-16 -576h-350zM489 858l-18 576h389l-18 -576h-353z" />
    <glyph glyph-name="numbersign" unicode="#" horiz-adv-x="1396" 
d="M584 0l69 328h-88l-69 -328h-400l70 328h-146l64 313h147l33 152h-147l63 313h150l69 328h400l-70 -328h88l70 328h399l-69 -328h157l-63 -313h-160l-33 -152h160l-64 -313h-161l-70 -328h-399zM664 793l-33 -152h88l33 152h-88z" />
    <glyph glyph-name="dollar" unicode="$" horiz-adv-x="1181" 
d="M455 -152v138q-93 17 -170.5 58t-128 94t-82.5 104t-51 104l370 201q40 -68 92 -110t99 -42q20 0 30.5 9.5t10.5 25.5q0 26 -31 50.5t-80 47t-108.5 49.5t-119.5 65t-109 85t-80 119t-31 158q0 172 104.5 289t284.5 153v125h305v-129q80 -20 148.5 -59.5t114 -86.5
t74.5 -92t42 -86l-351 -205q-26 53 -68.5 92t-88.5 39q-20 0 -31.5 -10.5t-11.5 -25.5q0 -27 31 -52.5t80.5 -50t109 -52t119.5 -66t109.5 -85t80.5 -115.5t31 -151q0 -174 -103 -291.5t-286 -154.5v-142h-305z" />
    <glyph glyph-name="percent" unicode="%" horiz-adv-x="1830" 
d="M190 0l1055 1434h393l-1054 -1434h-394zM834 1092q0 -156 -113.5 -262.5t-288.5 -106.5t-288 106.5t-113 262.5t113 262t288 106t288.5 -106t113.5 -262zM383 1092q0 -32 13 -52t36 -20t36 20t13 52q0 31 -13 51t-36 20t-36 -20t-13 -51zM1796 342q0 -156 -113 -262.5
t-288 -106.5t-288.5 106.5t-113.5 262.5t113.5 262.5t288.5 106.5t288 -106.5t113 -262.5zM1346 342q0 -32 13 -52t36 -20t36 20t13 52t-13 52t-36 20t-36 -20t-13 -52z" />
    <glyph glyph-name="ampersand" unicode="&#x26;" horiz-adv-x="1421" 
d="M1104 -84l-141 145q-65 -39 -164.5 -63.5t-208.5 -24.5q-268 0 -421 131.5t-153 337.5q0 115 61 215.5t177 176.5q-88 104 -88 233q0 174 128.5 283.5t340.5 109.5q228 0 355.5 -113.5t127.5 -287.5q0 -203 -221 -348l80 -78q18 34 18 65h389q0 -92 -32.5 -192.5
t-87.5 -169.5l135 -131zM602 344q44 0 76 21q-24 22 -164 167q-35 -31 -35 -79q0 -50 37.5 -79.5t85.5 -29.5zM590 1044q0 -56 55 -108q57 41 57 106q0 32 -15 51t-42 19q-24 0 -39.5 -19t-15.5 -49z" />
    <glyph glyph-name="quotesingle" unicode="'" horiz-adv-x="487" 
d="M70 858l-19 576h385l-16 -576h-350z" />
    <glyph glyph-name="parenleft" unicode="(" horiz-adv-x="780" 
d="M41 90v1098q0 247 166 376.5t457 129.5v-359q-88 0 -125 -37t-37 -110v-1098q0 -73 37 -110t125 -37v-359q-291 0 -457 129.5t-166 376.5z" />
    <glyph glyph-name="parenright" unicode=")" horiz-adv-x="780" 
d="M739 1188v-1098q0 -247 -165.5 -376.5t-456.5 -129.5v359q88 0 125 37t37 110v1098q0 73 -37 110t-125 37v359q291 0 456.5 -129.5t165.5 -376.5z" />
    <glyph glyph-name="asterisk" unicode="*" horiz-adv-x="917" 
d="M27 1118l143 244l137 -74v146h311v-146l136 76l135 -246l-150 -74l152 -69l-139 -250l-134 74v-144h-311v144l-135 -74l-143 248l161 74z" />
    <glyph glyph-name="plus" unicode="+" horiz-adv-x="1099" 
d="M20 469v332h330v352h400v-352h329v-332h-329v-354h-400v354h-330z" />
    <glyph glyph-name="comma" unicode="," horiz-adv-x="550" 
d="M18 209q0 101 72 170.5t184 69.5t185 -69.5t73 -189.5q0 -166 -84 -319.5t-235 -251.5l-182 205q46 28 90.5 74.5t64.5 87.5q-82 30 -125 90t-43 133z" />
    <glyph glyph-name="hyphen" unicode="-" horiz-adv-x="829" 
d="M70 459v352h688v-352h-688z" />
    <glyph glyph-name="period" unicode="." horiz-adv-x="550" 
d="M18 209q0 101 72 170.5t184 69.5q114 0 186 -69t72 -171q0 -98 -72.5 -167t-185.5 -69q-112 0 -184 69t-72 167z" />
    <glyph glyph-name="slash" unicode="/" horiz-adv-x="997" 
d="M-12 -221l614 1757h410l-615 -1757h-409z" />
    <glyph glyph-name="zero" unicode="0" horiz-adv-x="1232" 
d="M616 -27q-290 0 -430.5 185t-140.5 559q0 373 140.5 558t430.5 185t431 -185t141 -558q0 -374 -141 -559t-431 -185zM616 383q70 0 70 334q0 338 -70 338q-69 0 -69 -338q0 -334 69 -334z" />
    <glyph glyph-name="one" unicode="1" horiz-adv-x="827" 
d="M143 956l-102 375l332 103h393v-1434h-500v989z" />
    <glyph glyph-name="two" unicode="2" horiz-adv-x="1187" 
d="M55 0v180q0 85 31.5 164t82.5 140t112 118t122 106t112 94.5t82.5 94t31.5 94.5q0 30 -17.5 47t-44.5 17q-66 0 -94 -123l-438 90q14 68 40 128t71 118t104 99.5t145.5 67t190.5 25.5q160 0 284 -51t196.5 -155.5t72.5 -249.5q0 -75 -26 -144.5t-67.5 -121.5t-91.5 -98.5
t-100.5 -82.5t-92 -66t-67.5 -56.5t-26 -47.5h483v-387h-1096z" />
    <glyph glyph-name="three" unicode="3" horiz-adv-x="1159" 
d="M1069 1434v-355l-203 -184q120 -43 193.5 -147.5t73.5 -272.5q0 -147 -72 -262t-199.5 -177.5t-288.5 -62.5q-106 0 -194.5 27t-146.5 68.5t-102 98t-67 109t-36 107.5l430 94q7 -44 33.5 -70t60.5 -26q38 0 65 24t27 64q0 38 -31.5 65t-83.5 27h-213v281l238 205h-463
v387h979z" />
    <glyph glyph-name="four" unicode="4" horiz-adv-x="1280" 
d="M23 291v295l532 848h559v-770h141v-373h-141v-291h-496v291h-595zM461 664h157v268z" />
    <glyph glyph-name="five" unicode="5" horiz-adv-x="1165" 
d="M553 385q35 0 62.5 25t27.5 73q0 44 -26.5 73.5t-69.5 29.5q-26 0 -48 -15t-32 -41l-410 58l33 846h965v-387h-539l-4 -113q58 20 133 20q135 0 249 -57.5t183.5 -166.5t69.5 -247q0 -143 -74 -260t-204 -183.5t-289 -66.5q-105 0 -195 26.5t-151 68t-108 96.5t-72 108
t-38 107l443 98q5 -49 32 -70.5t62 -21.5z" />
    <glyph glyph-name="six" unicode="6" horiz-adv-x="1204" 
d="M623 377q30 0 48.5 32t18.5 76q0 55 -23.5 92t-62.5 37q-36 0 -63 -20q-7 -217 82 -217zM705 1460q235 0 399 -102l-164 -363q-102 58 -188 58q-68 0 -110.5 -40.5t-53.5 -101.5q66 39 166 39q85 0 157.5 -26t130.5 -79t91.5 -143t33.5 -208q0 -226 -155 -373.5
t-398 -147.5q-579 0 -579 666q0 84 9 163t30.5 162.5t55.5 154.5t87 135t121 109t162 71t205 26z" />
    <glyph glyph-name="seven" unicode="7" horiz-adv-x="1118" 
d="M14 1434h1090v-285l-432 -1149h-533l408 1053h-533v381z" />
    <glyph glyph-name="eight" unicode="8" horiz-adv-x="1208" 
d="M604 -27q-265 0 -418 130t-153 350q0 93 38 175.5t103 135.5q-51 46 -82 115t-31 145q0 189 145.5 312.5t397.5 123.5t397.5 -123.5t145.5 -312.5q0 -76 -31 -145t-82 -115q65 -53 103.5 -135.5t38.5 -175.5q0 -220 -153.5 -350t-418.5 -130zM604 1090q-32 0 -49.5 -28
t-17.5 -69q0 -44 17.5 -69t49.5 -25t49 24.5t17 69.5q0 41 -17 69t-49 28zM604 575q-41 0 -62.5 -35t-21.5 -77q0 -52 23 -83.5t61 -31.5t60 31t22 84q0 42 -21.5 77t-60.5 35z" />
    <glyph glyph-name="nine" unicode="9" horiz-adv-x="1204" 
d="M580 1057q-30 0 -49 -32.5t-19 -76.5q0 -55 23.5 -92t62.5 -37q36 0 64 21q7 217 -82 217zM498 -27q-234 0 -400 103l164 362q100 -57 189 -57q68 0 110 40t53 101q-66 -39 -165 -39q-85 0 -157.5 26t-131 79.5t-92 143.5t-33.5 208q0 226 155 373t398 147
q579 0 579 -665q0 -120 -17.5 -229.5t-64.5 -220.5t-120 -191t-193 -130.5t-274 -50.5z" />
    <glyph glyph-name="colon" unicode=":" horiz-adv-x="546" 
d="M18 209q0 101 72 170.5t184 69.5q114 0 186 -69t72 -171q0 -98 -72.5 -167t-185.5 -69q-112 0 -184 69t-72 167zM16 854q0 101 72 170.5t184 69.5q114 0 186 -69t72 -171q0 -98 -72.5 -167t-185.5 -69q-112 0 -184 69t-72 167z" />
    <glyph glyph-name="semicolon" unicode=";" horiz-adv-x="546" 
d="M16 854q0 101 72 170.5t184 69.5q114 0 186 -69t72 -171q0 -98 -72.5 -167t-185.5 -69q-112 0 -184 69t-72 167zM18 209q0 101 72 170.5t184 69.5t185 -69.5t73 -189.5q0 -166 -84 -319.5t-235 -251.5l-182 205q46 28 90.5 74.5t64.5 87.5q-82 30 -125 90t-43 133z" />
    <glyph glyph-name="less" unicode="&#x3c;" horiz-adv-x="1089" 
d="M72 498v274l944 418v-371l-473 -182l473 -182v-373z" />
    <glyph glyph-name="equal" unicode="=" horiz-adv-x="1099" 
d="M20 668v329h1059v-329h-1059zM20 254v330h1059v-330h-1059z" />
    <glyph glyph-name="greater" unicode="&#x3e;" horiz-adv-x="1089" 
d="M1016 772v-274l-944 -416v373l473 182l-473 182v371z" />
    <glyph glyph-name="question" unicode="?" horiz-adv-x="1036" 
d="M250 477v92q0 58 22 112.5t55 93t71.5 76t71.5 65t55 57.5t22 55q0 28 -16.5 47t-47.5 19q-37 0 -65 -31.5t-41 -79.5l-363 158q16 43 36.5 81t61.5 83.5t92.5 78t131.5 54.5t176 22q221 0 364.5 -113.5t143.5 -297.5q0 -63 -23.5 -119.5t-59 -95t-76.5 -77t-76.5 -69
t-59 -68t-23.5 -75.5v-68h-452zM217 209q0 101 72 170.5t184 69.5q114 0 186 -69t72 -171q0 -98 -72.5 -167t-185.5 -69q-112 0 -184 69t-72 167z" />
    <glyph glyph-name="at" unicode="@" horiz-adv-x="1916" 
d="M487 530q0 177 96.5 291.5t256.5 114.5q49 0 101 -17.5t79 -44.5v50h348v-449q0 -84 62 -84q42 0 72 57.5t30 174.5q0 225 -156.5 360t-412.5 135q-167 0 -300 -76t-206.5 -207.5t-73.5 -293.5q0 -172 77 -302t214 -199t313 -69q243 0 422 86l96 -233q-89 -56 -226 -88.5
t-292 -32.5q-278 0 -490.5 105t-327 292.5t-114.5 429.5q0 188 70.5 348t192 270.5t288.5 173t357 62.5q201 0 371 -59t284.5 -161t178 -238.5t63.5 -290.5q0 -228 -127 -369t-336 -141q-73 0 -140.5 33t-103.5 84q-32 -47 -108 -83t-166 -36q-176 0 -284 115t-108 292z
M864 528q0 -51 23.5 -84.5t58.5 -33.5t57.5 36t22.5 82t-22.5 82.5t-57.5 36.5t-58.5 -34t-23.5 -85z" />
    <glyph glyph-name="A" unicode="A" horiz-adv-x="1523" 
d="M918 219h-336l-64 -219h-508l496 1434h512l495 -1434h-532zM829 584l-79 295l-82 -295h161z" />
    <glyph glyph-name="B" unicode="B" horiz-adv-x="1273" 
d="M61 0v1434h621q244 0 387 -111t143 -293q0 -178 -147 -280q81 -45 128.5 -128t47.5 -173q0 -214 -143.5 -331.5t-382.5 -117.5h-654zM561 891h90q39 0 60.5 24t21.5 56t-21.5 56t-60.5 24h-90v-160zM561 385h90q41 0 69 28t28 68t-28 68.5t-69 28.5h-90v-193z" />
    <glyph glyph-name="C" unicode="C" horiz-adv-x="1312" 
d="M16 719q0 154 55.5 289.5t154.5 235.5t245 158t317 58q279 0 482 -141l-156 -410q-114 111 -268 111q-124 0 -205.5 -84.5t-81.5 -216.5q0 -137 82 -221t205 -84q153 0 278 112l154 -411q-201 -142 -490 -142q-167 0 -310 54.5t-244.5 151t-159.5 236t-58 304.5z" />
    <glyph glyph-name="D" unicode="D" horiz-adv-x="1390" 
d="M61 0v1434h512q238 0 418.5 -84.5t281.5 -247t101 -383.5q0 -218 -99.5 -381.5t-281 -250.5t-420.5 -87h-512zM565 1024v-614h31q116 0 182 78t66 231q0 152 -66 228.5t-182 76.5h-31z" />
    <glyph glyph-name="E" unicode="E" horiz-adv-x="1017" 
d="M61 0v1434h895v-404h-376v-119h335v-379h-335v-129h376v-403h-895z" />
    <glyph glyph-name="F" unicode="F" horiz-adv-x="987" 
d="M61 0v1434h889v-404h-370v-166h335v-383h-335v-481h-519z" />
    <glyph glyph-name="G" unicode="G" horiz-adv-x="1529" 
d="M793 -27q-177 0 -324 57t-245.5 157t-153 236.5t-54.5 295.5q0 153 56 289t155.5 236t245 158t315.5 58q386 0 611 -233l-289 -312q-120 105 -264 105q-124 0 -205.5 -84.5t-81.5 -216.5q0 -140 79 -226.5t210 -86.5q112 0 176 38v56h-162v346h627v-637
q-271 -236 -696 -236z" />
    <glyph glyph-name="H" unicode="H" horiz-adv-x="1466" 
d="M61 0v1434h521v-516h303v516h520v-1434h-520v514h-303v-514h-521z" />
    <glyph glyph-name="I" unicode="I" horiz-adv-x="643" 
d="M61 0v1434h521v-1434h-521z" />
    <glyph glyph-name="J" unicode="J" horiz-adv-x="858" 
d="M23 25l51 391q62 -15 110 -15q92 0 92 78v955h521v-1035q0 -411 -484 -411q-147 0 -290 37z" />
    <glyph glyph-name="K" unicode="K" horiz-adv-x="1431" 
d="M61 0v1434h521v-521l245 521h568l-355 -684l369 -750h-578l-249 590v-590h-521z" />
    <glyph glyph-name="L" unicode="L" horiz-adv-x="1001" 
d="M61 0v1434h521v-1031h393v-403h-914z" />
    <glyph glyph-name="M" unicode="M" horiz-adv-x="1875" 
d="M713 1434l225 -816l225 816h652v-1434h-506v690l-142 -581h-458l-142 581v-690h-506v1434h652z" />
    <glyph glyph-name="N" unicode="N" horiz-adv-x="1474" 
d="M61 0v1434h527l311 -674v674h514v-1434h-526l-312 674v-674h-514z" />
    <glyph glyph-name="O" unicode="O" horiz-adv-x="1617" 
d="M809 -27q-180 0 -330 57.5t-250.5 158t-156.5 237t-56 293.5q0 155 56 290.5t156.5 235.5t251 157.5t329.5 57.5t329.5 -57.5t251 -157.5t156.5 -235.5t56 -290.5q0 -157 -56 -293.5t-156.5 -237t-250.5 -158t-330 -57.5zM809 1032q-118 0 -184 -87t-66 -226
q0 -143 65.5 -230.5t184.5 -87.5q118 0 184 87.5t66 230.5q0 139 -66.5 226t-183.5 87z" />
    <glyph glyph-name="P" unicode="P" horiz-adv-x="1206" 
d="M61 0v1434h603q244 0 386 -135.5t142 -352.5q0 -218 -144.5 -356.5t-377.5 -138.5h-109v-451h-500zM561 827h47q45 0 77 29.5t32 79.5q0 47 -29.5 77.5t-75.5 30.5h-51v-217z" />
    <glyph glyph-name="Q" unicode="Q" horiz-adv-x="1624" 
d="M809 -27q-180 0 -330 57.5t-250.5 158t-156.5 237t-56 293.5q0 155 56 290.5t156.5 235.5t251 157.5t329.5 57.5t329.5 -57.5t251 -157.5t156.5 -235.5t56 -290.5q0 -195 -84 -354l124 -105l-288 -330l-150 129q-177 -86 -395 -86zM809 1032q-118 0 -184 -87t-66 -226
q0 -143 65.5 -230.5t184.5 -87.5q118 0 184 87.5t66 230.5q0 139 -66.5 226t-183.5 87z" />
    <glyph glyph-name="R" unicode="R" horiz-adv-x="1294" 
d="M61 0v1434h637q245 0 389 -132t144 -333q0 -118 -65 -216t-162 -153l327 -600h-563l-203 463v-463h-504zM565 844h62q47 0 74.5 30t27.5 70t-27.5 70t-74.5 30h-62v-200z" />
    <glyph glyph-name="S" unicode="S" horiz-adv-x="1181" 
d="M625 430q0 26 -31 50.5t-80 47t-108.5 49.5t-119.5 65t-109 85t-80 119t-31 158q0 206 148 331t390 125q94 0 179 -23.5t145.5 -60t108.5 -82.5t76 -89.5t40 -82.5l-365 -209q-26 53 -68.5 92t-88.5 39q-20 0 -31.5 -10.5t-11.5 -25.5q0 -27 31 -52.5t80.5 -50t109 -52
t119.5 -66t109.5 -85t80.5 -115.5t31 -151q0 -212 -151.5 -337.5t-407.5 -125.5q-98 0 -185 25t-147.5 63.5t-110 90t-78.5 99t-46 95.5l370 201q40 -68 92 -110t99 -42q20 0 30.5 9.5t10.5 25.5z" />
    <glyph glyph-name="T" unicode="T" horiz-adv-x="1142" 
d="M311 0v1030h-280v404h1083v-404h-283v-1030h-520z" />
    <glyph glyph-name="U" unicode="U" horiz-adv-x="1445" 
d="M721 -27q-314 0 -487 162t-173 428v871h521v-883q0 -72 37.5 -111t101.5 -39q66 0 104.5 39t38.5 111v883h520v-871q0 -266 -174 -428t-489 -162z" />
    <glyph glyph-name="V" unicode="V" horiz-adv-x="1593" 
d="M1059 0h-524l-521 1434h564l227 -840l227 840h547z" />
    <glyph glyph-name="W" unicode="W" horiz-adv-x="2166" 
d="M1257 0l-174 752l-174 -752h-522l-373 1434h555l133 -789l177 789h409l176 -789l133 789h555l-372 -1434h-523z" />
    <glyph glyph-name="X" unicode="X" horiz-adv-x="1523" 
d="M946 0l-192 387l-185 -387h-557l453 719l-453 715h600l158 -351l158 351h583l-452 -715l452 -719h-565z" />
    <glyph glyph-name="Y" unicode="Y" horiz-adv-x="1449" 
d="M985 0h-520v612l-449 822h576l143 -408l144 408h555l-449 -822v-612z" />
    <glyph glyph-name="Z" unicode="Z" horiz-adv-x="1277" 
d="M27 0v268l538 766h-524v400h1204v-267l-545 -764h551v-403h-1224z" />
    <glyph glyph-name="bracketleft" unicode="[" horiz-adv-x="700" 
d="M41 -416v2110h623v-359h-162v-1392h162v-359h-623z" />
    <glyph glyph-name="backslash" unicode="\" horiz-adv-x="997" 
d="M397 1536l615 -1757h-410l-614 1757h409z" />
    <glyph glyph-name="bracketright" unicode="]" horiz-adv-x="700" 
d="M659 1694v-2110h-622v359h162v1392h-162v359h622z" />
    <glyph glyph-name="asciicircum" unicode="^" horiz-adv-x="1230" 
d="M756 643l-142 320l-141 -320h-432l385 791h377l385 -791h-432z" />
    <glyph glyph-name="underscore" unicode="_" horiz-adv-x="1296" 
d="M12 -45h1272v-324h-1272v324z" />
    <glyph glyph-name="grave" unicode="`" horiz-adv-x="999" 
d="M670 1493l143 -319h-383l-244 319h484z" />
    <glyph glyph-name="a" unicode="a" horiz-adv-x="1138" 
d="M27 328q0 160 120 250t302 90q101 0 188 -37v37q0 36 -37 56.5t-104 20.5q-137 0 -271 -67l-151 299q228 141 504 141q114 0 203.5 -25t147.5 -67.5t95.5 -103.5t53.5 -129t16 -148v-645h-400l-20 72q-102 -99 -264 -99q-80 0 -147.5 21t-121 63t-84 111.5t-30.5 159.5z
M475 360q0 -31 26.5 -49t65.5 -18q36 0 62 18t26 49q0 30 -26 49t-64 19t-64 -19t-26 -49z" />
    <glyph glyph-name="b" unicode="b" horiz-adv-x="1310" 
d="M51 0v1479h467v-445q37 32 107 57t141 25q161 0 276.5 -73t173.5 -200.5t58 -295.5q0 -258 -133.5 -416t-374.5 -158q-82 0 -152 25t-116 65v-63h-447zM506 547q0 -89 39.5 -146t111.5 -57q69 0 109.5 54t40.5 149q0 89 -41 146t-109 57q-69 0 -110 -54t-41 -149z" />
    <glyph glyph-name="c" unicode="c" horiz-adv-x="1021" 
d="M27 545q0 164 80.5 295.5t221.5 204.5t316 73q96 0 188 -27.5t158 -72.5l-104 -350q-87 75 -191 75q-92 0 -148 -57t-56 -141t57 -140.5t149 -56.5q121 0 193 80l106 -354q-67 -45 -156.5 -73t-185.5 -28q-175 0 -318.5 72.5t-226.5 204t-83 295.5z" />
    <glyph glyph-name="d" unicode="d" horiz-adv-x="1300" 
d="M1249 1479v-1479h-446v63q-46 -40 -116 -65t-152 -25q-241 0 -374.5 158t-133.5 416q0 168 58 295.5t173.5 200.5t276.5 73q70 0 140 -25t107 -57v445h467zM795 547q0 95 -41 149t-111 54q-68 0 -108.5 -57t-40.5 -146q0 -95 40 -149t109 -54q72 0 112 57t40 146z" />
    <glyph glyph-name="e" unicode="e" horiz-adv-x="1214" 
d="M1186 438h-694q12 -51 59.5 -82.5t112.5 -31.5q60 0 108.5 22t77.5 55l315 -172q-199 -256 -528 -256q-141 0 -257.5 47t-192.5 127.5t-117 186.5t-41 225q0 115 42.5 217.5t117.5 178t184 119.5t235 44q274 0 429 -154.5t155 -408.5q0 -33 -1.5 -62t-2.5 -42zM508 672
h223q-3 46 -34 76t-79 30q-45 0 -75 -30.5t-35 -75.5z" />
    <glyph glyph-name="f" unicode="f" horiz-adv-x="770" 
d="M127 0v750h-109v340h111q0 102 40 182t108.5 128t153.5 72.5t181 24.5q97 0 154 -14v-344q-50 8 -86 8q-40 0 -65 -17t-25 -40h155v-340h-151v-750h-467z" />
    <glyph glyph-name="g" unicode="g" horiz-adv-x="1302" 
d="M168 -287l125 318q48 -21 135.5 -43.5t175.5 -22.5q47 0 86 9.5t66.5 32t27.5 54.5v27q-96 -74 -247 -74q-222 0 -366 145.5t-144 391.5q0 249 144.5 407t365.5 158q83 0 153 -23.5t115 -62.5v60h446v-938q0 -114 -32.5 -206t-89 -154.5t-135 -104.5t-167.5 -61t-190 -19
q-118 0 -250.5 31.5t-218.5 74.5zM795 551q0 91 -40.5 145t-107.5 54q-70 0 -111.5 -56t-41.5 -143q0 -93 40.5 -146t112.5 -53q69 0 108.5 57t39.5 142z" />
    <glyph glyph-name="h" unicode="h" horiz-adv-x="1196" 
d="M776 1116q179 0 274 -112.5t95 -307.5v-696h-467v643q0 46 -22 71t-58 25q-38 0 -59 -28.5t-21 -67.5v-643h-467v1479h467v-482q39 46 108.5 82.5t149.5 36.5z" />
    <glyph glyph-name="i" unicode="i" 
d="M51 0v1090h467v-1090h-467zM285 1116q-115 0 -184.5 65.5t-69.5 164.5q0 100 69.5 165.5t184.5 65.5t184.5 -65.5t69.5 -165.5q0 -99 -69.5 -164.5t-184.5 -65.5z" />
    <glyph glyph-name="j" unicode="j" 
d="M51 27v1063h467v-1076q0 -215 -126 -311t-361 -96q-26 0 -69.5 5.5t-59.5 10.5v328q30 -4 61 -4q40 0 64 20.5t24 59.5zM285 1116q-115 0 -184.5 65.5t-69.5 164.5q0 100 69.5 165.5t184.5 65.5t184.5 -65.5t69.5 -165.5q0 -99 -69.5 -164.5t-184.5 -65.5z" />
    <glyph glyph-name="k" unicode="k" horiz-adv-x="1245" 
d="M51 0v1479h467v-762l178 373h512l-274 -500l293 -590h-535l-174 420v-420h-467z" />
    <glyph glyph-name="l" unicode="l" 
d="M51 0v1479h467v-1479h-467z" />
    <glyph glyph-name="m" unicode="m" horiz-adv-x="1759" 
d="M1708 696v-696h-467v666q0 35 -18 54t-47 19q-27 0 -45.5 -19.5t-18.5 -53.5v-666h-461v666q0 35 -19 54t-48 19q-26 0 -46 -19.5t-20 -53.5v-666h-467v1090h447v-84q44 46 115.5 78t144.5 32q170 0 258 -110q123 110 284 110q129 0 223 -58.5t139.5 -152t45.5 -209.5z
" />
    <glyph glyph-name="n" unicode="n" horiz-adv-x="1187" 
d="M766 1116q177 0 274 -113t97 -307v-696h-467v643q0 47 -20 71.5t-56 24.5q-37 0 -56.5 -28t-19.5 -68v-643h-467v1090h447v-91q43 48 113 82.5t155 34.5z" />
    <glyph glyph-name="o" unicode="o" horiz-adv-x="1286" 
d="M1260 547q0 -163 -77 -293.5t-218.5 -205.5t-321.5 -75q-135 0 -250.5 44t-195.5 120t-125 182t-45 228q0 248 171.5 409.5t444.5 161.5t445 -161.5t172 -409.5zM498 547q0 -92 38.5 -148.5t106.5 -56.5t106.5 56.5t38.5 148.5t-38.5 147.5t-106.5 55.5t-106.5 -55.5
t-38.5 -147.5z" />
    <glyph glyph-name="p" unicode="p" horiz-adv-x="1300" 
d="M51 -375v1465h447v-64q46 40 116 65t152 25q241 0 374.5 -157.5t133.5 -415.5q0 -168 -58 -296t-173.5 -201t-276.5 -73q-71 0 -141 25t-107 57v-430h-467zM506 543q0 -95 41 -149t110 -54q68 0 109 57t41 146q0 95 -40.5 148.5t-109.5 53.5q-72 0 -111.5 -56.5
t-39.5 -145.5z" />
    <glyph glyph-name="q" unicode="q" horiz-adv-x="1300" 
d="M1249 1090v-1465h-467v430q-37 -32 -107 -57t-140 -25q-161 0 -276.5 73t-173.5 201t-58 296q0 258 133.5 415.5t374.5 157.5q82 0 152 -25t116 -65v64h446zM795 543q0 88 -40 145t-112 57q-69 0 -109 -53.5t-40 -148.5q0 -89 40.5 -146t108.5 -57q70 0 111 54t41 149z
" />
    <glyph glyph-name="r" unicode="r" horiz-adv-x="817" 
d="M778 1116v-422q-43 15 -82 15q-77 0 -127.5 -54t-50.5 -147v-508h-467v1090h457v-119q36 54 108.5 99.5t161.5 45.5z" />
    <glyph glyph-name="s" unicode="s" horiz-adv-x="1003" 
d="M29 160l186 264q53 -38 137 -71.5t133 -33.5q23 0 34 7t11 16q0 14 -14.5 21.5t-54.5 19.5q-49 15 -75 23.5t-75 28.5t-77.5 38t-65.5 47.5t-57.5 62t-35 78t-14.5 97.5q0 160 133 260t334 100q261 0 437 -172l-222 -250q-39 35 -93 58.5t-97 23.5q-23 0 -34 -8t-11 -18
q0 -17 19.5 -26.5t84.5 -29.5q40 -12 67 -21t69 -26t70.5 -34.5t62 -45t53.5 -58t33.5 -73t13.5 -90.5q0 -180 -130.5 -277.5t-346.5 -97.5q-144 0 -269.5 56t-205.5 131z" />
    <glyph glyph-name="t" unicode="t" horiz-adv-x="825" 
d="M156 1090v227h454v-227h170v-340h-170v-322q0 -39 30.5 -55.5t72.5 -16.5l73 6v-358q-74 -20 -180 -20q-226 0 -344.5 107.5t-118.5 324.5v334h-98v340h111z" />
    <glyph glyph-name="u" unicode="u" horiz-adv-x="1187" 
d="M438 -27q-186 0 -286.5 106t-100.5 298v713h467v-644q0 -47 20 -71.5t56 -24.5q37 0 56.5 28t19.5 68v644h467v-1090h-447v84q-36 -43 -106 -77t-146 -34z" />
    <glyph glyph-name="v" unicode="v" horiz-adv-x="1275" 
d="M901 0h-520l-367 1090h500l127 -553l127 553h487z" />
    <glyph glyph-name="w" unicode="w" horiz-adv-x="1789" 
d="M983 0l-90 401l-84 -401h-504l-289 1090h508l70 -537l94 537h414l94 -541l72 541h508l-291 -1090h-502z" />
    <glyph glyph-name="x" unicode="x" horiz-adv-x="1228" 
d="M741 0l-127 256l-127 -256h-491l358 553l-354 537h512l102 -244l103 244h512l-355 -537l359 -553h-492z" />
    <glyph glyph-name="y" unicode="y" horiz-adv-x="1277" 
d="M715 -367h-441l148 422l-408 1035h500l127 -515l137 515h486z" />
    <glyph glyph-name="z" unicode="z" horiz-adv-x="999" 
d="M29 0v240l348 499h-342v351h923v-240l-354 -498h357v-352h-932z" />
    <glyph glyph-name="braceleft" unicode="{" horiz-adv-x="870" 
d="M41 442v396q71 0 109 33.5t38 132.5v184q0 164 83 279.5t227 171t336 55.5v-359q-183 0 -183 -147v-277q0 -101 -56.5 -172.5t-135.5 -99.5q79 -28 135.5 -99t56.5 -171v-281q0 -145 183 -145v-359q-192 0 -336 55.5t-227 171t-83 279.5v186q0 99 -38 132.5t-109 33.5z
" />
    <glyph glyph-name="bar" unicode="|" horiz-adv-x="645" 
d="M98 -537v2302h447v-2302h-447z" />
    <glyph glyph-name="braceright" unicode="}" horiz-adv-x="870" 
d="M829 838v-396q-71 0 -109 -33.5t-38 -132.5v-186q0 -245 -176 -375.5t-469 -130.5v359q182 0 182 145v281q0 100 57 171t136 99q-79 28 -136 99.5t-57 172.5v277q0 72 -43 109.5t-139 37.5v359q293 0 469 -130.5t176 -375.5v-184q0 -99 38 -132.5t109 -33.5z" />
    <glyph glyph-name="asciitilde" unicode="~" horiz-adv-x="1159" 
d="M395 844q62 0 156.5 -36t136.5 -36q30 0 50 19t20 55h377q0 -206 -100 -328.5t-271 -122.5q-62 0 -156.5 36t-136.5 36q-30 0 -50 -19t-20 -55h-376q0 206 99.5 328.5t270.5 122.5z" />
    <glyph glyph-name="exclamdown" unicode="&#xa1;" horiz-adv-x="671" 
d="M78 920q0 97 72 166t184 69q113 0 185.5 -68.5t72.5 -166.5q0 -102 -72 -171t-186 -69q-112 0 -184 69.5t-72 170.5zM84 -305l35 956h434l35 -956h-504z" />
    <glyph glyph-name="cent" unicode="&#xa2;" horiz-adv-x="1021" 
d="M502 0v129q-212 45 -343.5 196.5t-131.5 362.5q0 213 131 365t344 194v187h303v-193q107 -27 186 -80l-114 -354q-83 80 -187 80q-87 0 -142.5 -57.5t-55.5 -141.5q0 -83 56 -141t144 -58q119 0 191 80l114 -354q-84 -58 -192 -84v-131h-303z" />
    <glyph glyph-name="sterling" unicode="&#xa3;" horiz-adv-x="1230" 
d="M49 555v315h94v134q0 204 140 330t387 126q91 0 168.5 -24t128.5 -59.5t91 -84t61 -89.5t34 -83l-395 -141q-27 90 -84 90q-27 0 -44.5 -20t-17.5 -56v-123h291v-315h-291v-184h578v-371h-1149v371h102v184h-94z" />
    <glyph glyph-name="yen" unicode="&#xa5;" horiz-adv-x="1449" 
d="M985 0h-520v276h-264v275h264v70h-264v274h110l-295 539h576l143 -408l144 408h555l-295 -539h112v-274h-266v-70h266v-275h-266v-276z" />
    <glyph glyph-name="section" unicode="&#xa7;" horiz-adv-x="1130" 
d="M502 502l121 -60q34 6 34 39q0 26 -26 43l-121 60q-17 -3 -26 -14t-9 -25q0 -25 27 -43zM41 537q0 78 39.5 145t118.5 111q-68 57 -107 134t-39 163q0 184 135 297.5t363 113.5q96 0 182.5 -27t145.5 -67t106 -91t73 -95t38 -82l-381 -164q-25 60 -61.5 101.5t-78.5 41.5
q-19 0 -32 -11.5t-13 -33.5q0 -45 80 -92l236 -141q121 -72 181 -155.5t60 -195.5q0 -78 -39 -145t-118 -111q68 -57 106.5 -133.5t38.5 -162.5q0 -184 -134.5 -298t-362.5 -114q-96 0 -182.5 27t-145.5 67t-106 91t-73 95t-38 82l381 164q26 -60 61.5 -101.5t77.5 -41.5
q19 0 32 11.5t13 33.5q0 45 -80 92l-235 141q-121 72 -181.5 156t-60.5 195z" />
    <glyph glyph-name="dieresis" unicode="&#xa8;" horiz-adv-x="999" 
d="M84 1339q0 75 50.5 126t139.5 51t140 -51t51 -126q0 -76 -50.5 -125t-140.5 -49q-89 0 -139.5 49t-50.5 125zM532 1339q0 75 51 126t140 51t139.5 -51t50.5 -126q0 -76 -50.5 -125t-139.5 -49q-90 0 -140.5 49t-50.5 125z" />
    <glyph glyph-name="copyright" unicode="&#xa9;" horiz-adv-x="1628" 
d="M45 715q0 158 58 296.5t159 238t245 157t308 57.5q217 0 392.5 -98t274.5 -269.5t99 -381.5q0 -155 -58.5 -292.5t-159.5 -236.5t-244.5 -157t-307.5 -58q-163 0 -306 58t-243.5 157t-158.5 236.5t-58 292.5zM313 723q0 -226 137.5 -370t360.5 -144q224 0 363 143.5
t139 368.5q0 220 -138.5 363t-359.5 143q-225 0 -363.5 -142.5t-138.5 -361.5zM430 721q0 167 110.5 280t278.5 113q201 0 316 -168l-213 -155q-36 61 -97 61q-44 0 -72 -36.5t-28 -96.5q0 -59 28.5 -95t71.5 -36q61 0 97 61l213 -157q-118 -166 -316 -166q-167 0 -278 114
t-111 281z" />
    <glyph glyph-name="ordfeminine" unicode="&#xaa;" horiz-adv-x="864" 
d="M35 879q0 117 89 181t226 64q72 0 137 -26v24q0 27 -24 44.5t-70 17.5q-108 0 -205 -51l-118 221q70 50 170 80t206 30q105 0 181 -27.5t118.5 -77t62 -110t19.5 -135.5v-479h-299l-12 53q-77 -74 -197 -74q-124 0 -204 67t-80 198zM373 903q0 -23 18.5 -35t46.5 -12
q24 0 42 12t18 35q0 22 -18.5 34.5t-43.5 12.5q-26 0 -44.5 -12.5t-18.5 -34.5z" />
    <glyph glyph-name="guillemotleft" unicode="&#xab;" horiz-adv-x="1210" 
d="M297 219l-227 387l227 387h387l-225 -387l225 -387h-387zM754 219l-228 387l228 387h387l-226 -387l226 -387h-387z" />
    <glyph glyph-name="registered" unicode="&#xae;" horiz-adv-x="944" 
d="M459 1016h-29v-142h-143v443h217q75 0 116.5 -41t41.5 -107q0 -98 -70 -127l82 -168h-150zM477 1200h-47v-74h47q16 0 26.5 10t10.5 27t-10.5 27t-26.5 10zM27 1090q0 184 123.5 307t314.5 123q203 0 326.5 -121.5t123.5 -306.5q0 -184 -123.5 -308.5t-322.5 -124.5
q-198 0 -320 122.5t-122 308.5zM160 1090q0 -134 85 -222t224 -88q144 0 227.5 87t83.5 225q0 137 -84.5 221t-230.5 84q-137 0 -221 -86t-84 -221z" />
    <glyph glyph-name="macron" unicode="&#xaf;" horiz-adv-x="919" 
d="M123 1186v299h674v-299h-674z" />
    <glyph glyph-name="degree" unicode="&#xb0;" horiz-adv-x="833" 
d="M803 1083q0 -152 -108.5 -256t-278.5 -104t-278.5 104t-108.5 256t108.5 256.5t278.5 104.5t278.5 -104.5t108.5 -256.5zM358 1083q0 -33 15 -55t43 -22t42.5 22t14.5 55t-14.5 55.5t-42.5 22.5t-43 -22.5t-15 -55.5z" />
    <glyph glyph-name="twosuperior" unicode="&#xb2;" horiz-adv-x="788" 
d="M41 614v103q0 62 37.5 120.5t90.5 102t106 81.5t90.5 72.5t37.5 61.5q0 15 -9.5 26t-28.5 11q-48 0 -70 -82l-266 76q9 32 23.5 64t45 69.5t69.5 65t100.5 46.5t135.5 19q95 0 172.5 -28t127 -89t49.5 -147q0 -48 -20 -91t-50.5 -72.5t-66 -56.5t-66 -45.5t-50.5 -36.5
t-20 -32h281v-238h-719z" />
    <glyph glyph-name="threesuperior" unicode="&#xb3;" horiz-adv-x="778" 
d="M344 956h-121v150l101 90h-254v238h647v-191l-146 -127q82 -24 129.5 -88t47.5 -143q0 -141 -101 -214t-258 -73q-88 0 -157 24.5t-109.5 65t-63.5 83.5t-30 89l247 47q19 -51 76 -51q25 0 41.5 13.5t16.5 35.5q0 19 -16.5 35t-49.5 16z" />
    <glyph glyph-name="acute" unicode="&#xb4;" horiz-adv-x="999" 
d="M186 1174l144 319h483l-244 -319h-383z" />
    <glyph glyph-name="paragraph" unicode="&#xb6;" horiz-adv-x="1216" 
d="M410 -92v735q-167 12 -272 122.5t-105 274.5q0 170 121 282t307 112h319v-1526h-370zM807 -92v1526h373v-1526h-373z" />
    <glyph glyph-name="periodcentered" unicode="&#xb7;" horiz-adv-x="548" 
d="M18 639q0 101 72 170.5t184 69.5q114 0 186 -69t72 -171q0 -98 -72.5 -167t-185.5 -69q-112 0 -184 69t-72 167z" />
    <glyph glyph-name="cedilla" unicode="&#xb8;" horiz-adv-x="919" 
d="M305 63h268l-22 -131q72 -14 116 -64t44 -122q0 -108 -81 -173t-222 -65q-94 0 -201 43l51 197q35 -14 74 -14q24 0 38.5 11t14.5 28t-16.5 28t-44.5 11q-16 0 -31 -3t-22 -5l-7 -3z" />
    <glyph glyph-name="onesuperior" unicode="&#xb9;" horiz-adv-x="657" 
d="M137 1096l-76 268l222 70h286v-820h-354v506z" />
    <glyph glyph-name="ordmasculine" unicode="&#xba;" horiz-adv-x="997" 
d="M963 1038q0 -183 -131 -303.5t-334 -120.5q-201 0 -332 121t-131 303q0 184 130.5 305t332.5 121q203 0 334 -121t131 -305zM383 1038q0 -66 32 -108.5t83 -42.5q52 0 84 42t32 109q0 68 -32 111t-84 43q-51 0 -83 -43t-32 -111z" />
    <glyph glyph-name="guillemotright" unicode="&#xbb;" horiz-adv-x="1210" 
d="M1141 606l-228 -387h-387l226 387l-226 387h387zM684 606l-227 -387h-387l225 387l-225 387h387z" />
    <glyph glyph-name="onequarter" unicode="&#xbc;" horiz-adv-x="1816" 
d="M1350 0v127h-373v221l344 471h373v-454h88v-238h-88v-127h-344zM1350 524l-115 -159h115v159zM688 -84h-405l753 1602h408zM106 1096l-75 268l221 70h287v-820h-355v506z" />
    <glyph glyph-name="onehalf" unicode="&#xbd;" horiz-adv-x="1845" 
d="M668 -84h-406l754 1602h407zM106 1096l-75 268l221 70h287v-820h-355v506zM1063 0v102q0 52 27 102.5t67 88t87 75t87 65t67 56.5t27 52q0 15 -10 26t-29 11q-47 0 -69 -82l-266 75q9 32 23.5 64t45 69.5t69.5 65.5t100.5 47t135.5 19q147 0 248 -69t101 -196
q0 -57 -28 -106t-68 -82t-80.5 -59t-68.5 -48t-28 -38h281v-238h-719z" />
    <glyph glyph-name="threequarters" unicode="&#xbe;" horiz-adv-x="1892" 
d="M344 956h-121v150l101 90h-254v238h647v-191l-146 -127q82 -24 129.5 -88t47.5 -143q0 -141 -101 -214t-258 -73q-88 0 -157 24.5t-109.5 65t-63.5 83.5t-30 89l247 47q19 -51 76 -51q25 0 41.5 13.5t16.5 35.5q0 19 -16.5 35t-49.5 16zM1427 0v127h-372v221l344 471h373
v-454h88v-238h-88v-127h-345zM1427 524l-114 -159h114v159zM766 -84h-406l754 1602h408z" />
    <glyph glyph-name="questiondown" unicode="&#xbf;" horiz-adv-x="1036" 
d="M784 655v-92q0 -58 -22 -112.5t-55 -93t-71.5 -76t-71.5 -65t-55 -57.5t-22 -55q0 -28 16.5 -46.5t47.5 -18.5q37 0 65 31.5t41 79.5l363 -158q-16 -43 -36.5 -81t-61.5 -84t-92.5 -78.5t-131.5 -54.5t-176 -22q-221 0 -364.5 114t-143.5 298q0 63 23.5 119.5t59 95
t76.5 77t76.5 69t59 68t23.5 75.5v67h452zM817 924q0 -101 -72 -170.5t-184 -69.5q-114 0 -186 69t-72 171q0 98 72.5 166.5t185.5 68.5q112 0 184 -69t72 -166z" />
    <glyph glyph-name="Agrave" unicode="&#xc0;" horiz-adv-x="1523" 
d="M918 219h-336l-64 -219h-508l496 1434h512l495 -1434h-532zM829 584l-79 295l-82 -295h161zM856 1837l143 -319h-383l-243 319h483z" />
    <glyph glyph-name="Aacute" unicode="&#xc1;" horiz-adv-x="1523" 
d="M918 219h-336l-64 -219h-508l496 1434h512l495 -1434h-532zM829 584l-79 295l-82 -295h161zM516 1518l143 319h484l-244 -319h-383z" />
    <glyph glyph-name="Acircumflex" unicode="&#xc2;" horiz-adv-x="1523" 
d="M918 219h-336l-64 -219h-508l496 1434h512l495 -1434h-532zM829 584l-79 295l-82 -295h161zM811 1518l-49 79l-49 -79h-391l217 319h446l217 -319h-391z" />
    <glyph glyph-name="Atilde" unicode="&#xc3;" horiz-adv-x="1523" 
d="M918 219h-336l-64 -219h-508l496 1434h512l495 -1434h-532zM829 584l-79 295l-82 -295h161zM918 1507q-52 0 -128 30t-102 30q-24 0 -38.5 -16.5t-14.5 -45.5h-309q0 161 73 255.5t207 94.5q52 0 128 -29.5t102 -29.5q24 0 38.5 16.5t14.5 45.5h309q0 -161 -73 -256
t-207 -95z" />
    <glyph glyph-name="Adieresis" unicode="&#xc4;" horiz-adv-x="1523" 
d="M918 219h-336l-64 -219h-508l496 1434h512l495 -1434h-532zM829 584l-79 295l-82 -295h161zM348 1683q0 75 51 126t140 51t139.5 -51t50.5 -126q0 -76 -50.5 -125t-139.5 -49q-90 0 -140.5 49t-50.5 125zM797 1683q0 75 50.5 126t139.5 51t140 -51t51 -126
q0 -76 -50.5 -125t-140.5 -49q-89 0 -139.5 49t-50.5 125z" />
    <glyph glyph-name="Aring" unicode="&#xc5;" horiz-adv-x="1523" 
d="M918 219h-336l-64 -219h-508l496 1434h512l495 -1434h-532zM829 584l-79 295l-82 -295h161zM504 1726q0 99 76 163.5t184 64.5q111 0 186.5 -63.5t75.5 -161.5q0 -100 -75.5 -164t-186.5 -64q-108 0 -184 63.5t-76 161.5zM698 1729q0 -31 19.5 -51.5t48.5 -20.5
t48.5 20.5t19.5 51.5q0 29 -19.5 49t-48.5 20t-48.5 -20t-19.5 -49z" />
    <glyph glyph-name="AE" unicode="&#xc6;" horiz-adv-x="1880" 
d="M924 0v219h-328l-104 -219h-519l783 1434h1063v-404h-377v-119h336v-379h-336v-129h377v-403h-895zM924 905l-156 -321h156v321z" />
    <glyph glyph-name="Ccedilla" unicode="&#xc7;" horiz-adv-x="1312" 
d="M16 719q0 154 55.5 289.5t154.5 235.5t245 158t317 58q279 0 482 -141l-156 -410q-114 111 -268 111q-124 0 -205.5 -84.5t-81.5 -216.5q0 -137 82 -221t205 -84q153 0 278 112l154 -411q-92 -65 -200 -101.5t-253 -40.5l-6 -41q72 -14 116 -64t44 -122q0 -108 -81 -173
t-222 -65q-94 0 -201 43l51 197q35 -14 74 -14q24 0 38.5 11t14.5 28t-16.5 28t-44.5 11q-16 0 -31 -3t-22 -5l-7 -3l31 199q-249 62 -398 254t-149 465z" />
    <glyph glyph-name="Egrave" unicode="&#xc8;" horiz-adv-x="1017" 
d="M61 0v1434h895v-404h-376v-119h335v-379h-335v-129h376v-403h-895zM623 1837l143 -319h-383l-244 319h484z" />
    <glyph glyph-name="Eacute" unicode="&#xc9;" horiz-adv-x="1017" 
d="M61 0v1434h895v-404h-376v-119h335v-379h-335v-129h376v-403h-895zM276 1487l144 319h483l-244 -319h-383z" />
    <glyph glyph-name="Ecircumflex" unicode="&#xca;" horiz-adv-x="1017" 
d="M61 0v1434h895v-404h-376v-119h335v-379h-335v-129h376v-403h-895zM557 1518l-49 79l-49 -79h-391l217 319h446l217 -319h-391z" />
    <glyph glyph-name="Edieresis" unicode="&#xcb;" horiz-adv-x="1017" 
d="M61 0v1434h895v-404h-376v-119h335v-379h-335v-129h376v-403h-895zM94 1683q0 75 51 126t140 51t139.5 -51t50.5 -126q0 -76 -50.5 -125t-139.5 -49q-90 0 -140.5 49t-50.5 125zM543 1683q0 75 50.5 126t139.5 51t140 -51t51 -126q0 -76 -50.5 -125t-140.5 -49
q-89 0 -139.5 49t-50.5 125z" />
    <glyph glyph-name="Igrave" unicode="&#xcc;" horiz-adv-x="643" 
d="M61 0v1434h521v-1434h-521zM444 1837l144 -319h-383l-244 319h483z" />
    <glyph glyph-name="Iacute" unicode="&#xcd;" horiz-adv-x="643" 
d="M61 0v1434h521v-1434h-521zM84 1518l143 319h484l-244 -319h-383z" />
    <glyph glyph-name="Icircumflex" unicode="&#xce;" horiz-adv-x="643" 
d="M61 0v1434h521v-1434h-521zM371 1518l-49 79l-50 -79h-391l217 319h447l217 -319h-391z" />
    <glyph glyph-name="Idieresis" unicode="&#xcf;" horiz-adv-x="643" 
d="M61 0v1434h521v-1434h-521zM-86 1683q0 75 50.5 126t139.5 51t140 -51t51 -126q0 -76 -50.5 -125t-140.5 -49q-89 0 -139.5 49t-50.5 125zM362 1683q0 75 51 126t140 51t139.5 -51t50.5 -126q0 -76 -50.5 -125t-139.5 -49q-90 0 -140.5 49t-50.5 125z" />
    <glyph glyph-name="Eth" unicode="&#xd0;" horiz-adv-x="1478" 
d="M61 539v358h89v537h512q238 0 418.5 -84.5t281 -247t100.5 -383.5q0 -218 -99.5 -381.5t-280.5 -250.5t-420 -87h-512v539h-89zM653 1024v-127h125v-358h-125v-129h31q116 0 182 78t66 231q0 152 -66 228.5t-182 76.5h-31z" />
    <glyph glyph-name="Ntilde" unicode="&#xd1;" horiz-adv-x="1474" 
d="M61 0v1434h527l311 -674v674h514v-1434h-526l-312 674v-674h-514zM924 1485q-52 0 -128 29.5t-102 29.5q-24 0 -38.5 -16t-14.5 -45h-309q0 161 73 255.5t207 94.5q52 0 128 -29.5t102 -29.5q24 0 38.5 16t14.5 45h309q0 -161 -73 -255.5t-207 -94.5z" />
    <glyph glyph-name="Ograve" unicode="&#xd2;" horiz-adv-x="1617" 
d="M809 -27q-180 0 -330 57.5t-250.5 158t-156.5 237t-56 293.5q0 155 56 290.5t156.5 235.5t251 157.5t329.5 57.5t329.5 -57.5t251 -157.5t156.5 -235.5t56 -290.5q0 -157 -56 -293.5t-156.5 -237t-250.5 -158t-330 -57.5zM809 1032q-118 0 -184 -87t-66 -226
q0 -143 65.5 -230.5t184.5 -87.5q118 0 184 87.5t66 230.5q0 139 -66.5 226t-183.5 87zM909 1837l144 -319h-383l-244 319h483z" />
    <glyph glyph-name="Oacute" unicode="&#xd3;" horiz-adv-x="1617" 
d="M809 -27q-180 0 -330 57.5t-250.5 158t-156.5 237t-56 293.5q0 155 56 290.5t156.5 235.5t251 157.5t329.5 57.5t329.5 -57.5t251 -157.5t156.5 -235.5t56 -290.5q0 -157 -56 -293.5t-156.5 -237t-250.5 -158t-330 -57.5zM809 1032q-118 0 -184 -87t-66 -226
q0 -143 65.5 -230.5t184.5 -87.5q118 0 184 87.5t66 230.5q0 139 -66.5 226t-183.5 87zM598 1518l143 319h484l-244 -319h-383z" />
    <glyph glyph-name="Ocircumflex" unicode="&#xd4;" horiz-adv-x="1617" 
d="M809 -27q-180 0 -330 57.5t-250.5 158t-156.5 237t-56 293.5q0 155 56 290.5t156.5 235.5t251 157.5t329.5 57.5t329.5 -57.5t251 -157.5t156.5 -235.5t56 -290.5q0 -157 -56 -293.5t-156.5 -237t-250.5 -158t-330 -57.5zM809 1032q-118 0 -184 -87t-66 -226
q0 -143 65.5 -230.5t184.5 -87.5q118 0 184 87.5t66 230.5q0 139 -66.5 226t-183.5 87zM870 1518l-49 79l-49 -79h-391l217 319h446l218 -319h-392z" />
    <glyph glyph-name="Otilde" unicode="&#xd5;" horiz-adv-x="1617" 
d="M809 -27q-180 0 -330 57.5t-250.5 158t-156.5 237t-56 293.5q0 155 56 290.5t156.5 235.5t251 157.5t329.5 57.5t329.5 -57.5t251 -157.5t156.5 -235.5t56 -290.5q0 -157 -56 -293.5t-156.5 -237t-250.5 -158t-330 -57.5zM809 1032q-118 0 -184 -87t-66 -226
q0 -143 65.5 -230.5t184.5 -87.5q118 0 184 87.5t66 230.5q0 139 -66.5 226t-183.5 87zM963 1507q-52 0 -128 30t-102 30q-24 0 -38.5 -16.5t-14.5 -45.5h-309q0 161 73 255.5t207 94.5q52 0 128 -29.5t102 -29.5q24 0 38.5 16.5t14.5 45.5h309q0 -161 -73 -256t-207 -95z
" />
    <glyph glyph-name="Odieresis" unicode="&#xd6;" horiz-adv-x="1617" 
d="M809 -27q-180 0 -330 57.5t-250.5 158t-156.5 237t-56 293.5q0 155 56 290.5t156.5 235.5t251 157.5t329.5 57.5t329.5 -57.5t251 -157.5t156.5 -235.5t56 -290.5q0 -157 -56 -293.5t-156.5 -237t-250.5 -158t-330 -57.5zM809 1032q-118 0 -184 -87t-66 -226
q0 -143 65.5 -230.5t184.5 -87.5q118 0 184 87.5t66 230.5q0 139 -66.5 226t-183.5 87zM395 1667q0 75 51 125.5t140 50.5t139.5 -50.5t50.5 -125.5q0 -76 -50.5 -125t-139.5 -49q-90 0 -140.5 49t-50.5 125zM844 1667q0 75 50.5 125.5t139.5 50.5t140 -50.5t51 -125.5
q0 -76 -50.5 -125t-140.5 -49q-89 0 -139.5 49t-50.5 125z" />
    <glyph glyph-name="multiply" unicode="&#xd7;" horiz-adv-x="1110" 
d="M555 889l270 278l258 -252l-278 -280l278 -281l-258 -252l-270 279l-270 -279l-258 252l278 281l-278 280l258 252z" />
    <glyph glyph-name="Oslash" unicode="&#xd8;" horiz-adv-x="1617" 
d="M809 -27q-194 0 -358 68l-97 -119l-237 195l82 100q-89 98 -136 227t-47 275q0 155 56 290.5t156.5 235.5t251 157.5t329.5 57.5q193 0 352 -67l99 118l239 -194l-84 -100q187 -202 187 -498q0 -157 -56 -293.5t-156.5 -237t-250.5 -158t-330 -57.5zM1059 719q0 21 -4 57
l-303 -368q31 -7 57 -7q118 0 184 87.5t66 230.5zM809 1032q-118 0 -184 -87t-66 -226q0 -42 2 -60l301 367q-24 6 -53 6z" />
    <glyph glyph-name="Ugrave" unicode="&#xd9;" horiz-adv-x="1445" 
d="M721 -27q-314 0 -487 162t-173 428v871h521v-883q0 -72 37.5 -111t101.5 -39q66 0 104.5 39t38.5 111v883h520v-871q0 -266 -174 -428t-489 -162zM823 1837l144 -319h-383l-244 319h483z" />
    <glyph glyph-name="Uacute" unicode="&#xda;" horiz-adv-x="1445" 
d="M721 -27q-314 0 -487 162t-173 428v871h521v-883q0 -72 37.5 -111t101.5 -39q66 0 104.5 39t38.5 111v883h520v-871q0 -266 -174 -428t-489 -162zM479 1518l144 319h483l-244 -319h-383z" />
    <glyph glyph-name="Ucircumflex" unicode="&#xdb;" horiz-adv-x="1445" 
d="M721 -27q-314 0 -487 162t-173 428v871h521v-883q0 -72 37.5 -111t101.5 -39q66 0 104.5 39t38.5 111v883h520v-871q0 -266 -174 -428t-489 -162zM774 1518l-49 79l-49 -79h-391l217 319h446l217 -319h-391z" />
    <glyph glyph-name="Udieresis" unicode="&#xdc;" horiz-adv-x="1445" 
d="M721 -27q-314 0 -487 162t-173 428v871h521v-883q0 -72 37.5 -111t101.5 -39q66 0 104.5 39t38.5 111v883h520v-871q0 -266 -174 -428t-489 -162zM317 1667q0 75 51 125.5t140 50.5t139.5 -50.5t50.5 -125.5q0 -76 -50.5 -125t-139.5 -49q-90 0 -140.5 49t-50.5 125z
M766 1667q0 75 50.5 125.5t139.5 50.5t140 -50.5t51 -125.5q0 -76 -50.5 -125t-140.5 -49q-89 0 -139.5 49t-50.5 125z" />
    <glyph glyph-name="Yacute" unicode="&#xdd;" horiz-adv-x="1449" 
d="M985 0h-520v612l-449 822h576l143 -408l144 408h555l-449 -822v-612zM502 1487l143 319h483l-243 -319h-383z" />
    <glyph glyph-name="Thorn" unicode="&#xde;" horiz-adv-x="1206" 
d="M61 0v1434h521v-222h82q245 0 386.5 -135.5t141.5 -351.5q0 -218 -144 -355t-378 -137h-86v-233h-523zM584 625h34q37 0 65 29t28 73q0 40 -27 68t-61 28h-39v-198z" />
    <glyph glyph-name="germandbls" unicode="&#xdf;" horiz-adv-x="1218" 
d="M567 682v326q92 0 92 75q0 29 -19.5 47.5t-53.5 18.5q-35 0 -51.5 -21t-16.5 -49v-1079h-467v1104q0 106 41.5 184.5t113.5 122.5t158 65t187 21q252 0 398.5 -103t146.5 -278q0 -152 -117 -229q92 -58 152.5 -152.5t60.5 -222.5q0 -115 -37.5 -207.5t-112.5 -161
t-195.5 -106t-279.5 -37.5v342q71 0 113.5 49.5t42.5 120.5q0 68 -43 119t-113 51z" />
    <glyph glyph-name="agrave" unicode="&#xe0;" horiz-adv-x="1138" 
d="M27 328q0 160 120 250t302 90q101 0 188 -37v37q0 36 -37 56.5t-104 20.5q-137 0 -271 -67l-151 299q228 141 504 141q114 0 203.5 -25t147.5 -67.5t95.5 -103.5t53.5 -129t16 -148v-645h-400l-20 72q-102 -99 -264 -99q-80 0 -147.5 21t-121 63t-84 111.5t-30.5 159.5z
M475 360q0 -31 26.5 -49t65.5 -18q36 0 62 18t26 49q0 30 -26 49t-64 19t-64 -19t-26 -49zM676 1493l143 -319h-383l-243 319h483z" />
    <glyph glyph-name="aacute" unicode="&#xe1;" horiz-adv-x="1138" 
d="M27 328q0 160 120 250t302 90q101 0 188 -37v37q0 36 -37 56.5t-104 20.5q-137 0 -271 -67l-151 299q228 141 504 141q114 0 203.5 -25t147.5 -67.5t95.5 -103.5t53.5 -129t16 -148v-645h-400l-20 72q-102 -99 -264 -99q-80 0 -147.5 21t-121 63t-84 111.5t-30.5 159.5z
M475 360q0 -31 26.5 -49t65.5 -18q36 0 62 18t26 49q0 30 -26 49t-64 19t-64 -19t-26 -49zM338 1174l143 319h484l-244 -319h-383z" />
    <glyph glyph-name="acircumflex" unicode="&#xe2;" horiz-adv-x="1138" 
d="M27 328q0 160 120 250t302 90q101 0 188 -37v37q0 36 -37 56.5t-104 20.5q-137 0 -271 -67l-151 299q228 141 504 141q114 0 203.5 -25t147.5 -67.5t95.5 -103.5t53.5 -129t16 -148v-645h-400l-20 72q-102 -99 -264 -99q-80 0 -147.5 21t-121 63t-84 111.5t-30.5 159.5z
M475 360q0 -31 26.5 -49t65.5 -18q36 0 62 18t26 49q0 30 -26 49t-64 19t-64 -19t-26 -49zM633 1174l-49 79l-49 -79h-392l217 319h447l217 -319h-391z" />
    <glyph glyph-name="atilde" unicode="&#xe3;" horiz-adv-x="1138" 
d="M27 328q0 160 120 250t302 90q101 0 188 -37v37q0 36 -37 56.5t-104 20.5q-137 0 -271 -67l-151 299q228 141 504 141q114 0 203.5 -25t147.5 -67.5t95.5 -103.5t53.5 -129t16 -148v-645h-400l-20 72q-102 -99 -264 -99q-80 0 -147.5 21t-121 63t-84 111.5t-30.5 159.5z
M475 360q0 -31 26.5 -49t65.5 -18q36 0 62 18t26 49q0 30 -26 49t-64 19t-64 -19t-26 -49zM727 1163q-52 0 -127.5 30t-101.5 30q-24 0 -39 -16.5t-15 -45.5h-309q0 161 73.5 255.5t207.5 94.5q52 0 127.5 -29.5t101.5 -29.5q24 0 38.5 16t14.5 45h310q0 -161 -73.5 -255.5
t-207.5 -94.5z" />
    <glyph glyph-name="adieresis" unicode="&#xe4;" horiz-adv-x="1138" 
d="M27 328q0 160 120 250t302 90q101 0 188 -37v37q0 36 -37 56.5t-104 20.5q-137 0 -271 -67l-151 299q228 141 504 141q114 0 203.5 -25t147.5 -67.5t95.5 -103.5t53.5 -129t16 -148v-645h-400l-20 72q-102 -99 -264 -99q-80 0 -147.5 21t-121 63t-84 111.5t-30.5 159.5z
M475 360q0 -31 26.5 -49t65.5 -18q36 0 62 18t26 49q0 30 -26 49t-64 19t-64 -19t-26 -49zM164 1339q0 75 50.5 126t139.5 51t140 -51t51 -126q0 -76 -50.5 -125t-140.5 -49q-89 0 -139.5 49t-50.5 125zM612 1339q0 75 51 126t140 51t139.5 -51t50.5 -126q0 -76 -50.5 -125
t-139.5 -49q-90 0 -140.5 49t-50.5 125z" />
    <glyph glyph-name="aring" unicode="&#xe5;" horiz-adv-x="1138" 
d="M27 328q0 160 120 250t302 90q101 0 188 -37v37q0 36 -37 56.5t-104 20.5q-137 0 -271 -67l-151 299q228 141 504 141q114 0 203.5 -25t147.5 -67.5t95.5 -103.5t53.5 -129t16 -148v-645h-400l-20 72q-102 -99 -264 -99q-80 0 -147.5 21t-121 63t-84 111.5t-30.5 159.5z
M475 360q0 -31 26.5 -49t65.5 -18q36 0 62 18t26 49q0 30 -26 49t-64 19t-64 -19t-26 -49zM334 1382q0 99 76 163.5t184 64.5q110 0 186 -64t76 -162q0 -100 -75.5 -163.5t-186.5 -63.5q-108 0 -184 63.5t-76 161.5zM528 1384q0 -31 19.5 -51t48.5 -20t48.5 20t19.5 51
q0 29 -19.5 49.5t-48.5 20.5t-48.5 -20.5t-19.5 -49.5z" />
    <glyph glyph-name="ae" unicode="&#xe6;" horiz-adv-x="1818" 
d="M1790 438h-694q12 -50 60 -81t112 -31q59 0 108 21.5t78 53.5l315 -172q-10 -20 -33.5 -48t-69 -65.5t-101 -68.5t-137 -52.5t-168.5 -21.5q-285 0 -445 181q-131 -181 -387 -181q-80 0 -150.5 21t-127.5 63t-90 111.5t-33 159.5q0 107 58 185.5t153 116.5t213 38
q103 0 186 -35v35q0 71 -129 71q-143 0 -277 -67l-157 299q95 66 230 106.5t274 40.5q209 0 329 -98q57 44 145 71t177 27q261 0 414 -155.5t153 -407.5q0 -33 -1.5 -62t-2.5 -42zM479 360q0 -30 25.5 -46.5t62.5 -16.5q34 0 59 16.5t25 46.5q0 29 -25 46.5t-61 17.5
t-61 -17.5t-25 -46.5zM1112 676h223q-3 43 -34.5 70.5t-77.5 27.5q-43 0 -75 -28t-36 -70z" />
    <glyph glyph-name="ccedilla" unicode="&#xe7;" horiz-adv-x="1021" 
d="M27 545q0 164 80.5 295.5t221.5 204.5t316 73q96 0 188 -27.5t158 -72.5l-114 -354q-82 79 -187 79q-88 0 -143 -57t-55 -141q0 -83 56 -141t144 -58q119 0 191 80l114 -354q-130 -88 -301 -99l-6 -41q72 -14 116 -64t44 -122q0 -108 -81 -173t-222 -65q-93 0 -201 43
l51 197q35 -14 74 -14q24 0 38.5 11t14.5 28t-16.5 28t-44.5 11q-16 0 -31 -3t-22 -5l-7 -3l31 203q-184 58 -295.5 203.5t-111.5 337.5z" />
    <glyph glyph-name="egrave" unicode="&#xe8;" horiz-adv-x="1214" 
d="M1186 438h-694q12 -51 59.5 -82.5t112.5 -31.5q60 0 108.5 22t77.5 55l315 -172q-199 -256 -528 -256q-141 0 -257.5 47t-192.5 127.5t-117 186.5t-41 225q0 115 42.5 217.5t117.5 178t184 119.5t235 44q274 0 429 -154.5t155 -408.5q0 -33 -1.5 -62t-2.5 -42zM508 672
h223q-3 46 -34 76t-79 30q-45 0 -75 -30.5t-35 -75.5zM731 1493l143 -319h-382l-244 319h483z" />
    <glyph glyph-name="eacute" unicode="&#xe9;" horiz-adv-x="1214" 
d="M1186 438h-694q12 -51 59.5 -82.5t112.5 -31.5q60 0 108.5 22t77.5 55l315 -172q-199 -256 -528 -256q-141 0 -257.5 47t-192.5 127.5t-117 186.5t-41 225q0 115 42.5 217.5t117.5 178t184 119.5t235 44q274 0 429 -154.5t155 -408.5q0 -33 -1.5 -62t-2.5 -42zM508 672
h223q-3 46 -34 76t-79 30q-45 0 -75 -30.5t-35 -75.5zM365 1174l143 319h483l-243 -319h-383z" />
    <glyph glyph-name="ecircumflex" unicode="&#xea;" horiz-adv-x="1214" 
d="M1186 438h-694q12 -51 59.5 -82.5t112.5 -31.5q60 0 108.5 22t77.5 55l315 -172q-199 -256 -528 -256q-141 0 -257.5 47t-192.5 127.5t-117 186.5t-41 225q0 115 42.5 217.5t117.5 178t184 119.5t235 44q274 0 429 -154.5t155 -408.5q0 -33 -1.5 -62t-2.5 -42zM508 672
h223q-3 46 -34 76t-79 30q-45 0 -75 -30.5t-35 -75.5zM670 1174l-49 79l-50 -79h-391l217 319h447l217 -319h-391z" />
    <glyph glyph-name="edieresis" unicode="&#xeb;" horiz-adv-x="1214" 
d="M1186 438h-694q12 -51 59.5 -82.5t112.5 -31.5q60 0 108.5 22t77.5 55l315 -172q-199 -256 -528 -256q-141 0 -257.5 47t-192.5 127.5t-117 186.5t-41 225q0 115 42.5 217.5t117.5 178t184 119.5t235 44q274 0 429 -154.5t155 -408.5q0 -33 -1.5 -62t-2.5 -42zM508 672
h223q-3 46 -34 76t-79 30q-45 0 -75 -30.5t-35 -75.5zM213 1339q0 75 50.5 126t139.5 51t140 -51t51 -126q0 -76 -50.5 -125t-140.5 -49q-89 0 -139.5 49t-50.5 125zM662 1339q0 75 50.5 126t139.5 51t139.5 -51t50.5 -126q0 -76 -50.5 -125t-139.5 -49t-139.5 49t-50.5 125
z" />
    <glyph glyph-name="igrave" unicode="&#xec;" 
d="M51 0v1090h467v-1090h-467zM381 1493l143 -319h-383l-243 319h483z" />
    <glyph glyph-name="iacute" unicode="&#xed;" 
d="M51 0v1090h467v-1090h-467zM29 1174l143 319h483l-243 -319h-383z" />
    <glyph glyph-name="icircumflex" unicode="&#xee;" 
d="M51 0v1090h467v-1090h-467zM334 1174l-49 79l-49 -79h-392l217 319h447l217 -319h-391z" />
    <glyph glyph-name="idieresis" unicode="&#xef;" 
d="M51 0v1090h467v-1090h-467zM-129 1339q0 75 50.5 126t139.5 51t140 -51t51 -126q0 -76 -50.5 -125t-140.5 -49q-89 0 -139.5 49t-50.5 125zM319 1339q0 75 51 126t140 51t139.5 -51t50.5 -126q0 -76 -50.5 -125t-139.5 -49q-90 0 -140.5 49t-50.5 125z" />
    <glyph glyph-name="eth" unicode="&#xf0;" horiz-adv-x="1253" 
d="M27 516q0 112 41.5 204t114 152.5t166 96t200.5 43.5q-15 46 -35 71l-334 -112l-35 248l136 45q-45 42 -123 86l235 209q156 -56 307 -152l318 109l31 -256l-117 -41q289 -297 289 -641q0 -94 -21 -180t-68 -164.5t-115 -135.5t-169.5 -91t-224.5 -34q-136 0 -249 43
t-188.5 117t-117 173t-41.5 210zM494 512q0 -76 33 -124t98 -48q63 0 96 48t33 124q0 75 -33 122.5t-96 47.5q-64 0 -97.5 -47.5t-33.5 -122.5z" />
    <glyph glyph-name="ntilde" unicode="&#xf1;" horiz-adv-x="1183" 
d="M762 1116q177 0 274 -113t97 -307v-696h-467v643q0 47 -20 71.5t-56 24.5q-37 0 -56.5 -28t-19.5 -68v-643h-467v1090h447v-91q43 48 113 82.5t155 34.5zM766 1163q-52 0 -127.5 30t-101.5 30q-24 0 -39 -16.5t-15 -45.5h-309q0 161 73.5 255.5t207.5 94.5
q52 0 127.5 -29.5t101.5 -29.5q24 0 38.5 16t14.5 45h310q0 -161 -73.5 -255.5t-207.5 -94.5z" />
    <glyph glyph-name="ograve" unicode="&#xf2;" horiz-adv-x="1302" 
d="M1260 547q0 -163 -77 -293.5t-218.5 -205.5t-321.5 -75q-135 0 -250.5 44t-195.5 120t-125 182t-45 228q0 248 171.5 409.5t444.5 161.5t445 -161.5t172 -409.5zM498 547q0 -92 38.5 -148.5t106.5 -56.5t106.5 56.5t38.5 148.5t-38.5 147.5t-106.5 55.5t-106.5 -55.5
t-38.5 -147.5zM748 1493l143 -319h-383l-244 319h484z" />
    <glyph glyph-name="oacute" unicode="&#xf3;" horiz-adv-x="1302" 
d="M1260 547q0 -163 -77 -293.5t-218.5 -205.5t-321.5 -75q-135 0 -250.5 44t-195.5 120t-125 182t-45 228q0 248 171.5 409.5t444.5 161.5t445 -161.5t172 -409.5zM498 547q0 -92 38.5 -148.5t106.5 -56.5t106.5 56.5t38.5 148.5t-38.5 147.5t-106.5 55.5t-106.5 -55.5
t-38.5 -147.5zM393 1174l144 319h483l-244 -319h-383z" />
    <glyph glyph-name="ocircumflex" unicode="&#xf4;" horiz-adv-x="1302" 
d="M1260 547q0 -163 -77 -293.5t-218.5 -205.5t-321.5 -75q-135 0 -250.5 44t-195.5 120t-125 182t-45 228q0 248 171.5 409.5t444.5 161.5t445 -161.5t172 -409.5zM498 547q0 -92 38.5 -148.5t106.5 -56.5t106.5 56.5t38.5 148.5t-38.5 147.5t-106.5 55.5t-106.5 -55.5
t-38.5 -147.5zM707 1174l-50 79l-49 -79h-391l217 319h447l217 -319h-391z" />
    <glyph glyph-name="otilde" unicode="&#xf5;" horiz-adv-x="1302" 
d="M1260 547q0 -163 -77 -293.5t-218.5 -205.5t-321.5 -75q-135 0 -250.5 44t-195.5 120t-125 182t-45 228q0 248 171.5 409.5t444.5 161.5t445 -161.5t172 -409.5zM498 547q0 -92 38.5 -148.5t106.5 -56.5t106.5 56.5t38.5 148.5t-38.5 147.5t-106.5 55.5t-106.5 -55.5
t-38.5 -147.5zM807 1163q-52 0 -127.5 30t-101.5 30q-24 0 -39 -16.5t-15 -45.5h-309q0 161 73.5 255.5t207.5 94.5q52 0 127.5 -29.5t101.5 -29.5q24 0 38.5 16t14.5 45h309q0 -161 -73 -255.5t-207 -94.5z" />
    <glyph glyph-name="odieresis" unicode="&#xf6;" horiz-adv-x="1302" 
d="M1260 547q0 -163 -77 -293.5t-218.5 -205.5t-321.5 -75q-135 0 -250.5 44t-195.5 120t-125 182t-45 228q0 248 171.5 409.5t444.5 161.5t445 -161.5t172 -409.5zM498 547q0 -92 38.5 -148.5t106.5 -56.5t106.5 56.5t38.5 148.5t-38.5 147.5t-106.5 55.5t-106.5 -55.5
t-38.5 -147.5zM242 1339q0 75 50.5 126t139.5 51t140 -51t51 -126q0 -76 -50.5 -125t-140.5 -49q-89 0 -139.5 49t-50.5 125zM690 1339q0 75 51 126t140 51t139.5 -51t50.5 -126q0 -76 -50.5 -125t-139.5 -49q-90 0 -140.5 49t-50.5 125z" />
    <glyph glyph-name="divide" unicode="&#xf7;" horiz-adv-x="1099" 
d="M348 1040q0 83 59 142t142 59t142 -59t59 -142t-59 -141.5t-142 -58.5t-142 58.5t-59 141.5zM348 229q0 83 59 142t142 59t142 -59t59 -142t-59 -141.5t-142 -58.5t-142 58.5t-59 141.5zM20 469v332h1059v-332h-1059z" />
    <glyph glyph-name="oslash" unicode="&#xf8;" horiz-adv-x="1302" 
d="M1276 547q0 -163 -79 -293.5t-222.5 -205.5t-323.5 -75q-189 0 -336 80l-96 -98l-149 143l86 86q-129 154 -129 363q0 247 175 409t449 162q188 0 340 -84l76 78l150 -143l-66 -68q125 -154 125 -354zM498 547v-15l202 207q-26 11 -49 11q-69 0 -111 -56t-42 -147z
M651 342q69 0 111.5 57.5t42.5 151.5l-199 -203q21 -6 45 -6z" />
    <glyph glyph-name="ugrave" unicode="&#xf9;" horiz-adv-x="1185" 
d="M438 -27q-186 0 -286.5 106t-100.5 298v713h467v-644q0 -47 20 -71.5t56 -24.5q37 0 56.5 28t19.5 68v644h467v-1090h-447v84q-36 -43 -106 -77t-146 -34zM713 1493l143 -319h-383l-244 319h484z" />
    <glyph glyph-name="uacute" unicode="&#xfa;" horiz-adv-x="1185" 
d="M438 -27q-186 0 -286.5 106t-100.5 298v713h467v-644q0 -47 20 -71.5t56 -24.5q37 0 56.5 28t19.5 68v644h467v-1090h-447v84q-36 -43 -106 -77t-146 -34zM344 1174l143 319h484l-244 -319h-383z" />
    <glyph glyph-name="ucircumflex" unicode="&#xfb;" horiz-adv-x="1185" 
d="M438 -27q-186 0 -286.5 106t-100.5 298v713h467v-644q0 -47 20 -71.5t56 -24.5q37 0 56.5 28t19.5 68v644h467v-1090h-447v84q-36 -43 -106 -77t-146 -34zM645 1174l-49 79l-49 -79h-391l217 319h446l217 -319h-391z" />
    <glyph glyph-name="udieresis" unicode="&#xfc;" horiz-adv-x="1185" 
d="M438 -27q-186 0 -286.5 106t-100.5 298v713h467v-644q0 -47 20 -71.5t56 -24.5q37 0 56.5 28t19.5 68v644h467v-1090h-447v84q-36 -43 -106 -77t-146 -34zM180 1339q0 75 51 126t140 51t139.5 -51t50.5 -126q0 -76 -50.5 -125t-139.5 -49q-90 0 -140.5 49t-50.5 125z
M629 1339q0 75 50.5 126t139.5 51t140 -51t51 -126q0 -76 -50.5 -125t-140.5 -49q-89 0 -139.5 49t-50.5 125z" />
    <glyph glyph-name="yacute" unicode="&#xfd;" horiz-adv-x="1277" 
d="M715 -367h-441l148 422l-408 1035h500l127 -515l137 515h486zM420 1174l143 319h484l-244 -319h-383z" />
    <glyph glyph-name="thorn" unicode="&#xfe;" horiz-adv-x="1300" 
d="M51 -375v1854h467v-437q103 74 248 74q241 0 374.5 -157.5t133.5 -415.5q0 -168 -58 -296t-173.5 -201t-276.5 -73q-71 0 -141 25t-107 57v-430h-467zM506 543q0 -95 41 -149t110 -54q68 0 109 57t41 146q0 95 -40.5 148.5t-109.5 53.5q-72 0 -111.5 -56.5t-39.5 -145.5z
" />
    <glyph glyph-name="ydieresis" unicode="&#xff;" horiz-adv-x="1277" 
d="M715 -367h-441l148 422l-408 1035h500l127 -515l137 515h486zM231 1339q0 75 51 126t140 51t139.5 -51t50.5 -126q0 -76 -50.5 -125t-139.5 -49q-90 0 -140.5 49t-50.5 125zM680 1339q0 75 50.5 126t139.5 51t140 -51t51 -126q0 -76 -50.5 -125t-140.5 -49
q-89 0 -139.5 49t-50.5 125z" />
    <glyph glyph-name="Amacron" unicode="&#x100;" horiz-adv-x="1523" 
d="M918 219h-336l-64 -219h-508l496 1434h512l495 -1434h-532zM829 584l-79 295l-82 -295h161zM426 1530v299h674v-299h-674z" />
    <glyph glyph-name="amacron" unicode="&#x101;" horiz-adv-x="1138" 
d="M27 328q0 160 120 250t302 90q101 0 188 -37v37q0 36 -37 56.5t-104 20.5q-137 0 -271 -67l-151 299q228 141 504 141q114 0 203.5 -25t147.5 -67.5t95.5 -103.5t53.5 -129t16 -148v-645h-400l-20 72q-102 -99 -264 -99q-80 0 -147.5 21t-121 63t-84 111.5t-30.5 159.5z
M475 360q0 -31 26.5 -49t65.5 -18q36 0 62 18t26 49q0 30 -26 49t-64 19t-64 -19t-26 -49zM260 1186v299h674v-299h-674z" />
    <glyph glyph-name="Abreve" unicode="&#x102;" horiz-adv-x="1523" 
d="M918 219h-336l-64 -219h-508l496 1434h512l495 -1434h-532zM829 584l-79 295l-82 -295h161zM760 1503q-183 0 -286 95t-103 253h346q0 -92 43 -92q45 0 45 92h348q0 -158 -104 -253t-289 -95z" />
    <glyph glyph-name="abreve" unicode="&#x103;" horiz-adv-x="1138" 
d="M27 328q0 160 120 250t302 90q101 0 188 -37v37q0 36 -37 56.5t-104 20.5q-137 0 -271 -67l-151 299q228 141 504 141q114 0 203.5 -25t147.5 -67.5t95.5 -103.5t53.5 -129t16 -148v-645h-400l-20 72q-102 -99 -264 -99q-80 0 -147.5 21t-121 63t-84 111.5t-30.5 159.5z
M475 360q0 -31 26.5 -49t65.5 -18q36 0 62 18t26 49q0 30 -26 49t-64 19t-64 -19t-26 -49zM588 1159q-183 0 -286 95t-103 253h346q0 -92 43 -92q45 0 45 92h348q0 -158 -104 -253t-289 -95z" />
    <glyph glyph-name="Aogonek" unicode="&#x104;" horiz-adv-x="1523" 
d="M1042 -236q0 80 63 145.5t138 90.5h-262l-63 219h-336l-64 -219h-508l496 1434h512l495 -1434q-33 -11 -58 -37.5t-25 -56.5q0 -29 24.5 -43.5t58.5 -14.5v-266q-101 -31 -180 -31q-291 0 -291 213zM829 584l-79 295l-82 -295h161z" />
    <glyph glyph-name="aogonek" unicode="&#x105;" horiz-adv-x="1138" 
d="M623 -236q0 79 65 145t141 91h-135l-20 72q-102 -99 -264 -99q-80 0 -147.5 21t-121 63t-84 111.5t-30.5 159.5q0 160 120 250t302 90q101 0 188 -37v37q0 36 -37 56.5t-104 20.5q-137 0 -271 -67l-151 299q228 141 504 141q114 0 203.5 -25t147.5 -67.5t95.5 -103.5
t53.5 -129t16 -148v-645q-33 -11 -58.5 -37.5t-25.5 -56.5q0 -29 25 -43.5t59 -14.5v-266q-101 -31 -181 -31q-290 0 -290 213zM475 360q0 -31 26.5 -49t65.5 -18q36 0 62 18t26 49q0 30 -26 49t-64 19t-64 -19t-26 -49z" />
    <glyph glyph-name="Cacute" unicode="&#x106;" horiz-adv-x="1312" 
d="M16 719q0 154 55.5 289.5t154.5 235.5t245 158t317 58q279 0 482 -141l-156 -410q-114 111 -268 111q-124 0 -205.5 -84.5t-81.5 -216.5q0 -137 82 -221t205 -84q153 0 278 112l154 -411q-201 -142 -490 -142q-167 0 -310 54.5t-244.5 151t-159.5 236t-58 304.5z
M543 1518l143 319h483l-243 -319h-383z" />
    <glyph glyph-name="cacute" unicode="&#x107;" horiz-adv-x="1021" 
d="M27 545q0 164 80.5 295.5t221.5 204.5t316 73q96 0 188 -27.5t158 -72.5l-104 -350q-87 75 -191 75q-92 0 -148 -57t-56 -141t57 -140.5t149 -56.5q121 0 193 80l106 -354q-67 -45 -156.5 -73t-185.5 -28q-175 0 -318.5 72.5t-226.5 204t-83 295.5zM383 1174l143 319h484
l-244 -319h-383z" />
    <glyph glyph-name="Ccircumflex" unicode="&#x108;" horiz-adv-x="1312" 
d="M16 719q0 154 55.5 289.5t154.5 235.5t245 158t317 58q279 0 482 -141l-156 -410q-114 111 -268 111q-124 0 -205.5 -84.5t-81.5 -216.5q0 -137 82 -221t205 -84q153 0 278 112l154 -411q-201 -142 -490 -142q-167 0 -310 54.5t-244.5 151t-159.5 236t-58 304.5z
M872 1518l-49 79l-49 -79h-391l217 319h447l217 -319h-392z" />
    <glyph glyph-name="ccircumflex" unicode="&#x109;" horiz-adv-x="1021" 
d="M27 545q0 164 80.5 295.5t221.5 204.5t316 73q96 0 188 -27.5t158 -72.5l-104 -350q-87 75 -191 75q-92 0 -148 -57t-56 -141t57 -140.5t149 -56.5q121 0 193 80l106 -354q-67 -45 -156.5 -73t-185.5 -28q-175 0 -318.5 72.5t-226.5 204t-83 295.5zM674 1174l-49 79
l-50 -79h-391l217 319h447l217 -319h-391z" />
    <glyph glyph-name="Cdotaccent" unicode="&#x10a;" horiz-adv-x="1312" 
d="M16 719q0 154 55.5 289.5t154.5 235.5t245 158t317 58q279 0 482 -141l-156 -410q-114 111 -268 111q-124 0 -205.5 -84.5t-81.5 -216.5q0 -137 82 -221t205 -84q153 0 278 112l154 -411q-201 -142 -490 -142q-167 0 -310 54.5t-244.5 151t-159.5 236t-58 304.5z
M807 1505q-105 0 -167 58.5t-62 150.5q0 93 61.5 150t167.5 57t167.5 -57t61.5 -150q0 -92 -62 -150.5t-167 -58.5z" />
    <glyph glyph-name="cdotaccent" unicode="&#x10b;" horiz-adv-x="1021" 
d="M27 545q0 164 80.5 295.5t221.5 204.5t316 73q96 0 188 -27.5t158 -72.5l-104 -350q-87 75 -191 75q-92 0 -148 -57t-56 -141t57 -140.5t149 -56.5q121 0 193 80l106 -354q-67 -45 -156.5 -73t-185.5 -28q-175 0 -318.5 72.5t-226.5 204t-83 295.5zM651 1161
q-105 0 -167 58.5t-62 150.5q0 93 61.5 150t167.5 57t168 -57t62 -150q0 -92 -62 -150.5t-168 -58.5z" />
    <glyph glyph-name="Ccaron" unicode="&#x10c;" horiz-adv-x="1312" 
d="M16 719q0 154 55.5 289.5t154.5 235.5t245 158t317 58q279 0 482 -141l-156 -410q-114 111 -268 111q-124 0 -205.5 -84.5t-81.5 -216.5q0 -137 82 -221t205 -84q153 0 278 112l154 -411q-201 -142 -490 -142q-167 0 -310 54.5t-244.5 151t-159.5 236t-58 304.5z
M817 1757l49 80h391l-217 -319h-446l-217 319h391z" />
    <glyph glyph-name="ccaron" unicode="&#x10d;" horiz-adv-x="1021" 
d="M27 545q0 164 80.5 295.5t221.5 204.5t316 73q96 0 188 -27.5t158 -72.5l-104 -350q-87 75 -191 75q-92 0 -148 -57t-56 -141t57 -140.5t149 -56.5q121 0 193 80l106 -354q-67 -45 -156.5 -73t-185.5 -28q-175 0 -318.5 72.5t-226.5 204t-83 295.5zM639 1413l49 80h391
l-217 -319h-446l-217 319h391z" />
    <glyph glyph-name="Dcaron" unicode="&#x10e;" horiz-adv-x="1390" 
d="M61 0v1434h512q238 0 418.5 -84.5t281.5 -247t101 -383.5q0 -218 -99.5 -381.5t-281 -250.5t-420.5 -87h-512zM565 1024v-614h31q116 0 182 78t66 231q0 152 -66 228.5t-182 76.5h-31zM600 1757l49 80h391l-217 -319h-446l-217 319h391z" />
    <glyph glyph-name="dcaron" unicode="&#x10f;" horiz-adv-x="1302" 
d="M1313 1122l14 357h320l-103 -357h-231zM1249 1479v-1479h-446v63q-46 -40 -116 -65t-152 -25q-241 0 -374.5 158t-133.5 416q0 168 58 295.5t173.5 200.5t276.5 73q70 0 140 -25t107 -57v445h467zM795 547q0 95 -41 149t-111 54q-68 0 -108.5 -57t-40.5 -146
q0 -95 40 -149t109 -54q72 0 112 57t40 146z" />
    <glyph glyph-name="Dcroat" unicode="&#x110;" horiz-adv-x="1478" 
d="M61 539v358h89v537h512q238 0 418.5 -84.5t281 -247t100.5 -383.5q0 -218 -99.5 -381.5t-280.5 -250.5t-420 -87h-512v539h-89zM653 1024v-127h125v-358h-125v-129h31q116 0 182 78t66 231q0 152 -66 228.5t-182 76.5h-31z" />
    <glyph glyph-name="dcroat" unicode="&#x111;" horiz-adv-x="1349" 
d="M1249 1479v-66h74v-252h-74v-1161h-446v63q-46 -40 -116 -65t-152 -25q-241 0 -374.5 158t-133.5 416q0 168 58 295.5t173.5 200.5t276.5 73q70 0 140 -25t107 -57v127h-202v252h202v66h467zM795 547q0 95 -41 149t-111 54q-68 0 -108.5 -57t-40.5 -146q0 -95 40 -149
t109 -54q72 0 112 57t40 146z" />
    <glyph glyph-name="Emacron" unicode="&#x112;" horiz-adv-x="1017" 
d="M61 0v1434h895v-404h-376v-119h335v-379h-335v-129h376v-403h-895zM172 1530v299h674v-299h-674z" />
    <glyph glyph-name="emacron" unicode="&#x113;" horiz-adv-x="1214" 
d="M1186 438h-694q12 -51 59.5 -82.5t112.5 -31.5q60 0 108.5 22t77.5 55l315 -172q-199 -256 -528 -256q-141 0 -257.5 47t-192.5 127.5t-117 186.5t-41 225q0 115 42.5 217.5t117.5 178t184 119.5t235 44q274 0 429 -154.5t155 -408.5q0 -33 -1.5 -62t-2.5 -42zM508 672
h223q-3 46 -34 76t-79 30q-45 0 -75 -30.5t-35 -75.5zM285 1186v299h673v-299h-673z" />
    <glyph glyph-name="Ebreve" unicode="&#x114;" horiz-adv-x="1017" 
d="M61 0v1434h895v-404h-376v-119h335v-379h-335v-129h376v-403h-895zM506 1503q-183 0 -286 95t-103 253h346q0 -92 43 -92q45 0 45 92h348q0 -158 -104 -253t-289 -95z" />
    <glyph glyph-name="ebreve" unicode="&#x115;" horiz-adv-x="1214" 
d="M1186 438h-694q12 -51 59.5 -82.5t112.5 -31.5q60 0 108.5 22t77.5 55l315 -172q-199 -256 -528 -256q-141 0 -257.5 47t-192.5 127.5t-117 186.5t-41 225q0 115 42.5 217.5t117.5 178t184 119.5t235 44q274 0 429 -154.5t155 -408.5q0 -33 -1.5 -62t-2.5 -42zM508 672
h223q-3 46 -34 76t-79 30q-45 0 -75 -30.5t-35 -75.5zM625 1159q-183 0 -286 95t-103 253h346q0 -92 43 -92q45 0 45 92h348q0 -158 -104 -253t-289 -95z" />
    <glyph glyph-name="Edotaccent" unicode="&#x116;" horiz-adv-x="1017" 
d="M61 0v1434h895v-404h-376v-119h335v-379h-335v-129h376v-403h-895zM508 1505q-105 0 -167 58.5t-62 150.5q0 93 61.5 150t167.5 57t167.5 -57t61.5 -150q0 -92 -62 -150.5t-167 -58.5z" />
    <glyph glyph-name="edotaccent" unicode="&#x117;" horiz-adv-x="1214" 
d="M1186 438h-694q12 -51 59.5 -82.5t112.5 -31.5q60 0 108.5 22t77.5 55l315 -172q-199 -256 -528 -256q-141 0 -257.5 47t-192.5 127.5t-117 186.5t-41 225q0 115 42.5 217.5t117.5 178t184 119.5t235 44q274 0 429 -154.5t155 -408.5q0 -33 -1.5 -62t-2.5 -42zM508 672
h223q-3 46 -34 76t-79 30q-45 0 -75 -30.5t-35 -75.5zM635 1161q-105 0 -167 58.5t-62 150.5q0 93 61.5 150t167.5 57t167.5 -57t61.5 -150q0 -92 -62 -150.5t-167 -58.5z" />
    <glyph glyph-name="Eogonek" unicode="&#x118;" horiz-adv-x="1017" 
d="M61 0v1434h895v-404h-376v-119h335v-379h-335v-129h376v-403q-34 -13 -59 -38.5t-25 -55.5q0 -29 25 -43.5t59 -14.5v-266q-101 -31 -180 -31q-291 0 -291 213q0 80 63 145.5t138 90.5h-625z" />
    <glyph glyph-name="eogonek" unicode="&#x119;" horiz-adv-x="1214" 
d="M524 -236q0 63 41.5 119t100.5 90h-11q-141 0 -260 47t-198.5 127t-123.5 186.5t-44 225.5q0 115 42.5 217.5t117.5 178t184 119.5t235 44q274 0 429 -154.5t155 -408.5q0 -33 -1.5 -62t-2.5 -42l-2 -13h-694q12 -50 60 -81t112 -31q59 0 108 21.5t78 53.5l315 -172
q-16 -33 -64.5 -82t-121.5 -90q-42 -28 -65 -55t-23 -65q0 -43 31.5 -66t72.5 -23v-266q-101 -31 -180 -31q-291 0 -291 213zM508 676h223q-3 43 -35 70.5t-78 27.5q-43 0 -74.5 -27.5t-35.5 -70.5z" />
    <glyph glyph-name="Ecaron" unicode="&#x11a;" horiz-adv-x="1017" 
d="M61 0v1434h895v-404h-376v-119h335v-379h-335v-129h376v-403h-895zM508 1757l49 80h391l-217 -319h-446l-217 319h391z" />
    <glyph glyph-name="ecaron" unicode="&#x11b;" horiz-adv-x="1214" 
d="M1186 438h-694q12 -51 59.5 -82.5t112.5 -31.5q60 0 108.5 22t77.5 55l315 -172q-199 -256 -528 -256q-141 0 -257.5 47t-192.5 127.5t-117 186.5t-41 225q0 115 42.5 217.5t117.5 178t184 119.5t235 44q274 0 429 -154.5t155 -408.5q0 -33 -1.5 -62t-2.5 -42zM508 672
h223q-3 46 -34 76t-79 30q-45 0 -75 -30.5t-35 -75.5zM625 1413l49 80h391l-217 -319h-447l-217 319h391z" />
    <glyph glyph-name="Gcircumflex" unicode="&#x11c;" horiz-adv-x="1529" 
d="M793 -27q-177 0 -324 57t-245.5 157t-153 236.5t-54.5 295.5q0 153 56 289t155.5 236t245 158t315.5 58q386 0 611 -233l-289 -312q-120 105 -264 105q-124 0 -205.5 -84.5t-81.5 -216.5q0 -140 79 -226.5t210 -86.5q112 0 176 38v56h-162v346h627v-637
q-271 -236 -696 -236zM874 1518l-49 79l-49 -79h-391l217 319h447l217 -319h-392z" />
    <glyph glyph-name="gcircumflex" unicode="&#x11d;" horiz-adv-x="1302" 
d="M168 -287l125 318q48 -21 135.5 -43.5t175.5 -22.5q47 0 86 9.5t66.5 32t27.5 54.5v27q-96 -74 -247 -74q-222 0 -366 145.5t-144 391.5q0 249 144.5 407t365.5 158q83 0 153 -23.5t115 -62.5v60h446v-938q0 -114 -32.5 -206t-89 -154.5t-135 -104.5t-167.5 -61t-190 -19
q-118 0 -250.5 31.5t-218.5 74.5zM795 551q0 91 -40.5 145t-107.5 54q-70 0 -111.5 -56t-41.5 -143q0 -93 40.5 -146t112.5 -53q69 0 108.5 57t39.5 142zM700 1174l-49 79l-49 -79h-391l217 319h446l218 -319h-392z" />
    <glyph glyph-name="Gbreve" unicode="&#x11e;" horiz-adv-x="1529" 
d="M793 -27q-177 0 -324 57t-245.5 157t-153 236.5t-54.5 295.5q0 153 56 289t155.5 236t245 158t315.5 58q386 0 611 -233l-289 -312q-120 105 -264 105q-124 0 -205.5 -84.5t-81.5 -216.5q0 -140 79 -226.5t210 -86.5q112 0 176 38v56h-162v346h627v-637
q-271 -236 -696 -236zM825 1503q-183 0 -286 95t-103 253h346q0 -92 43 -92q45 0 45 92h349q0 -158 -104.5 -253t-289.5 -95z" />
    <glyph glyph-name="gbreve" unicode="&#x11f;" horiz-adv-x="1302" 
d="M168 -287l125 318q48 -21 135.5 -43.5t175.5 -22.5q47 0 86 9.5t66.5 32t27.5 54.5v27q-96 -74 -247 -74q-222 0 -366 145.5t-144 391.5q0 249 144.5 407t365.5 158q83 0 153 -23.5t115 -62.5v60h446v-938q0 -114 -32.5 -206t-89 -154.5t-135 -104.5t-167.5 -61t-190 -19
q-118 0 -250.5 31.5t-218.5 74.5zM795 551q0 91 -40.5 145t-107.5 54q-70 0 -111.5 -56t-41.5 -143q0 -93 40.5 -146t112.5 -53q69 0 108.5 57t39.5 142zM649 1159q-183 0 -286 95t-103 253h346q0 -92 43 -92q45 0 45 92h348q0 -158 -104 -253t-289 -95z" />
    <glyph glyph-name="Gdotaccent" unicode="&#x120;" horiz-adv-x="1529" 
d="M793 -27q-177 0 -324 57t-245.5 157t-153 236.5t-54.5 295.5q0 153 56 289t155.5 236t245 158t315.5 58q386 0 611 -233l-289 -312q-120 105 -264 105q-124 0 -205.5 -84.5t-81.5 -216.5q0 -140 79 -226.5t210 -86.5q112 0 176 38v56h-162v346h627v-637
q-271 -236 -696 -236zM805 1505q-106 0 -168 58.5t-62 150.5q0 93 62 150t168 57t167.5 -57t61.5 -150q0 -92 -62 -150.5t-167 -58.5z" />
    <glyph glyph-name="gdotaccent" unicode="&#x121;" horiz-adv-x="1302" 
d="M168 -287l125 318q48 -21 135.5 -43.5t175.5 -22.5q47 0 86 9.5t66.5 32t27.5 54.5v27q-96 -74 -247 -74q-222 0 -366 145.5t-144 391.5q0 249 144.5 407t365.5 158q83 0 153 -23.5t115 -62.5v60h446v-938q0 -114 -32.5 -206t-89 -154.5t-135 -104.5t-167.5 -61t-190 -19
q-118 0 -250.5 31.5t-218.5 74.5zM795 551q0 91 -40.5 145t-107.5 54q-70 0 -111.5 -56t-41.5 -143q0 -93 40.5 -146t112.5 -53q69 0 108.5 57t39.5 142zM651 1161q-105 0 -167 58.5t-62 150.5q0 93 61.5 150t167.5 57t168 -57t62 -150q0 -92 -62 -150.5t-168 -58.5z" />
    <glyph glyph-name="Gcommaaccent" unicode="&#x122;" horiz-adv-x="1529" 
d="M793 -27q-177 0 -324 57t-245.5 157t-153 236.5t-54.5 295.5q0 153 56 289t155.5 236t245 158t315.5 58q386 0 611 -233l-289 -312q-120 105 -264 105q-124 0 -205.5 -84.5t-81.5 -216.5q0 -140 79 -226.5t210 -86.5q112 0 176 38v56h-162v346h627v-637
q-271 -236 -696 -236zM625 -262q0 85 58 142t146 57q90 0 149.5 -56t59.5 -160q0 -135 -67 -251t-178 -193l-136 150q97 70 115 127q-69 17 -108 68t-39 116z" />
    <glyph glyph-name="gcommaaccent" unicode="&#x123;" horiz-adv-x="1302" 
d="M168 -287l125 318q48 -21 135.5 -43.5t175.5 -22.5q47 0 86 9.5t66.5 32t27.5 54.5v27q-96 -74 -247 -74q-222 0 -366 145.5t-144 391.5q0 249 144.5 407t365.5 158q83 0 153 -23.5t115 -62.5v60h446v-938q0 -114 -32.5 -206t-89 -154.5t-135 -104.5t-167.5 -61t-190 -19
q-118 0 -250.5 31.5t-218.5 74.5zM795 551q0 91 -40.5 145t-107.5 54q-70 0 -111.5 -56t-41.5 -143q0 -93 40.5 -146t112.5 -53q69 0 108.5 57t39.5 142zM856 1364q0 -85 -58.5 -142t-146.5 -57q-90 0 -149.5 55.5t-59.5 159.5q0 134 67.5 251t178.5 194l135 -150
q-96 -69 -114 -127q69 -17 108 -68t39 -116z" />
    <glyph glyph-name="Hcircumflex" unicode="&#x124;" horiz-adv-x="1466" 
d="M61 0v1434h521v-516h303v516h520v-1434h-520v514h-303v-514h-521zM786 1518l-49 79l-49 -79h-391l217 319h447l217 -319h-392z" />
    <glyph glyph-name="hcircumflex" unicode="&#x125;" horiz-adv-x="1196" 
d="M776 1116q179 0 274 -112.5t95 -307.5v-696h-467v643q0 46 -22 71t-58 25q-38 0 -59 -28.5t-21 -67.5v-643h-467v1479h467v-482q39 46 108.5 82.5t149.5 36.5zM670 1518l-49 79l-50 -79h-391l217 319h447l217 -319h-391z" />
    <glyph glyph-name="Hbar" unicode="&#x126;" horiz-adv-x="1466" 
d="M61 0v1434h521v-516h303v516h520v-1434h-520v514h-303v-514h-521zM401 1530v299h674v-299h-674z" />
    <glyph glyph-name="hbar" unicode="&#x127;" horiz-adv-x="1249" 
d="M35 1161v252h69v66h467v-66h246v-252h-246v-157q37 44 104 78t144 34q180 0 279.5 -113t99.5 -307v-696h-467v643q0 46 -22 71t-58 25q-38 0 -59 -28.5t-21 -67.5v-643h-467v1161h-69z" />
    <glyph glyph-name="Itilde" unicode="&#x128;" horiz-adv-x="643" 
d="M61 0v1434h521v-1434h-521zM477 1507q-52 0 -127.5 30t-101.5 30q-24 0 -38.5 -16.5t-14.5 -45.5h-310q0 161 73.5 255.5t207.5 94.5q52 0 127.5 -29.5t101.5 -29.5q24 0 39 16.5t15 45.5h309q0 -161 -73.5 -256t-207.5 -95z" />
    <glyph glyph-name="itilde" unicode="&#x129;" 
d="M51 0v1090h467v-1090h-467zM440 1163q-52 0 -127.5 30t-101.5 30q-24 0 -38.5 -16.5t-14.5 -45.5h-310q0 161 73.5 255.5t207.5 94.5q52 0 127.5 -29.5t101.5 -29.5q24 0 39 16t15 45h309q0 -161 -73.5 -255.5t-207.5 -94.5z" />
    <glyph glyph-name="Imacron" unicode="&#x12a;" horiz-adv-x="643" 
d="M61 0v1434h521v-1434h-521zM-14 1530v299h673v-299h-673z" />
    <glyph glyph-name="imacron" unicode="&#x12b;" 
d="M51 0v1090h467v-1090h-467zM-51 1186v299h674v-299h-674z" />
    <glyph glyph-name="Ibreve" unicode="&#x12c;" horiz-adv-x="643" 
d="M61 0v1434h521v-1434h-521zM319 1503q-183 0 -286 95t-103 253h346q0 -92 43 -92q46 0 46 92h348q0 -158 -104.5 -253t-289.5 -95z" />
    <glyph glyph-name="ibreve" unicode="&#x12d;" 
d="M51 0v1090h467v-1090h-467zM283 1159q-183 0 -286 95t-103 253h346q0 -92 43 -92q45 0 45 92h348q0 -158 -104 -253t-289 -95z" />
    <glyph glyph-name="Iogonek" unicode="&#x12e;" horiz-adv-x="643" 
d="M61 0v1434h521v-1434q-33 -12 -58.5 -38t-25.5 -56q0 -29 25 -43.5t59 -14.5v-266q-101 -31 -181 -31q-290 0 -290 213q0 80 62.5 145.5t137.5 90.5h-250z" />
    <glyph glyph-name="iogonek" unicode="&#x12f;" 
d="M51 0v1090h467v-1090q-35 -13 -59.5 -38.5t-24.5 -55.5q0 -29 25 -43.5t59 -14.5v-266q-101 -31 -180 -31q-291 0 -291 213q0 80 63 145.5t138 90.5h-197zM285 1116q-115 0 -184.5 63.5t-69.5 161.5q0 100 69.5 164t184.5 64t184.5 -64t69.5 -164q0 -98 -69.5 -161.5
t-184.5 -63.5z" />
    <glyph glyph-name="Idotaccent" unicode="&#x130;" horiz-adv-x="643" 
d="M61 0v1434h521v-1434h-521zM324 1505q-106 0 -168 58.5t-62 150.5q0 93 62 150t168 57t167.5 -57t61.5 -150q0 -92 -62 -150.5t-167 -58.5z" />
    <glyph glyph-name="dotlessi" unicode="&#x131;" 
d="M51 0v1090h467v-1090h-467z" />
    <glyph glyph-name="IJ" unicode="&#x132;" horiz-adv-x="1501" 
d="M61 0v1434h521v-1434h-521zM666 25l51 391q61 -15 110 -15q93 0 93 78v955h520v-1035q0 -411 -484 -411q-147 0 -290 37z" />
    <glyph glyph-name="ij" unicode="&#x133;" horiz-adv-x="1138" 
d="M51 0v1090h467v-1090h-467zM285 1116q-115 0 -184.5 65.5t-69.5 164.5q0 100 69.5 165.5t184.5 65.5t184.5 -65.5t69.5 -165.5q0 -99 -69.5 -164.5t-184.5 -65.5zM621 27v1063h466v-1076q0 -215 -126 -311t-361 -96q-26 0 -69.5 5.5t-59.5 10.5v328q30 -4 61 -4
q40 0 64.5 21t24.5 59zM854 1116q-115 0 -184.5 65.5t-69.5 164.5q0 100 69.5 165.5t184.5 65.5t184.5 -65.5t69.5 -165.5q0 -99 -69.5 -164.5t-184.5 -65.5z" />
    <glyph glyph-name="Jcircumflex" unicode="&#x134;" horiz-adv-x="858" 
d="M23 25l51 391q62 -15 110 -15q92 0 92 78v955h521v-1035q0 -411 -484 -411q-147 0 -290 37zM580 1518l-50 79l-49 -79h-391l217 319h447l217 -319h-391z" />
    <glyph glyph-name="jcircumflex" unicode="&#x135;" 
d="M51 37v1053h467v-1076q0 -215 -126 -311t-361 -96q-28 0 -82.5 5.5t-69.5 10.5v340q39 -6 84 -6q40 0 64 20.5t24 59.5zM336 1174l-49 79l-49 -79h-392l217 319h447l217 -319h-391z" />
    <glyph glyph-name="Kcommaaccent" unicode="&#x136;" horiz-adv-x="1431" 
d="M61 0v1434h521v-521l245 521h568l-355 -684l369 -750h-578l-249 590v-590h-521zM481 -262q0 85 58.5 142t146.5 57q90 0 149.5 -56t59.5 -160q0 -134 -67.5 -250.5t-178.5 -193.5l-135 150q97 70 115 127q-69 17 -108.5 68t-39.5 116z" />
    <glyph glyph-name="kcommaaccent" unicode="&#x137;" horiz-adv-x="1245" 
d="M51 0v1479h467v-762l178 373h512l-274 -500l293 -590h-535l-174 420v-420h-467zM360 -262q0 85 58.5 142t146.5 57q90 0 149.5 -56t59.5 -160q0 -134 -67.5 -250.5t-178.5 -193.5l-135 150q97 70 115 127q-69 17 -108.5 68t-39.5 116z" />
    <glyph glyph-name="kgreenlandic" unicode="&#x138;" horiz-adv-x="1245" 
d="M51 0v1090h467v-381l178 381h512l-274 -508l293 -582h-535l-174 412v-412h-467z" />
    <glyph glyph-name="Lacute" unicode="&#x139;" horiz-adv-x="1001" 
d="M61 0v1434h521v-1031h393v-403h-914zM94 1518l144 319h483l-244 -319h-383z" />
    <glyph glyph-name="lacute" unicode="&#x13a;" 
d="M51 0v1479h467v-1479h-467zM49 1518l144 319h483l-244 -319h-383z" />
    <glyph glyph-name="Lcommaaccent" unicode="&#x13b;" horiz-adv-x="1001" 
d="M61 0v1434h521v-1031h393v-403h-914zM281 -262q0 85 58 142t146 57q90 0 149.5 -56t59.5 -160q0 -135 -67 -251t-178 -193l-136 150q97 70 115 127q-69 17 -108 68t-39 116z" />
    <glyph glyph-name="lcommaaccent" unicode="&#x13c;" 
d="M51 0v1479h467v-1479h-467zM82 -262q0 85 58.5 142t146.5 57q90 0 149.5 -56t59.5 -160q0 -134 -67.5 -250.5t-178.5 -193.5l-135 150q96 69 114 127q-69 17 -108 68t-39 116z" />
    <glyph glyph-name="Lcaron" unicode="&#x13d;" horiz-adv-x="1001" 
d="M651 1077l15 357h319l-102 -357h-232zM61 0v1434h521v-1031h393v-403h-914z" />
    <glyph glyph-name="lcaron" unicode="&#x13e;" 
d="M582 1122l14 357h319l-102 -357h-231zM51 0v1479h467v-1479h-467z" />
    <glyph glyph-name="Ldot" unicode="&#x13f;" horiz-adv-x="1128" 
d="M61 0v1434h521v-1031h393v-403h-914zM635 754q0 101 72 170t184 69q114 0 186 -69t72 -170q0 -98 -72.5 -167t-185.5 -69q-112 0 -184 69t-72 167z" />
    <glyph glyph-name="ldot" unicode="&#x140;" horiz-adv-x="1118" 
d="M51 0v1479h467v-1479h-467zM588 772q0 101 72 170.5t184 69.5q114 0 186 -69t72 -171q0 -98 -72.5 -166.5t-185.5 -68.5q-112 0 -184 69t-72 166z" />
    <glyph glyph-name="Lslash" unicode="&#x141;" horiz-adv-x="1077" 
d="M23 303v385l114 60v686h520v-414l172 90v-397l-172 -88v-222h394v-403h-914v360z" />
    <glyph glyph-name="lslash" unicode="&#x142;" horiz-adv-x="710" 
d="M25 336v405l96 52v686h467v-430l96 51v-414l-96 -51v-635h-467v385z" />
    <glyph glyph-name="Nacute" unicode="&#x143;" horiz-adv-x="1474" 
d="M61 0v1434h527l311 -674v674h514v-1434h-526l-312 674v-674h-514zM459 1518l143 319h483l-243 -319h-383z" />
    <glyph glyph-name="nacute" unicode="&#x144;" horiz-adv-x="1187" 
d="M766 1116q177 0 274 -113t97 -307v-696h-467v643q0 47 -20 71.5t-56 24.5q-37 0 -56.5 -28t-19.5 -68v-643h-467v1090h447v-91q43 48 113 82.5t155 34.5zM281 1174l143 319h483l-243 -319h-383z" />
    <glyph glyph-name="Ncommaaccent" unicode="&#x145;" horiz-adv-x="1474" 
d="M61 0v1434h527l311 -674v674h514v-1434h-526l-312 674v-674h-514zM530 -262q0 85 58.5 142t146.5 57q90 0 149.5 -56t59.5 -160q0 -134 -67.5 -250.5t-178.5 -193.5l-135 150q97 70 115 127q-69 17 -108.5 68t-39.5 116z" />
    <glyph glyph-name="ncommaaccent" unicode="&#x146;" horiz-adv-x="1187" 
d="M766 1116q177 0 274 -113t97 -307v-696h-467v643q0 47 -20 71.5t-56 24.5q-37 0 -56.5 -28t-19.5 -68v-643h-467v1090h447v-91q43 48 113 82.5t155 34.5zM387 -262q0 85 58.5 142t146.5 57q90 0 149.5 -56t59.5 -160q0 -134 -67.5 -250.5t-178.5 -193.5l-135 150
q97 70 115 127q-69 17 -108.5 68t-39.5 116z" />
    <glyph glyph-name="Ncaron" unicode="&#x147;" horiz-adv-x="1474" 
d="M61 0v1434h527l311 -674v674h514v-1434h-526l-312 674v-674h-514zM737 1757l49 80h392l-217 -319h-447l-217 319h391z" />
    <glyph glyph-name="ncaron" unicode="&#x148;" horiz-adv-x="1187" 
d="M766 1116q177 0 274 -113t97 -307v-696h-467v643q0 47 -20 71.5t-56 24.5q-37 0 -56.5 -28t-19.5 -68v-643h-467v1090h447v-91q43 48 113 82.5t155 34.5zM594 1413l49 80h391l-217 -319h-446l-217 319h391z" />
    <glyph glyph-name="napostrophe" unicode="&#x149;" horiz-adv-x="1368" 
d="M946 1116q177 0 274 -113t97 -307v-696h-467v643q0 47 -20 71.5t-56 24.5q-37 0 -56.5 -28t-19.5 -68v-643h-467v1090h447v-91q43 48 113 82.5t155 34.5zM-172 1360q0 85 58.5 142t146.5 57q90 0 149.5 -56t59.5 -160q0 -134 -67.5 -250.5t-178.5 -193.5l-135 150
q96 69 114 127q-69 17 -108 68t-39 116z" />
    <glyph glyph-name="Eng" unicode="&#x14a;" horiz-adv-x="1474" 
d="M639 -379l51 354q57 -14 111 -14q48 0 73 21t25 57l-324 635v-674h-514v1434h527l311 -641v641h514v-1438q0 -412 -483 -412q-148 0 -291 37z" />
    <glyph glyph-name="eng" unicode="&#x14b;" horiz-adv-x="1187" 
d="M670 18v625q0 47 -20 71.5t-56 24.5q-37 0 -56.5 -28t-19.5 -68v-643h-467v1090h447v-84q36 43 106 76.5t146 33.5q185 0 286 -113t101 -307v-682q0 -215 -126.5 -311t-361.5 -96q-28 0 -82 5.5t-69 10.5v322q39 -6 84 -6q40 0 64 20.5t24 58.5z" />
    <glyph glyph-name="Omacron" unicode="&#x14c;" horiz-adv-x="1617" 
d="M809 -27q-180 0 -330 57.5t-250.5 158t-156.5 237t-56 293.5q0 155 56 290.5t156.5 235.5t251 157.5t329.5 57.5t329.5 -57.5t251 -157.5t156.5 -235.5t56 -290.5q0 -157 -56 -293.5t-156.5 -237t-250.5 -158t-330 -57.5zM809 1032q-118 0 -184 -87t-66 -226
q0 -143 65.5 -230.5t184.5 -87.5q118 0 184 87.5t66 230.5q0 139 -66.5 226t-183.5 87zM469 1530v299h674v-299h-674z" />
    <glyph glyph-name="omacron" unicode="&#x14d;" horiz-adv-x="1302" 
d="M1260 547q0 -163 -77 -293.5t-218.5 -205.5t-321.5 -75q-135 0 -250.5 44t-195.5 120t-125 182t-45 228q0 248 171.5 409.5t444.5 161.5t445 -161.5t172 -409.5zM498 547q0 -92 38.5 -148.5t106.5 -56.5t106.5 56.5t38.5 148.5t-38.5 147.5t-106.5 55.5t-106.5 -55.5
t-38.5 -147.5zM313 1186v299h674v-299h-674z" />
    <glyph glyph-name="Obreve" unicode="&#x14e;" horiz-adv-x="1617" 
d="M809 -27q-180 0 -330 57.5t-250.5 158t-156.5 237t-56 293.5q0 155 56 290.5t156.5 235.5t251 157.5t329.5 57.5t329.5 -57.5t251 -157.5t156.5 -235.5t56 -290.5q0 -157 -56 -293.5t-156.5 -237t-250.5 -158t-330 -57.5zM809 1032q-118 0 -184 -87t-66 -226
q0 -143 65.5 -230.5t184.5 -87.5q118 0 184 87.5t66 230.5q0 139 -66.5 226t-183.5 87zM819 1503q-183 0 -286 95t-103 253h346q0 -92 43 -92q45 0 45 92h348q0 -158 -104 -253t-289 -95z" />
    <glyph glyph-name="obreve" unicode="&#x14f;" horiz-adv-x="1302" 
d="M1260 547q0 -163 -77 -293.5t-218.5 -205.5t-321.5 -75q-135 0 -250.5 44t-195.5 120t-125 182t-45 228q0 248 171.5 409.5t444.5 161.5t445 -161.5t172 -409.5zM498 547q0 -92 38.5 -148.5t106.5 -56.5t106.5 56.5t38.5 148.5t-38.5 147.5t-106.5 55.5t-106.5 -55.5
t-38.5 -147.5zM653 1159q-183 0 -286 95t-103 253h346q0 -92 43 -92q45 0 45 92h349q0 -158 -104.5 -253t-289.5 -95z" />
    <glyph glyph-name="Ohungarumlaut" unicode="&#x150;" horiz-adv-x="1617" 
d="M809 -27q-180 0 -330 57.5t-250.5 158t-156.5 237t-56 293.5q0 155 56 290.5t156.5 235.5t251 157.5t329.5 57.5t329.5 -57.5t251 -157.5t156.5 -235.5t56 -290.5q0 -157 -56 -293.5t-156.5 -237t-250.5 -158t-330 -57.5zM809 1032q-118 0 -184 -87t-66 -226
q0 -143 65.5 -230.5t184.5 -87.5q118 0 184 87.5t66 230.5q0 139 -66.5 226t-183.5 87zM387 1518l141 319h387l-178 -319h-350zM821 1518l142 319h387l-179 -319h-350z" />
    <glyph glyph-name="ohungarumlaut" unicode="&#x151;" horiz-adv-x="1302" 
d="M1260 547q0 -163 -77 -293.5t-218.5 -205.5t-321.5 -75q-135 0 -250.5 44t-195.5 120t-125 182t-45 228q0 248 171.5 409.5t444.5 161.5t445 -161.5t172 -409.5zM498 547q0 -92 38.5 -148.5t106.5 -56.5t106.5 56.5t38.5 148.5t-38.5 147.5t-106.5 55.5t-106.5 -55.5
t-38.5 -147.5zM221 1174l141 319h388l-179 -319h-350zM655 1174l142 319h387l-178 -319h-351z" />
    <glyph glyph-name="OE" unicode="&#x152;" horiz-adv-x="2056" 
d="M809 -27q-180 0 -330 57.5t-250.5 158t-156.5 237t-56 293.5q0 155 56 290.5t156.5 235.5t251 157.5t329.5 57.5q112 0 229 -26h957v-404h-469q30 -72 41 -119h387v-379h-385q-14 -63 -43 -129h469v-403h-957q-122 -27 -229 -27zM809 1032q-118 0 -184 -87t-66 -226
q0 -143 65.5 -230.5t184.5 -87.5q118 0 184 87.5t66 230.5q0 139 -66.5 226t-183.5 87z" />
    <glyph glyph-name="oe" unicode="&#x153;" horiz-adv-x="1992" 
d="M1964 438h-694q12 -50 60 -81t112 -31q59 0 108 21.5t78 53.5l316 -172q-10 -20 -33.5 -48t-69 -65.5t-101.5 -68.5t-137.5 -52.5t-168.5 -21.5q-231 0 -392 127q-166 -127 -391 -127q-273 0 -448.5 163t-175.5 411q0 247 175 409t449 162q219 0 381 -119q64 53 158.5 86
t195.5 33q274 0 429 -154.5t155 -408.5q0 -33 -1.5 -62t-2.5 -42zM498 547q0 -91 42 -148t111 -57t111.5 57t42.5 148t-42.5 147t-111.5 56t-111 -56t-42 -147zM1286 676h223q-3 43 -34.5 70.5t-77.5 27.5q-43 0 -75 -28t-36 -70z" />
    <glyph glyph-name="Racute" unicode="&#x154;" horiz-adv-x="1294" 
d="M61 0v1434h637q245 0 389 -132t144 -333q0 -118 -65 -216t-162 -153l327 -600h-563l-203 463v-463h-504zM565 844h62q47 0 74.5 30t27.5 70t-27.5 70t-74.5 30h-62v-200zM334 1518l143 319h484l-244 -319h-383z" />
    <glyph glyph-name="racute" unicode="&#x155;" horiz-adv-x="817" 
d="M778 1116v-422q-43 15 -82 15q-77 0 -127.5 -54t-50.5 -147v-508h-467v1090h457v-119q36 54 108.5 99.5t161.5 45.5zM141 1174l144 319h483l-244 -319h-383z" />
    <glyph glyph-name="Rcommaaccent" unicode="&#x156;" horiz-adv-x="1294" 
d="M61 0v1434h637q245 0 389 -132t144 -333q0 -118 -65 -216t-162 -153l327 -600h-563l-203 463v-463h-504zM565 844h62q47 0 74.5 30t27.5 70t-27.5 70t-74.5 30h-62v-200zM436 -262q0 85 58.5 142t146.5 57q90 0 149.5 -56t59.5 -160q0 -134 -67.5 -250.5t-178.5 -193.5
l-135 150q97 70 115 127q-69 17 -108.5 68t-39.5 116z" />
    <glyph glyph-name="rcommaaccent" unicode="&#x157;" horiz-adv-x="817" 
d="M778 1116v-422q-43 15 -82 15q-77 0 -127.5 -54t-50.5 -147v-508h-467v1090h457v-119q36 54 108.5 99.5t161.5 45.5zM115 -262q0 85 58 142t146 57q90 0 149.5 -56t59.5 -160q0 -135 -67 -251t-178 -193l-136 150q97 70 115 127q-69 17 -108 68t-39 116z" />
    <glyph glyph-name="Rcaron" unicode="&#x158;" horiz-adv-x="1294" 
d="M61 0v1434h637q245 0 389 -132t144 -333q0 -118 -65 -216t-162 -153l327 -600h-563l-203 463v-463h-504zM565 844h62q47 0 74.5 30t27.5 70t-27.5 70t-74.5 30h-62v-200zM553 1757l49 80h391l-217 -319h-446l-217 319h391z" />
    <glyph glyph-name="rcaron" unicode="&#x159;" horiz-adv-x="817" 
d="M778 1116v-422q-43 15 -82 15q-77 0 -127.5 -54t-50.5 -147v-508h-467v1090h457v-119q36 54 108.5 99.5t161.5 45.5zM410 1413l49 80h391l-217 -319h-447l-217 319h391z" />
    <glyph glyph-name="Sacute" unicode="&#x15a;" horiz-adv-x="1181" 
d="M625 430q0 26 -31 50.5t-80 47t-108.5 49.5t-119.5 65t-109 85t-80 119t-31 158q0 206 148 331t390 125q94 0 179 -23.5t145.5 -60t108.5 -82.5t76 -89.5t40 -82.5l-365 -209q-26 53 -68.5 92t-88.5 39q-20 0 -31.5 -10.5t-11.5 -25.5q0 -27 31 -52.5t80.5 -50t109 -52
t119.5 -66t109.5 -85t80.5 -115.5t31 -151q0 -212 -151.5 -337.5t-407.5 -125.5q-98 0 -185 25t-147.5 63.5t-110 90t-78.5 99t-46 95.5l370 201q40 -68 92 -110t99 -42q20 0 30.5 9.5t10.5 25.5zM375 1518l143 319h483l-243 -319h-383z" />
    <glyph glyph-name="sacute" unicode="&#x15b;" horiz-adv-x="1003" 
d="M29 160l186 264q53 -38 137 -71.5t133 -33.5q23 0 34 7t11 16q0 14 -14.5 21.5t-54.5 19.5q-49 15 -75 23.5t-75 28.5t-77.5 38t-65.5 47.5t-57.5 62t-35 78t-14.5 97.5q0 160 133 260t334 100q261 0 437 -172l-222 -250q-39 35 -93 58.5t-97 23.5q-23 0 -34 -8t-11 -18
q0 -17 19.5 -26.5t84.5 -29.5q40 -12 67 -21t69 -26t70.5 -34.5t62 -45t53.5 -58t33.5 -73t13.5 -90.5q0 -180 -130.5 -277.5t-346.5 -97.5q-144 0 -269.5 56t-205.5 131zM285 1174l143 319h483l-243 -319h-383z" />
    <glyph glyph-name="Scircumflex" unicode="&#x15c;" horiz-adv-x="1181" 
d="M625 430q0 26 -31 50.5t-80 47t-108.5 49.5t-119.5 65t-109 85t-80 119t-31 158q0 206 148 331t390 125q94 0 179 -23.5t145.5 -60t108.5 -82.5t76 -89.5t40 -82.5l-365 -209q-26 53 -68.5 92t-88.5 39q-20 0 -31.5 -10.5t-11.5 -25.5q0 -27 31 -52.5t80.5 -50t109 -52
t119.5 -66t109.5 -85t80.5 -115.5t31 -151q0 -212 -151.5 -337.5t-407.5 -125.5q-98 0 -185 25t-147.5 63.5t-110 90t-78.5 99t-46 95.5l370 201q40 -68 92 -110t99 -42q20 0 30.5 9.5t10.5 25.5zM659 1518l-49 79l-49 -79h-391l217 319h447l217 -319h-392z" />
    <glyph glyph-name="scircumflex" unicode="&#x15d;" horiz-adv-x="1003" 
d="M29 160l186 264q53 -38 137 -71.5t133 -33.5q23 0 34 7t11 16q0 14 -14.5 21.5t-54.5 19.5q-49 15 -75 23.5t-75 28.5t-77.5 38t-65.5 47.5t-57.5 62t-35 78t-14.5 97.5q0 160 133 260t334 100q261 0 437 -172l-222 -250q-39 35 -93 58.5t-97 23.5q-23 0 -34 -8t-11 -18
q0 -17 19.5 -26.5t84.5 -29.5q40 -12 67 -21t69 -26t70.5 -34.5t62 -45t53.5 -58t33.5 -73t13.5 -90.5q0 -180 -130.5 -277.5t-346.5 -97.5q-144 0 -269.5 56t-205.5 131zM578 1174l-50 79l-49 -79h-391l217 319h447l217 -319h-391z" />
    <glyph glyph-name="Scedilla" unicode="&#x15e;" horiz-adv-x="1181" 
d="M625 430q0 26 -31 50.5t-80 47t-108.5 49.5t-119.5 65t-109 85t-80 119t-31 158q0 206 148 331t390 125q94 0 179 -23.5t145.5 -60t108.5 -82.5t76 -89.5t40 -82.5l-365 -209q-26 53 -68.5 92t-88.5 39q-20 0 -31.5 -10.5t-11.5 -25.5q0 -27 31 -52.5t80.5 -50t109 -52
t119.5 -66t109.5 -85t80.5 -115.5t31 -151q0 -190 -123 -311.5t-336 -144.5l-8 -48q72 -14 116 -64t44 -122q0 -108 -81 -173t-222 -65q-93 0 -201 43l51 197q35 -14 74 -14q24 0 38.5 11t14.5 28t-16.5 28t-44.5 11q-16 0 -31 -3t-22 -5l-7 -3l29 193q-83 20 -154 60.5
t-119 91t-79.5 100.5t-48.5 100l370 201q40 -68 92 -110t99 -42q20 0 30.5 9.5t10.5 25.5z" />
    <glyph glyph-name="scedilla" unicode="&#x15f;" horiz-adv-x="1003" 
d="M29 160l186 264q53 -38 137 -71.5t133 -33.5q23 0 34 7t11 16q0 14 -14.5 21.5t-54.5 19.5q-49 15 -75 23.5t-75 28.5t-77.5 38t-65.5 47.5t-57.5 62t-35 78t-14.5 97.5q0 160 133 260t334 100q261 0 437 -172l-222 -250q-39 35 -93 58.5t-97 23.5q-23 0 -34 -8t-11 -18
q0 -17 19.5 -26.5t84.5 -29.5q40 -12 67 -21t69 -26t70.5 -34.5t62 -45t53.5 -58t33.5 -73t13.5 -90.5q0 -156 -99 -250t-268 -116l-8 -50q72 -14 116 -64t44 -122q0 -108 -81 -173t-222 -65q-93 0 -201 43l51 197q35 -14 74 -14q24 0 38.5 11t14.5 28t-16.5 28t-44.5 11
q-16 0 -31 -3t-22 -5l-7 -3l29 191q-97 23 -180.5 69t-138.5 99z" />
    <glyph glyph-name="Scaron" unicode="&#x160;" horiz-adv-x="1181" 
d="M625 430q0 26 -31 50.5t-80 47t-108.5 49.5t-119.5 65t-109 85t-80 119t-31 158q0 206 148 331t390 125q94 0 179 -23.5t145.5 -60t108.5 -82.5t76 -89.5t40 -82.5l-365 -209q-26 53 -68.5 92t-88.5 39q-20 0 -31.5 -10.5t-11.5 -25.5q0 -27 31 -52.5t80.5 -50t109 -52
t119.5 -66t109.5 -85t80.5 -115.5t31 -151q0 -212 -151.5 -337.5t-407.5 -125.5q-98 0 -185 25t-147.5 63.5t-110 90t-78.5 99t-46 95.5l370 201q40 -68 92 -110t99 -42q20 0 30.5 9.5t10.5 25.5zM612 1757l50 80h391l-217 -319h-447l-217 319h391z" />
    <glyph glyph-name="scaron" unicode="&#x161;" horiz-adv-x="1003" 
d="M29 160l186 264q53 -38 137 -71.5t133 -33.5q23 0 34 7t11 16q0 14 -14.5 21.5t-54.5 19.5q-49 15 -75 23.5t-75 28.5t-77.5 38t-65.5 47.5t-57.5 62t-35 78t-14.5 97.5q0 160 133 260t334 100q261 0 437 -172l-222 -250q-39 35 -93 58.5t-97 23.5q-23 0 -34 -8t-11 -18
q0 -17 19.5 -26.5t84.5 -29.5q40 -12 67 -21t69 -26t70.5 -34.5t62 -45t53.5 -58t33.5 -73t13.5 -90.5q0 -180 -130.5 -277.5t-346.5 -97.5q-144 0 -269.5 56t-205.5 131zM535 1413l49 80h391l-217 -319h-447l-217 319h391z" />
    <glyph glyph-name="Tcommaaccent" unicode="&#x162;" horiz-adv-x="1142" 
d="M311 0v1030h-280v404h1083v-404h-283v-1030h-153l-10 -68q72 -14 115.5 -64t43.5 -122q0 -108 -81 -173t-222 -65q-93 0 -200 43l51 197q35 -14 74 -14q24 0 38.5 11t14.5 28t-17 28t-45 11q-16 0 -30.5 -3t-21.5 -5l-7 -3l31 199h-101z" />
    <glyph glyph-name="tcommaaccent" unicode="&#x163;" horiz-adv-x="788" 
d="M137 1090v227h455v-227h170v-340h-170v-322q0 -39 30 -55.5t72 -16.5l74 6v-358q-72 -18 -176 -20l-8 -52q72 -14 115.5 -64t43.5 -122q0 -108 -81 -173t-222 -65q-92 0 -200 43l51 197q35 -14 74 -14q24 0 38.5 11t14.5 28t-17 28t-45 11q-16 0 -30.5 -3t-21.5 -5l-7 -3
l35 232q-207 97 -207 383v334h-98v340h110z" />
    <glyph glyph-name="Tcaron" unicode="&#x164;" horiz-adv-x="1142" 
d="M311 0v1030h-280v404h1083v-404h-283v-1030h-520zM575 1757l50 80h391l-217 -319h-447l-217 319h391z" />
    <glyph glyph-name="tcaron" unicode="&#x165;" horiz-adv-x="806" 
d="M635 1122l14 357h320l-103 -357h-231zM137 1090v227h455v-227h170v-340h-170v-322q0 -39 30 -55.5t72 -16.5l74 6v-358q-74 -20 -180 -20q-226 0 -344.5 107.5t-118.5 324.5v334h-98v340h110z" />
    <glyph glyph-name="Tbar" unicode="&#x166;" horiz-adv-x="1142" 
d="M152 563v299h159v168h-280v404h1083v-404h-283v-168h158v-299h-158v-563h-520v563h-159z" />
    <glyph glyph-name="tbar" unicode="&#x167;" horiz-adv-x="788" 
d="M137 1090v227h455v-227h170v-340h-170v-66h119v-270h-119q5 -31 34.5 -44.5t67.5 -13.5l74 6v-358q-74 -20 -180 -20q-226 0 -344.5 106.5t-118.5 323.5h-98v270h98v66h-98v340h110z" />
    <glyph glyph-name="Utilde" unicode="&#x168;" horiz-adv-x="1445" 
d="M721 -27q-314 0 -487 162t-173 428v871h521v-883q0 -72 37.5 -111t101.5 -39q66 0 104.5 39t38.5 111v883h520v-871q0 -266 -174 -428t-489 -162zM879 1507q-52 0 -128 30t-102 30q-24 0 -38.5 -16.5t-14.5 -45.5h-309q0 161 73 255.5t207 94.5q52 0 128 -29.5t102 -29.5
q24 0 38.5 16.5t14.5 45.5h309q0 -161 -73 -256t-207 -95z" />
    <glyph glyph-name="utilde" unicode="&#x169;" horiz-adv-x="1185" 
d="M438 -27q-186 0 -286.5 106t-100.5 298v713h467v-644q0 -47 20 -71.5t56 -24.5q37 0 56.5 28t19.5 68v644h467v-1090h-447v84q-36 -43 -106 -77t-146 -34zM748 1163q-52 0 -128 30t-102 30q-24 0 -38.5 -16.5t-14.5 -45.5h-309q0 161 73 255.5t207 94.5q52 0 128 -29.5
t102 -29.5q24 0 38.5 16t14.5 45h309q0 -161 -73 -255.5t-207 -94.5z" />
    <glyph glyph-name="Umacron" unicode="&#x16a;" horiz-adv-x="1445" 
d="M721 -27q-314 0 -487 162t-173 428v871h521v-883q0 -72 37.5 -111t101.5 -39q66 0 104.5 39t38.5 111v883h520v-871q0 -266 -174 -428t-489 -162zM385 1530v299h674v-299h-674z" />
    <glyph glyph-name="umacron" unicode="&#x16b;" horiz-adv-x="1185" 
d="M438 -27q-186 0 -286.5 106t-100.5 298v713h467v-644q0 -47 20 -71.5t56 -24.5q37 0 56.5 28t19.5 68v644h467v-1090h-447v84q-36 -43 -106 -77t-146 -34zM256 1186v299h674v-299h-674z" />
    <glyph glyph-name="Ubreve" unicode="&#x16c;" horiz-adv-x="1445" 
d="M721 -27q-314 0 -487 162t-173 428v871h521v-883q0 -72 37.5 -111t101.5 -39q66 0 104.5 39t38.5 111v883h520v-871q0 -266 -174 -428t-489 -162zM721 1503q-183 0 -286 95t-103 253h346q0 -92 43 -92q45 0 45 92h348q0 -158 -104 -253t-289 -95z" />
    <glyph glyph-name="ubreve" unicode="&#x16d;" horiz-adv-x="1185" 
d="M438 -27q-186 0 -286.5 106t-100.5 298v713h467v-644q0 -47 20 -71.5t56 -24.5q37 0 56.5 28t19.5 68v644h467v-1090h-447v84q-36 -43 -106 -77t-146 -34zM590 1159q-183 0 -286 95t-103 253h346q0 -92 43 -92q45 0 45 92h348q0 -158 -104 -253t-289 -95z" />
    <glyph glyph-name="Uring" unicode="&#x16e;" horiz-adv-x="1445" 
d="M721 -27q-314 0 -487 162t-173 428v871h521v-883q0 -72 37.5 -111t101.5 -39q66 0 104.5 39t38.5 111v883h520v-871q0 -266 -174 -428t-489 -162zM461 1726q0 99 76 163.5t184 64.5q111 0 186.5 -63.5t75.5 -161.5q0 -100 -75.5 -164t-186.5 -64q-108 0 -184 63.5
t-76 161.5zM655 1729q0 -31 19.5 -51.5t48.5 -20.5t48.5 20.5t19.5 51.5q0 29 -19.5 49t-48.5 20t-48.5 -20t-19.5 -49z" />
    <glyph glyph-name="uring" unicode="&#x16f;" horiz-adv-x="1185" 
d="M438 -27q-186 0 -286.5 106t-100.5 298v713h467v-644q0 -47 20 -71.5t56 -24.5q37 0 56.5 28t19.5 68v644h467v-1090h-447v84q-36 -43 -106 -77t-146 -34zM336 1382q0 99 76 163.5t184 64.5q110 0 186 -64t76 -162q0 -100 -75.5 -163.5t-186.5 -63.5q-108 0 -184 63.5
t-76 161.5zM530 1384q0 -31 19.5 -51t48.5 -20t48.5 20t19.5 51q0 29 -19.5 49.5t-48.5 20.5t-48.5 -20.5t-19.5 -49.5z" />
    <glyph glyph-name="Uhungarumlaut" unicode="&#x170;" horiz-adv-x="1445" 
d="M721 -27q-314 0 -487 162t-173 428v871h521v-883q0 -72 37.5 -111t101.5 -39q66 0 104.5 39t38.5 111v883h520v-871q0 -266 -174 -428t-489 -162zM301 1518l141 319h387l-178 -319h-350zM735 1518l142 319h387l-179 -319h-350z" />
    <glyph glyph-name="uhungarumlaut" unicode="&#x171;" horiz-adv-x="1185" 
d="M438 -27q-186 0 -286.5 106t-100.5 298v713h467v-644q0 -47 20 -71.5t56 -24.5q37 0 56.5 28t19.5 68v644h467v-1090h-447v84q-36 -43 -106 -77t-146 -34zM162 1174l141 319h387l-178 -319h-350zM596 1174l141 319h387l-178 -319h-350z" />
    <glyph glyph-name="Uogonek" unicode="&#x172;" horiz-adv-x="1445" 
d="M721 -27q-314 0 -487 162t-173 428v871h521v-883q0 -72 37.5 -111t101.5 -39q66 0 104.5 39t38.5 111v883h520v-871q0 -164 -67.5 -291t-198.5 -204q-56 -34 -76 -63t-20 -68q0 -41 34.5 -65t67.5 -24v-266q-101 -31 -192 -31q-291 0 -291 213q0 64 40 120t99 91
q-39 -2 -59 -2z" />
    <glyph glyph-name="uogonek" unicode="&#x173;" horiz-adv-x="1185" 
d="M664 -236q0 80 62.5 145.5t137.5 90.5h-176v84q-36 -43 -106 -77t-146 -34q-185 0 -286 113t-101 307v697h467v-644q0 -47 20 -71.5t56 -24.5q37 0 56.5 28t19.5 68v644h467v-1090q-32 -13 -58 -37.5t-26 -56.5q0 -29 25 -43.5t59 -14.5v-266q-101 -31 -181 -31
q-290 0 -290 213z" />
    <glyph glyph-name="Wcircumflex" unicode="&#x174;" horiz-adv-x="2166" 
d="M1257 0l-174 752l-174 -752h-522l-373 1434h555l133 -789l177 789h409l176 -789l133 789h555l-372 -1434h-523zM1133 1518l-50 79l-49 -79h-391l217 319h447l217 -319h-391z" />
    <glyph glyph-name="wcircumflex" unicode="&#x175;" horiz-adv-x="1789" 
d="M983 0l-90 401l-84 -401h-504l-289 1090h508l70 -537l94 537h414l94 -541l72 541h508l-291 -1090h-502zM946 1174l-49 79l-49 -79h-391l217 319h446l217 -319h-391z" />
    <glyph glyph-name="Ycircumflex" unicode="&#x176;" horiz-adv-x="1449" 
d="M985 0h-520v612l-449 822h576l143 -408l144 408h555l-449 -822v-612zM774 1518l-49 79l-49 -79h-391l217 319h446l217 -319h-391z" />
    <glyph glyph-name="ycircumflex" unicode="&#x177;" horiz-adv-x="1277" 
d="M715 -367h-441l148 422l-408 1035h500l127 -515l137 515h486zM694 1174l-49 79l-49 -79h-391l217 319h446l217 -319h-391z" />
    <glyph glyph-name="Ydieresis" unicode="&#x178;" horiz-adv-x="1449" 
d="M985 0h-520v612l-449 822h576l143 -408l144 408h555l-449 -822v-612zM311 1659q0 75 51 125.5t140 50.5t139.5 -50.5t50.5 -125.5q0 -76 -50.5 -125t-139.5 -49q-90 0 -140.5 49t-50.5 125zM760 1659q0 75 50.5 125.5t139.5 50.5t140 -50.5t51 -125.5q0 -76 -50.5 -125
t-140.5 -49q-89 0 -139.5 49t-50.5 125z" />
    <glyph glyph-name="Zacute" unicode="&#x179;" horiz-adv-x="1277" 
d="M27 0v268l538 766h-524v400h1204v-267l-545 -764h551v-403h-1224zM379 1518l143 319h484l-244 -319h-383z" />
    <glyph glyph-name="zacute" unicode="&#x17a;" horiz-adv-x="999" 
d="M29 0v240l348 499h-342v351h923v-240l-354 -498h357v-352h-932zM262 1174l144 319h483l-244 -319h-383z" />
    <glyph glyph-name="Zdotaccent" unicode="&#x17b;" horiz-adv-x="1277" 
d="M27 0v268l538 766h-524v400h1204v-267l-545 -764h551v-403h-1224zM651 1505q-105 0 -167 58.5t-62 150.5q0 93 61.5 150t167.5 57t168 -57t62 -150q0 -92 -62 -150.5t-168 -58.5z" />
    <glyph glyph-name="zdotaccent" unicode="&#x17c;" horiz-adv-x="999" 
d="M29 0v240l348 499h-342v351h923v-240l-354 -498h357v-352h-932zM500 1161q-106 0 -168 58.5t-62 150.5q0 93 62 150t168 57t167.5 -57t61.5 -150q0 -92 -62 -150.5t-167 -58.5z" />
    <glyph glyph-name="Zcaron" unicode="&#x17d;" horiz-adv-x="1277" 
d="M27 0v268l538 766h-524v400h1204v-267l-545 -764h551v-403h-1224zM657 1757l50 80h391l-217 -319h-447l-217 319h391z" />
    <glyph glyph-name="zcaron" unicode="&#x17e;" horiz-adv-x="999" 
d="M29 0v240l348 499h-342v351h923v-240l-354 -498h357v-352h-932zM500 1413l49 80h391l-217 -319h-447l-217 319h392z" />
    <glyph glyph-name="florin" unicode="&#x192;" horiz-adv-x="1034" 
d="M676 590l-76 -588q-51 -383 -500 -383q-73 0 -180 21l43 340q53 -11 86 -11q36 0 62 18.5t30 53.5l74 549h-100v336h143l23 155q56 383 499 383q99 0 181 -16l-43 -344q-45 10 -82 10q-88 0 -97 -72l-14 -116h133v-336h-182z" />
    <glyph glyph-name="Aringacute" unicode="&#x1fa;" horiz-adv-x="1523" 
d="M502 1487q0 99 76 163t184 64q111 0 186.5 -63.5t75.5 -161.5q0 -33 -8 -57l497 -1432h-532l-63 219h-336l-64 -219h-508l498 1436q-6 24 -6 51zM535 1753l127 309h483l-227 -309h-383zM829 584l-79 295l-82 -295h161zM696 1489q0 -31 19.5 -51.5t48.5 -20.5t48 20.5
t19 51.5q0 30 -19 50t-48 20t-48.5 -20.5t-19.5 -49.5z" />
    <glyph glyph-name="aringacute" unicode="&#x1fb;" horiz-adv-x="1138" 
d="M27 328q0 160 120 250t302 90q101 0 188 -37v37q0 36 -37 56.5t-104 20.5q-137 0 -271 -67l-151 299q228 141 504 141q114 0 203.5 -25t147.5 -67.5t95.5 -103.5t53.5 -129t16 -148v-645h-400l-20 72q-102 -99 -264 -99q-80 0 -147.5 21t-121 63t-84 111.5t-30.5 159.5z
M475 360q0 -31 26.5 -49t65.5 -18q36 0 62 18t26 49q0 30 -26 49t-64 19t-64 -19t-26 -49zM338 1376q0 99 76 163.5t184 64.5q110 0 186 -64t76 -162q0 -100 -75.5 -163.5t-186.5 -63.5q-108 0 -184 63.5t-76 161.5zM532 1378q0 -31 19.5 -51t48.5 -20t48.5 20t19.5 51
q0 29 -19.5 49.5t-48.5 20.5t-48.5 -20.5t-19.5 -49.5zM375 1632l141 301h483l-241 -301h-383z" />
    <glyph glyph-name="AEacute" unicode="&#x1fc;" horiz-adv-x="1880" 
d="M924 0v219h-328l-104 -219h-519l783 1434h1063v-404h-377v-119h336v-379h-336v-129h377v-403h-895zM924 905l-156 -321h156v321zM895 1487l143 319h484l-244 -319h-383z" />
    <glyph glyph-name="aeacute" unicode="&#x1fd;" horiz-adv-x="1818" 
d="M1790 438h-694q12 -50 60 -81t112 -31q59 0 108 21.5t78 53.5l315 -172q-10 -20 -33.5 -48t-69 -65.5t-101 -68.5t-137 -52.5t-168.5 -21.5q-285 0 -445 181q-131 -181 -387 -181q-80 0 -150.5 21t-127.5 63t-90 111.5t-33 159.5q0 107 58 185.5t153 116.5t213 38
q103 0 186 -35v35q0 71 -129 71q-143 0 -277 -67l-157 299q95 66 230 106.5t274 40.5q209 0 329 -98q57 44 145 71t177 27q261 0 414 -155.5t153 -407.5q0 -33 -1.5 -62t-2.5 -42zM479 360q0 -30 25.5 -46.5t62.5 -16.5q34 0 59 16.5t25 46.5q0 29 -25 46.5t-61 17.5
t-61 -17.5t-25 -46.5zM1112 676h223q-3 43 -34.5 70.5t-77.5 27.5q-43 0 -75 -28t-36 -70zM664 1174l143 319h483l-243 -319h-383z" />
    <glyph glyph-name="Oslashacute" unicode="&#x1fe;" horiz-adv-x="1617" 
d="M809 -27q-194 0 -358 68l-97 -119l-237 195l82 100q-89 98 -136 227t-47 275q0 155 56 290.5t156.5 235.5t251 157.5t329.5 57.5q193 0 352 -67l99 118l239 -194l-84 -100q187 -202 187 -498q0 -157 -56 -293.5t-156.5 -237t-250.5 -158t-330 -57.5zM1059 719q0 21 -4 57
l-303 -368q31 -7 57 -7q118 0 184 87.5t66 230.5zM809 1032q-118 0 -184 -87t-66 -226q0 -42 2 -60l301 367q-24 6 -53 6zM598 1518l143 319h484l-244 -319h-383z" />
    <glyph glyph-name="oslashacute" unicode="&#x1ff;" horiz-adv-x="1234" 
d="M1276 547q0 -163 -79 -293.5t-222.5 -205.5t-323.5 -75q-189 0 -336 80l-96 -98l-149 143l86 86q-129 154 -129 363q0 247 175 409t449 162q188 0 340 -84l76 78l150 -143l-66 -68q125 -154 125 -354zM498 547v-15l202 207q-26 11 -49 11q-69 0 -111 -56t-42 -147z
M651 342q69 0 111.5 57.5t42.5 151.5l-199 -203q21 -6 45 -6zM393 1174l144 319h483l-244 -319h-383z" />
    <glyph glyph-name="Scommaaccent" unicode="&#x218;" horiz-adv-x="1181" 
d="M625 430q0 26 -31 50.5t-80 47t-108.5 49.5t-119.5 65t-109 85t-80 119t-31 158q0 206 148 331t390 125q94 0 179 -23.5t145.5 -60t108.5 -82.5t76 -89.5t40 -82.5l-365 -209q-26 53 -68.5 92t-88.5 39q-20 0 -31.5 -10.5t-11.5 -25.5q0 -27 31 -52.5t80.5 -50t109 -52
t119.5 -66t109.5 -85t80.5 -115.5t31 -151q0 -212 -151.5 -337.5t-407.5 -125.5q-98 0 -185 25t-147.5 63.5t-110 90t-78.5 99t-46 95.5l370 201q40 -68 92 -110t99 -42q20 0 30.5 9.5t10.5 25.5zM393 -262q0 85 58.5 142t146.5 57q90 0 149.5 -56t59.5 -160
q0 -134 -67.5 -250.5t-178.5 -193.5l-135 150q97 70 115 127q-69 17 -108.5 68t-39.5 116z" />
    <glyph glyph-name="scommaaccent" unicode="&#x219;" horiz-adv-x="1003" 
d="M29 160l186 264q53 -38 137 -71.5t133 -33.5q23 0 34 7t11 16q0 14 -14.5 21.5t-54.5 19.5q-49 15 -75 23.5t-75 28.5t-77.5 38t-65.5 47.5t-57.5 62t-35 78t-14.5 97.5q0 160 133 260t334 100q261 0 437 -172l-222 -250q-39 35 -93 58.5t-97 23.5q-23 0 -34 -8t-11 -18
q0 -17 19.5 -26.5t84.5 -29.5q40 -12 67 -21t69 -26t70.5 -34.5t62 -45t53.5 -58t33.5 -73t13.5 -90.5q0 -180 -130.5 -277.5t-346.5 -97.5q-144 0 -269.5 56t-205.5 131zM295 -262q0 85 58.5 142t146.5 57q90 0 149.5 -56t59.5 -160q0 -134 -67.5 -250.5t-178.5 -193.5
l-135 150q96 69 114 127q-69 17 -108 68t-39 116z" />
    <glyph glyph-name="uni021A" unicode="&#x21a;" horiz-adv-x="1142" 
d="M311 0v1030h-280v404h1083v-404h-283v-1030h-520zM360 -262q0 85 58.5 142t146.5 57q90 0 149.5 -56t59.5 -160q0 -134 -67.5 -250.5t-178.5 -193.5l-135 150q97 70 115 127q-69 17 -108.5 68t-39.5 116z" />
    <glyph glyph-name="uni021B" unicode="&#x21b;" horiz-adv-x="825" 
d="M156 1090v227h454v-227h170v-340h-170v-322q0 -39 30.5 -55.5t72.5 -16.5l73 6v-358q-74 -20 -180 -20q-226 0 -344.5 107.5t-118.5 324.5v334h-98v340h111zM283 -262q0 85 58 142t146 57q90 0 149.5 -56t59.5 -160q0 -135 -67 -251t-178 -193l-136 150q97 70 115 127
q-69 17 -108 68t-39 116z" />
    <glyph glyph-name="dotlessj" unicode="&#x237;" 
d="M51 37v1053h467v-1076q0 -215 -126 -311t-361 -96q-28 0 -82.5 5.5t-69.5 10.5v340q39 -6 84 -6q40 0 64 20.5t24 59.5z" />
    <glyph glyph-name="circumflex" unicode="&#x2c6;" horiz-adv-x="921" 
d="M510 1174l-49 79l-49 -79h-392l218 319h446l217 -319h-391z" />
    <glyph glyph-name="caron" unicode="&#x2c7;" horiz-adv-x="921" 
d="M461 1413l49 80h391l-217 -319h-446l-218 319h392z" />
    <glyph glyph-name="breve" unicode="&#x2d8;" horiz-adv-x="917" 
d="M457 1159q-183 0 -286 95t-103 253h346q0 -92 43 -92q45 0 45 92h348q0 -158 -104 -253t-289 -95z" />
    <glyph glyph-name="dotaccent" unicode="&#x2d9;" horiz-adv-x="917" 
d="M459 1161q-106 0 -168 58.5t-62 150.5q0 93 62 150t168 57t167.5 -57t61.5 -150q0 -92 -62 -150.5t-167 -58.5z" />
    <glyph glyph-name="ring" unicode="&#x2da;" horiz-adv-x="917" 
d="M197 1382q0 99 76 163.5t184 64.5q110 0 186 -64t76 -162q0 -100 -75.5 -163.5t-186.5 -63.5q-108 0 -184 63.5t-76 161.5zM391 1384q0 -31 19.5 -51t48.5 -20t48 20t19 51q0 30 -19 50t-48 20t-48.5 -20.5t-19.5 -49.5z" />
    <glyph glyph-name="ogonek" unicode="&#x2db;" horiz-adv-x="921" 
d="M225 -236q0 80 63 145.5t138 90.5h264q-30 -12 -54 -38t-24 -56q0 -29 25 -43.5t59 -14.5v-266q-101 -31 -180 -31q-291 0 -291 213z" />
    <glyph glyph-name="tilde" unicode="&#x2dc;" horiz-adv-x="919" 
d="M614 1163q-52 0 -127.5 30t-101.5 30q-24 0 -38.5 -16.5t-14.5 -45.5h-309q0 161 73 255.5t207 94.5q52 0 127.5 -29.5t101.5 -29.5q24 0 39 16t15 45h309q0 -161 -73.5 -255.5t-207.5 -94.5z" />
    <glyph glyph-name="hungarumlaut" unicode="&#x2dd;" horiz-adv-x="1042" 
d="M39 1174l141 319h387l-178 -319h-350zM473 1174l141 319h387l-178 -319h-350z" />
    <glyph glyph-name="Wgrave" unicode="&#x1e80;" horiz-adv-x="2166" 
d="M1257 0l-174 752l-174 -752h-522l-373 1434h555l133 -789l177 789h409l176 -789l133 789h555l-372 -1434h-523zM1114 1837l143 -319h-383l-243 319h483z" />
    <glyph glyph-name="wgrave" unicode="&#x1e81;" horiz-adv-x="1789" 
d="M983 0l-90 401l-84 -401h-504l-289 1090h508l70 -537l94 537h414l94 -541l72 541h508l-291 -1090h-502zM967 1493l143 -319h-383l-244 319h484z" />
    <glyph glyph-name="Wacute" unicode="&#x1e82;" horiz-adv-x="2166" 
d="M1257 0l-174 752l-174 -752h-522l-373 1434h555l133 -789l177 789h409l176 -789l133 789h555l-372 -1434h-523zM872 1518l144 319h483l-244 -319h-383z" />
    <glyph glyph-name="wacute" unicode="&#x1e83;" horiz-adv-x="1789" 
d="M983 0l-90 401l-84 -401h-504l-289 1090h508l70 -537l94 537h414l94 -541l72 541h508l-291 -1090h-502zM662 1174l143 319h483l-244 -319h-382z" />
    <glyph glyph-name="Wdieresis" unicode="&#x1e84;" horiz-adv-x="2166" 
d="M1257 0l-174 752l-174 -752h-522l-373 1434h555l133 -789l177 789h409l176 -789l133 789h555l-372 -1434h-523zM668 1665q0 75 50.5 125.5t139.5 50.5t140 -50.5t51 -125.5q0 -76 -50.5 -125t-140.5 -49q-89 0 -139.5 49t-50.5 125zM1116 1665q0 75 51 125.5t140 50.5
t139.5 -50.5t50.5 -125.5q0 -76 -50.5 -125t-139.5 -49q-90 0 -140.5 49t-50.5 125z" />
    <glyph glyph-name="wdieresis" unicode="&#x1e85;" horiz-adv-x="1789" 
d="M983 0l-90 401l-84 -401h-504l-289 1090h508l70 -537l94 537h414l94 -541l72 541h508l-291 -1090h-502zM479 1339q0 75 51 126t140 51t139.5 -51t50.5 -126q0 -76 -50.5 -125t-139.5 -49q-90 0 -140.5 49t-50.5 125zM928 1339q0 75 50.5 126t139.5 51t140 -51t51 -126
q0 -76 -50.5 -125t-140.5 -49q-89 0 -139.5 49t-50.5 125z" />
    <glyph glyph-name="Ygrave" unicode="&#x1ef2;" horiz-adv-x="1449" 
d="M985 0h-520v612l-449 822h576l143 -408l144 408h555l-449 -822v-612zM797 1837l143 -319h-383l-244 319h484z" />
    <glyph glyph-name="ygrave" unicode="&#x1ef3;" horiz-adv-x="1275" 
d="M715 -367h-441l148 422l-408 1035h500l127 -515l137 515h486zM715 1493l143 -319h-383l-244 319h484z" />
    <glyph glyph-name="endash" unicode="&#x2013;" horiz-adv-x="1443" 
d="M80 467v342h1284v-342h-1284z" />
    <glyph glyph-name="emdash" unicode="&#x2014;" horiz-adv-x="2017" 
d="M92 467v342h1831v-342h-1831z" />
    <glyph glyph-name="quoteleft" unicode="&#x2018;" horiz-adv-x="694" 
d="M604 942q0 -101 -72 -170.5t-184 -69.5t-185 69.5t-73 189.5q0 166 84.5 319.5t235.5 251.5l182 -205q-46 -28 -91 -74.5t-65 -87.5q82 -30 125 -90t43 -133z" />
    <glyph glyph-name="quoteright" unicode="&#x2019;" horiz-adv-x="694" 
d="M90 1292q0 101 72 170.5t184 69.5t185 -69t73 -189q0 -166 -84 -320t-235 -252l-183 205q46 28 91 74.5t65 87.5q-82 30 -125 90t-43 133z" />
    <glyph glyph-name="quotesinglbase" unicode="&#x201a;" horiz-adv-x="550" 
d="M18 209q0 101 72 170.5t184 69.5t185 -69.5t73 -189.5q0 -166 -84 -319.5t-235 -251.5l-182 205q46 28 90.5 74.5t64.5 87.5q-82 30 -125 90t-43 133z" />
    <glyph glyph-name="quotedblleft" unicode="&#x201c;" horiz-adv-x="1269" 
d="M604 942q0 -101 -72 -170.5t-184 -69.5t-185 69.5t-73 189.5q0 166 84.5 319.5t235.5 251.5l182 -205q-46 -28 -91 -74.5t-65 -87.5q82 -30 125 -90t43 -133zM1180 942q0 -101 -72 -170.5t-184 -69.5t-185 69.5t-73 189.5q0 166 84 319.5t235 251.5l182 -205
q-46 -28 -90.5 -74.5t-64.5 -87.5q82 -30 125 -90t43 -133z" />
    <glyph glyph-name="quotedblright" unicode="&#x201d;" horiz-adv-x="1269" 
d="M666 1292q0 101 72 170.5t184 69.5t185 -69t73 -189q0 -166 -84.5 -320t-235.5 -252l-182 205q46 28 91 74.5t65 87.5q-82 30 -125 90t-43 133zM90 1292q0 101 72 170.5t184 69.5t185 -69t73 -189q0 -166 -84 -320t-235 -252l-183 205q46 28 91 74.5t65 87.5
q-82 30 -125 90t-43 133z" />
    <glyph glyph-name="quotedblbase" unicode="&#x201e;" horiz-adv-x="1269" 
d="M666 209q0 101 72 170.5t184 69.5t185 -69.5t73 -189.5q0 -166 -84.5 -319.5t-235.5 -251.5l-182 205q46 28 91 74.5t65 87.5q-82 30 -125 90t-43 133zM90 209q0 101 72 170.5t184 69.5t185 -69.5t73 -189.5q0 -166 -84 -319.5t-235 -251.5l-183 205q46 28 91 74.5
t65 87.5q-82 30 -125 90t-43 133z" />
    <glyph glyph-name="dagger" unicode="&#x2020;" horiz-adv-x="976" 
d="M258 0v752h-242v362h242v320h461v-320h239v-362h-239v-752h-461z" />
    <glyph glyph-name="daggerdbl" unicode="&#x2021;" horiz-adv-x="974" 
d="M16 307v359h242v98h-242v362h242v308h461v-308h239v-362h-239v-98h239v-359h-239v-307h-461v307h-242z" />
    <glyph glyph-name="bullet" unicode="&#x2022;" horiz-adv-x="831" 
d="M416 283q-151 0 -252 102t-101 250t101 250t252 102t251.5 -102t100.5 -250t-100.5 -250t-251.5 -102z" />
    <glyph glyph-name="perthousand" unicode="&#x2030;" horiz-adv-x="2686" 
d="M190 0l1055 1434h393l-1054 -1434h-394zM834 1092q0 -156 -113.5 -262.5t-288.5 -106.5t-288 106.5t-113 262.5t113 262t288 106t288.5 -106t113.5 -262zM383 1092q0 -32 13 -52t36 -20t36 20t13 52q0 31 -13 51t-36 20t-36 -20t-13 -51zM1796 342q0 -156 -113 -262.5
t-288 -106.5t-288.5 106.5t-113.5 262.5t113.5 262.5t288.5 106.5t288 -106.5t113 -262.5zM1346 342q0 -32 13 -52t36 -20t36 20t13 52t-13 52t-36 20t-36 -20t-13 -52zM2652 342q0 -156 -113 -262.5t-288 -106.5t-288.5 106.5t-113.5 262.5t113.5 262.5t288.5 106.5
t288 -106.5t113 -262.5zM2202 342q0 -32 13 -52t36 -20t36 20t13 52t-13 52t-36 20t-36 -20t-13 -52z" />
    <glyph glyph-name="guilsinglleft" unicode="&#x2039;" horiz-adv-x="753" 
d="M297 219l-227 387l227 387h387l-225 -387l225 -387h-387z" />
    <glyph glyph-name="guilsinglright" unicode="&#x203a;" horiz-adv-x="753" 
d="M684 606l-227 -387h-387l225 387l-225 387h387z" />
    <glyph glyph-name="fraction" unicode="&#x2044;" horiz-adv-x="1130" 
d="M391 -84h-405l753 1602h408z" />
    <glyph glyph-name="Euro" unicode="&#x20ac;" horiz-adv-x="1409" 
d="M41 440v246h94v55h-94v260h152q81 196 270 328.5t430 132.5q247 0 416 -102l-168 -340q-99 55 -215 55q-120 0 -211 -74h329l-28 -260h-389q-2 -10 -2 -28l2 -27h383l-23 -246h-260q64 -71 209 -71q59 0 120 18t103 47l160 -334q-61 -54 -165.5 -90.5t-233.5 -36.5
q-267 0 -463 127.5t-267 339.5h-149z" />
    <glyph glyph-name="numero" unicode="&#x2116;" horiz-adv-x="2318" 
d="M1495 324v335h760v-335h-760zM61 0v1434h527l311 -674v674h514v-1434h-526l-312 674v-674h-514zM1827 1079q0 -32 12.5 -57t34.5 -25t34.5 25t12.5 57t-12.5 57t-34.5 25t-34.5 -25t-12.5 -57zM1470 1079q0 160 113.5 270.5t290.5 110.5t290 -110.5t113 -270.5
t-113 -270.5t-290 -110.5t-290.5 110.5t-113.5 270.5z" />
    <glyph glyph-name="trademark" unicode="&#x2122;" horiz-adv-x="1714" 
d="M244 694v512h-172v228h608v-228h-172v-512h-264zM1307 774h-234l-80 258v-338h-254v740h336l111 -365l114 365h340v-740h-254v338z" />
    <glyph glyph-name="minus" unicode="&#x2212;" horiz-adv-x="1099" 
d="M20 469v332h1059v-332h-1059z" />
    <glyph glyph-name="commaaccent" unicode="&#xf6c3;" horiz-adv-x="727" 
d="M156 -262q0 85 58 142t146 57q90 0 149.5 -56t59.5 -160q0 -135 -67 -251t-178 -193l-136 150q97 70 115 127q-69 17 -108 68t-39 116z" />
    <glyph glyph-name="hyphen.caps" horiz-adv-x="829" 
d="M70 545v352h688v-352h-688z" />
    <glyph glyph-name="endash.caps" horiz-adv-x="1443" 
d="M68 555v342h1284v-342h-1284z" />
    <glyph glyph-name="emdash.caps" horiz-adv-x="1966" 
d="M68 555v342h1830v-342h-1830z" />
    <glyph glyph-name="guillemotleft.caps" horiz-adv-x="1210" 
d="M297 326l-227 387l227 387h387l-225 -387l225 -387h-387zM754 326l-228 387l228 387h387l-226 -387l226 -387h-387z" />
    <glyph glyph-name="guillemotright.caps" horiz-adv-x="1210" 
d="M1141 713l-228 -387h-387l226 387l-226 387h387zM684 713l-227 -387h-387l225 387l-225 387h387z" />
    <glyph glyph-name="guilsinglleft.caps" horiz-adv-x="753" 
d="M297 326l-227 387l227 387h387l-225 -387l225 -387h-387z" />
    <glyph glyph-name="guilsinglright.caps" horiz-adv-x="753" 
d="M684 713l-227 -387h-387l225 387l-225 387h387z" />
    <glyph glyph-name="parenleft.caps" horiz-adv-x="780" 
d="M41 166v1098q0 247 166 376t457 129v-358q-88 0 -125 -37t-37 -110v-1098q0 -73 37 -110.5t125 -37.5v-358q-291 0 -457 129.5t-166 376.5z" />
    <glyph glyph-name="parenright.caps" horiz-adv-x="780" 
d="M739 1264v-1098q0 -247 -165.5 -376.5t-456.5 -129.5v358q88 0 125 37.5t37 110.5v1098q0 73 -37 110t-125 37v358q291 0 456.5 -129t165.5 -376z" />
    <glyph glyph-name="bracketleft.caps" horiz-adv-x="700" 
d="M41 -340v2109h623v-358h-162v-1393h162v-358h-623z" />
    <glyph glyph-name="bracketright.caps" horiz-adv-x="700" 
d="M664 1769v-2109h-623v358h162v1393h-162v358h623z" />
    <glyph glyph-name="braceleft.caps" horiz-adv-x="870" 
d="M41 518v395q71 0 109 33.5t38 132.5v185q0 164 83 279t227 170.5t336 55.5v-358q-183 0 -183 -147v-277q0 -101 -56.5 -172.5t-135.5 -99.5q78 -28 135 -99.5t57 -171.5v-280q0 -146 183 -146v-358q-192 0 -336 55.5t-227 171t-83 279.5v186q0 99 -38 132.5t-109 33.5z
" />
    <glyph glyph-name="bar.caps" horiz-adv-x="643" 
d="M98 -428v2302h447v-2302h-447z" />
    <glyph glyph-name="braceright.caps" horiz-adv-x="952" 
d="M911 913v-395q-71 0 -109 -33.5t-38 -132.5v-186q0 -245 -176 -375.5t-469 -130.5v358q182 0 182 146v280q0 100 57 171.5t136 99.5q-79 28 -136 99.5t-57 172.5v277q0 72 -43 109.5t-139 37.5v358q192 0 335.5 -55.5t226.5 -170.5t83 -279v-185q0 -99 38 -132.5
t109 -33.5z" />
    <glyph glyph-name="slash.caps" horiz-adv-x="997" 
d="M-12 -168l614 1757h410l-615 -1757h-409z" />
    <glyph glyph-name="backslash.caps" horiz-adv-x="997" 
d="M397 1589l615 -1757h-410l-614 1757h409z" />
    <glyph glyph-name="exclamdown.caps" horiz-adv-x="671" 
d="M78 1225q0 97 72 166t184 69q113 0 185.5 -68.5t72.5 -166.5q0 -102 -72 -171t-186 -69q-112 0 -184 69.5t-72 170.5zM84 0l35 956h434l35 -956h-504z" />
    <glyph glyph-name="questiondown.caps" horiz-adv-x="1036" 
d="M784 956v-92q0 -58 -22 -112t-55 -92.5t-71.5 -76.5t-71.5 -65.5t-55 -57t-22 -54.5q0 -28 16.5 -47t47.5 -19q37 0 65 31.5t41 79.5l363 -158q-16 -43 -36.5 -81t-61.5 -84t-92.5 -78.5t-131.5 -54.5t-176 -22q-221 0 -364.5 114t-143.5 298q0 63 23.5 119.5t59 95
t76.5 77t76.5 69t59 68t23.5 75.5v67h452zM817 1225q0 -101 -72 -170.5t-184 -69.5q-114 0 -186 69t-72 171q0 98 72.5 166.5t185.5 68.5q112 0 184 -69t72 -166z" />
    <glyph glyph-name="periodcentered.caps" 
d="M27 705q0 101 72 170t184 69q114 0 186 -69t72 -170q0 -98 -72.5 -167t-185.5 -69q-112 0 -184 69t-72 167z" />
    <glyph glyph-name="bullet.caps" horiz-adv-x="831" 
d="M416 373q-151 0 -252 102t-101 250t101 250t252 102t251.5 -102t100.5 -250t-100.5 -250t-251.5 -102z" />
    <glyph glyph-name="zero.tab" horiz-adv-x="1298" 
d="M649 -27q-290 0 -430.5 185t-140.5 559q0 373 140.5 558t430.5 185t431 -185t141 -558q0 -374 -141 -559t-431 -185zM649 383q70 0 70 334q0 338 -70 338q-69 0 -69 -338q0 -334 69 -334z" />
    <glyph glyph-name="one.tab" horiz-adv-x="1298" 
d="M1190 0h-1047v387h320v621l-256 -72l-101 358l453 140h377v-1047h254v-387z" />
    <glyph glyph-name="two.tab" horiz-adv-x="1298" 
d="M109 0v180q0 85 31.5 164t82 140t111.5 118t122.5 106t112 94.5t82 94t31.5 94.5q0 30 -17 47t-44 17q-67 0 -95 -123l-438 90q14 68 40 128t71 118t104 99.5t145.5 67t190.5 25.5q160 0 284 -51t196.5 -155.5t72.5 -249.5q0 -75 -26 -144.5t-67.5 -121.5t-92 -98.5
t-100.5 -82.5t-91.5 -66t-67.5 -56.5t-26 -47.5h483v-387h-1095z" />
    <glyph glyph-name="three.tab" horiz-adv-x="1298" 
d="M1139 1434v-355l-203 -184q120 -43 193 -147.5t73 -272.5q0 -223 -157 -362.5t-402 -139.5q-106 0 -194.5 27t-146.5 68.5t-102.5 98t-67.5 109t-36 107.5l430 94q7 -44 34 -70t61 -26q38 0 65 24t27 64q0 38 -31.5 65t-83.5 27h-213v281l238 205h-463v387h979z" />
    <glyph glyph-name="four.tab" horiz-adv-x="1298" 
d="M33 291v295l532 848h559v-770h142v-373h-142v-291h-495v291h-596zM471 664h158v268z" />
    <glyph glyph-name="five.tab" horiz-adv-x="1298" 
d="M621 385q35 0 62.5 25t27.5 73q0 44 -27 73.5t-70 29.5q-26 0 -47.5 -15t-31.5 -41l-410 58l33 846h964v-387h-538l-4 -113q58 20 133 20q135 0 249 -57.5t183 -166t69 -247.5q0 -143 -74 -260t-204 -183.5t-289 -66.5q-105 0 -195 26.5t-151 68t-107.5 96.5t-71.5 108
t-38 107l442 98q5 -49 32.5 -70.5t62.5 -21.5z" />
    <glyph glyph-name="six.tab" horiz-adv-x="1298" 
d="M670 377q30 0 48.5 32t18.5 76q0 55 -23.5 92t-62.5 37q-36 0 -63 -20q-7 -217 82 -217zM752 1460q235 0 399 -102l-164 -363q-102 58 -188 58q-68 0 -110.5 -40.5t-53.5 -101.5q66 39 166 39q85 0 157.5 -26t130.5 -79t91.5 -143t33.5 -208q0 -226 -154.5 -373.5
t-397.5 -147.5q-580 0 -580 666q0 84 9 163t30.5 162.5t55.5 154.5t87 135t121 109t162 71t205 26z" />
    <glyph glyph-name="seven.tab" horiz-adv-x="1298" 
d="M94 1434h1108v-285l-450 -1149h-533l418 1053h-543v381z" />
    <glyph glyph-name="eight.tab" horiz-adv-x="1298" 
d="M649 -27q-265 0 -418 130t-153 350q0 93 38 175.5t103 135.5q-51 46 -82 115t-31 145q0 189 145.5 312.5t397.5 123.5t397.5 -123.5t145.5 -312.5q0 -76 -31 -145t-82 -115q65 -53 103.5 -135.5t38.5 -175.5q0 -220 -153.5 -350t-418.5 -130zM649 1090q-32 0 -49.5 -28
t-17.5 -69q0 -44 17.5 -69t49.5 -25t49 24.5t17 69.5q0 41 -17 69t-49 28zM649 575q-41 0 -62.5 -35t-21.5 -77q0 -52 23 -83.5t61 -31.5t60 31t22 84q0 42 -21.5 77t-60.5 35z" />
    <glyph glyph-name="nine.tab" horiz-adv-x="1298" 
d="M627 1057q-30 0 -49 -32.5t-19 -76.5q0 -55 23.5 -92t62.5 -37q36 0 64 21q7 217 -82 217zM545 -27q-234 0 -400 103l164 362q100 -57 189 -57q68 0 110.5 40t53.5 101q-66 -39 -166 -39q-85 0 -157.5 26t-131 79.5t-92 143.5t-33.5 208q0 226 155 373t398 147
q579 0 579 -665q0 -120 -17.5 -229.5t-64.5 -220.5t-120 -191t-193 -130.5t-274 -50.5z" />
    </font>
</defs>
</svg>
