<?xml version="1.0" standalone="no"?>
<!DOCTYPE svg PUBLIC "-//W3C//DTD SVG 1.1//EN" "http://www.w3.org/Graphics/SVG/1.1/DTD/svg11.dtd" >
<svg xmlns="http://www.w3.org/2000/svg" xmlns:xlink="http://www.w3.org/1999/xlink" version="1.1">
<metadata>
Created by FontForge 20170731 at Tue Oct  5 11:52:15 2021
 By Aleksey,,,
Copyright (c) 2015 by atipo. All rights reserved.
</metadata>
<defs>
<font id="Geomanist-UltraItalic" horiz-adv-x="569" >
  <font-face 
    font-family="Geomanist"
    font-weight="900"
    font-style="italic"
    font-stretch="normal"
    units-per-em="2048"
    panose-1="2 0 5 3 4 0 0 9 0 4"
    ascent="1536"
    descent="-512"
    x-height="1090"
    cap-height="1434"
    bbox="-184 -723 2714 2062"
    underline-thickness="102"
    underline-position="-307"
    unicode-range="U+0020-F6C3"
  />
<missing-glyph horiz-adv-x="1040" 
d="M8 0l240 1434h1024l-240 -1434h-1024zM655 809l437 522h-697zM702 717l261 -522l174 1044zM143 195l437 522l-263 522zM188 102h697l-260 523z" />
    <glyph glyph-name="ellipsis" unicode="&#x2e;&#x2e;&#x2e;" horiz-adv-x="1792" 
d="M51 178q0 110 87 190.5t212 80.5q101 0 161 -58.5t60 -148.5q0 -108 -88 -188.5t-213 -80.5q-100 0 -159.5 58.5t-59.5 146.5zM680 178q0 110 87 190.5t212 80.5q101 0 161 -58.5t60 -148.5q0 -108 -88 -188.5t-213 -80.5q-100 0 -159.5 58.5t-59.5 146.5zM1292 178
q0 110 87 190.5t212 80.5q101 0 161 -58.5t60 -148.5q0 -108 -88 -188.5t-213 -80.5q-100 0 -159.5 58.5t-59.5 146.5z" />
    <glyph glyph-name=".notdef" horiz-adv-x="1040" 
d="M8 0l240 1434h1024l-240 -1434h-1024zM655 809l437 522h-697zM702 717l261 -522l174 1044zM143 195l437 522l-263 522zM188 102h697l-260 523z" />
    <glyph glyph-name=".null" horiz-adv-x="0" 
 />
    <glyph glyph-name="nonmarkingreturn" horiz-adv-x="682" 
 />
    <glyph glyph-name="space" unicode=" " horiz-adv-x="395" 
 />
    <glyph glyph-name="exclam" unicode="!" horiz-adv-x="671" 
d="M111 178q0 110 87 190.5t212 80.5q101 0 161 -58.5t60 -148.5q0 -108 -88 -188.5t-213 -80.5q-100 0 -159.5 58.5t-59.5 146.5zM199 477l125 957h503l-194 -957h-434z" />
    <glyph glyph-name="quotedbl" unicode="&#x22;" horiz-adv-x="911" 
d="M213 858l78 576h385l-113 -576h-350zM633 858l78 576h389l-115 -576h-352z" />
    <glyph glyph-name="numbersign" unicode="#" horiz-adv-x="1396" 
d="M584 0l125 328h-88l-125 -328h-400l125 328h-145l117 313h147l57 152h-147l117 313h149l123 328h399l-123 -328h89l122 328h400l-123 -328h158l-117 -313h-160l-57 -152h159l-116 -313h-162l-125 -328h-399zM797 793l-58 -152h88l58 152h-88z" />
    <glyph glyph-name="dollar" unicode="$" horiz-adv-x="1181" 
d="M696 436q0 24 -26 46.5t-67 44t-91 46.5t-100.5 59t-91.5 75t-67 102.5t-26 134.5q0 192 129 327.5t340 174.5l21 125h305l-21 -129q78 -19 142 -57.5t103.5 -85.5t63 -92t29.5 -85l-399 -209q-15 52 -52 91.5t-83 39.5q-22 0 -35.5 -12t-13.5 -31q0 -28 35 -57t87 -53.5
t113.5 -62t113.5 -80t87 -110.5t35 -149q0 -191 -127.5 -325t-343.5 -174l-23 -142h-305l23 140q-87 17 -156.5 57.5t-112 93t-67.5 104t-35 103.5l403 201q30 -69 74.5 -110.5t91.5 -41.5t47 41z" />
    <glyph glyph-name="percent" unicode="%" horiz-adv-x="1830" 
d="M190 0l1295 1434h393l-1294 -1434h-394zM1022 1141q0 -171 -137.5 -294.5t-331.5 -123.5q-155 0 -249.5 90.5t-94.5 228.5q0 171 136.5 294.5t330.5 123.5q156 0 251 -90.5t95 -228.5zM563 1075q0 -25 10.5 -40t28.5 -15q27 0 45.5 26t18.5 62q0 25 -10.5 40t-28.5 15
q-27 0 -45.5 -26t-18.5 -62zM1858 391q0 -171 -136.5 -294.5t-330.5 -123.5q-157 0 -252 91t-95 229q0 171 137.5 294.5t331.5 123.5q155 0 250 -91t95 -229zM1401 326q0 -25 10.5 -40.5t28.5 -15.5q27 0 45 26t18 62q0 25 -10.5 40.5t-28.5 15.5q-27 0 -45 -26t-18 -62z
" />
    <glyph glyph-name="ampersand" unicode="&#x26;" horiz-adv-x="1421" 
d="M1090 -84l-121 154q-179 -97 -383 -97q-238 0 -370 119t-132 301q0 136 83 252t226 189q-53 79 -53 188q0 186 153.5 312t387.5 126q203 0 312.5 -96t109.5 -248q0 -237 -287 -405l67 -78q19 24 29 65h389q-15 -91 -64.5 -191.5t-115.5 -170.5l113 -131zM659 344
q45 0 80 21l-133 161q-23 -11 -38 -34.5t-15 -53.5q0 -42 32 -68t74 -26zM764 1030q0 -52 39 -94q76 49 76 121q0 25 -12.5 40t-35.5 15q-28 0 -47.5 -23t-19.5 -59z" />
    <glyph glyph-name="quotesingle" unicode="'" horiz-adv-x="487" 
d="M213 858l78 576h385l-113 -576h-350z" />
    <glyph glyph-name="parenleft" unicode="(" horiz-adv-x="780" 
d="M55 90l185 1098q27 165 123 279.5t244 170.5t339 56l-59 -359q-88 0 -131 -37t-56 -110l-184 -1098q-11 -73 19 -110t118 -37l-59 -359q-291 0 -435 129.5t-104 376.5z" />
    <glyph glyph-name="parenright" unicode=")" horiz-adv-x="780" 
d="M938 1188l-184 -1098q-27 -165 -123.5 -279.5t-244.5 -170.5t-339 -56l59 359q89 0 132.5 37t54.5 110l184 1098q11 73 -19 110t-118 37l59 359q291 0 435 -129.5t104 -376.5z" />
    <glyph glyph-name="asterisk" unicode="*" horiz-adv-x="917" 
d="M227 1133l170 229l123 -74l25 146h311l-25 -146l150 76l90 -256l-162 -74l133 -76l-170 -233l-122 74l-25 -144h-311l24 144l-145 -74l-98 258l174 74z" />
    <glyph glyph-name="plus" unicode="+" horiz-adv-x="1099" 
d="M98 469l56 332h329l60 352h399l-59 -352h329l-55 -332h-330l-59 -354h-399l59 354h-330z" />
    <glyph glyph-name="comma" unicode="," horiz-adv-x="550" 
d="M51 178q0 110 87 190.5t212 80.5q99 0 159 -57.5t60 -158.5q0 -159 -113.5 -330t-305.5 -284l-148 205q54 32 105.5 77t76.5 85q-65 25 -99 76.5t-34 115.5z" />
    <glyph glyph-name="hyphen" unicode="-" horiz-adv-x="829" 
d="M145 459l60 352h688l-59 -352h-689z" />
    <glyph glyph-name="period" unicode="." horiz-adv-x="550" 
d="M51 178q0 110 87 190.5t212 80.5q101 0 161 -58.5t60 -148.5q0 -108 -88 -188.5t-213 -80.5q-100 0 -159.5 58.5t-59.5 146.5z" />
    <glyph glyph-name="slash" unicode="/" horiz-adv-x="997" 
d="M-49 -221l909 1757h410l-910 -1757h-409z" />
    <glyph glyph-name="zero" unicode="0" horiz-adv-x="1232" 
d="M616 -27q-290 0 -400.5 185t-51.5 559q59 373 228.5 558t459.5 185t402 -185t53 -558q-60 -374 -230.5 -559t-460.5 -185zM682 383q69 0 123 334q51 338 -17 338q-71 0 -122 -338q-54 -334 16 -334z" />
    <glyph glyph-name="one" unicode="1" horiz-adv-x="827" 
d="M299 956l-39 375l352 103h394l-240 -1434h-500l166 989z" />
    <glyph glyph-name="two" unicode="2" horiz-adv-x="1187" 
d="M55 0l35 203q16 92 63.5 174.5t111 143t136.5 115t142.5 99.5t126.5 87t92 88.5t35 93.5q0 23 -15 37t-39 14q-74 0 -114 -123l-422 102q160 426 622 426q212 0 349 -111.5t137 -275.5q0 -86 -31 -165t-81.5 -137.5t-111 -110t-122 -91t-113 -71.5t-85.5 -60.5t-38 -50.5
h484l-66 -387h-1096z" />
    <glyph glyph-name="three" unicode="3" horiz-adv-x="1159" 
d="M1309 1434l-60 -355l-233 -184q93 -36 149 -121t56 -215q0 -170 -88.5 -305t-236.5 -208t-327 -73q-106 0 -190 27t-135.5 68.5t-86.5 98t-49.5 109t-17.5 107.5l447 94q0 -43 24.5 -69.5t59.5 -26.5q44 0 73 27t29 71q0 35 -25 58.5t-69 23.5h-219l45 281l272 205h-463
l66 387h979z" />
    <glyph glyph-name="four" unicode="4" horiz-adv-x="1280" 
d="M72 291l49 295l674 848h559l-129 -770h141l-61 -373h-142l-49 -291h-496l50 291h-596zM571 664h158l45 268z" />
    <glyph glyph-name="five" unicode="5" horiz-adv-x="1165" 
d="M618 385q39 0 73 30t34 85q0 38 -21.5 62t-58.5 24q-58 0 -90 -56l-399 58l174 846h964l-63 -387h-539l-24 -113q62 20 137 20q186 0 308 -111.5t122 -291.5q0 -158 -91 -292t-242.5 -210t-326.5 -76q-105 0 -190.5 26.5t-139.5 68t-91.5 96.5t-54 108t-19.5 107l459 98
q-3 -49 20.5 -70.5t58.5 -21.5z" />
    <glyph glyph-name="six" unicode="6" horiz-adv-x="1204" 
d="M684 377q39 0 64.5 40.5t25.5 96.5q0 44 -18 72t-49 28q-41 0 -74 -22q-21 -100 -7.5 -157.5t58.5 -57.5zM948 1460q236 0 383 -102l-223 -359q-90 54 -197 54q-77 0 -124.5 -42t-63.5 -106q28 15 82 30t106 15q150 0 249.5 -94.5t99.5 -267.5q0 -130 -51.5 -245
t-138.5 -196t-207.5 -127.5t-254.5 -46.5q-250 0 -367.5 132t-117.5 370q0 80 10.5 164t37 182t66.5 187t106 173t149 145t200.5 97.5t255.5 36.5z" />
    <glyph glyph-name="seven" unicode="7" horiz-adv-x="1118" 
d="M254 1434h1089l-47 -285l-624 -1149h-533l584 1053h-533z" />
    <glyph glyph-name="eight" unicode="8" horiz-adv-x="1208" 
d="M600 -27q-236 0 -368 109.5t-132 296.5q0 118 55.5 219.5t145.5 165.5q-34 37 -54 94t-20 119q0 97 44 184.5t122.5 154t196.5 105.5t258 39q226 0 350.5 -105.5t124.5 -271.5q0 -98 -45 -180.5t-117 -138.5q45 -42 70.5 -110t25.5 -144q0 -236 -181 -386.5t-476 -150.5z
M786 1090q-38 0 -62 -36.5t-24 -84.5q0 -33 14 -51.5t40 -18.5q37 0 60.5 35.5t23.5 81.5q0 74 -52 74zM700 575q-49 0 -77.5 -44.5t-28.5 -94.5q0 -40 18 -64t50 -24q45 0 74.5 39.5t29.5 95.5q0 37 -16.5 64.5t-49.5 27.5z" />
    <glyph glyph-name="nine" unicode="9" horiz-adv-x="1204" 
d="M758 1057q-39 0 -64.5 -40.5t-25.5 -96.5q0 -44 18 -72.5t49 -28.5q39 0 74 23q21 100 7.5 157.5t-58.5 57.5zM494 -27q-235 0 -383 103l223 358q88 -53 196 -53q79 0 127 40t62 107q-28 -15 -82.5 -30t-106.5 -15q-150 0 -249 95t-99 268q0 174 87 315t236.5 220
t328.5 79q250 0 367.5 -132t117.5 -370q0 -80 -10.5 -164t-37 -182t-66.5 -187t-106 -173t-149 -145t-200.5 -97.5t-255.5 -36.5z" />
    <glyph glyph-name="colon" unicode=":" horiz-adv-x="546" 
d="M51 178q0 110 87 190.5t212 80.5q101 0 161 -58.5t60 -148.5q0 -108 -88 -188.5t-213 -80.5q-100 0 -159.5 58.5t-59.5 146.5zM156 823q0 110 87 190.5t212 80.5q101 0 161 -58.5t60 -148.5q0 -108 -87.5 -188.5t-211.5 -80.5q-100 0 -160.5 59t-60.5 146z" />
    <glyph glyph-name="semicolon" unicode=";" horiz-adv-x="546" 
d="M158 823q0 110 87 190.5t212 80.5q101 0 161 -58.5t60 -148.5q0 -108 -88 -188.5t-213 -80.5q-100 0 -159.5 58.5t-59.5 146.5zM51 178q0 110 87 190.5t212 80.5q99 0 159 -57.5t60 -158.5q0 -159 -113.5 -330t-305.5 -284l-148 205q51 28 103.5 74.5t78.5 87.5
q-65 25 -99 76.5t-34 115.5z" />
    <glyph glyph-name="less" unicode="&#x3c;" horiz-adv-x="1089" 
d="M156 498l45 274l1016 418l-66 -381l-504 -182l443 -183l-60 -362z" />
    <glyph glyph-name="equal" unicode="=" horiz-adv-x="1099" 
d="M133 668l55 329h1059l-55 -329h-1059zM63 254l56 330h1059l-56 -330h-1059z" />
    <glyph glyph-name="greater" unicode="&#x3e;" horiz-adv-x="1089" 
d="M1145 772l-45 -274l-1014 -416l66 383l503 182l-442 182l59 361z" />
    <glyph glyph-name="question" unicode="?" horiz-adv-x="1036" 
d="M328 477l16 92q12 70 55.5 134t96.5 109t104 84t85 75.5t34 68.5q0 23 -13.5 38.5t-39.5 15.5q-37 0 -70.5 -31.5t-54.5 -79.5l-336 158q23 43 50 81t75.5 84t105 78t140.5 54t180 22q199 0 321.5 -97.5t122.5 -258.5q0 -65 -21 -121.5t-54.5 -98t-74.5 -78t-83.5 -68
t-79 -61t-62.5 -63.5t-32 -69l-13 -68h-452zM248 178q0 110 87 190.5t212 80.5q102 0 162.5 -58.5t60.5 -148.5q0 -108 -88 -188.5t-213 -80.5q-100 0 -160.5 59t-60.5 146z" />
    <glyph glyph-name="at" unicode="@" horiz-adv-x="1916" 
d="M569 463q0 127 54 235t152.5 173t219.5 65q49 0 98 -17.5t72 -44.5l9 50h350l-76 -449q-13 -84 47 -84q56 0 103 81.5t47 223.5q0 193 -134 307.5t-362 114.5q-187 0 -344.5 -89t-249.5 -243.5t-92 -336.5q0 -219 141.5 -348.5t378.5 -129.5q239 0 436 86l58 -233
q-98 -56 -241 -88.5t-298 -32.5q-187 0 -339 51.5t-254.5 144.5t-158 223.5t-55.5 285.5q0 209 87 392.5t232.5 310.5t339.5 200t404 73q182 0 331 -51t247 -140t151 -207.5t53 -254.5q0 -172 -73 -311t-200.5 -217t-285.5 -78q-73 0 -134.5 33t-88.5 84q-40 -47 -122.5 -83
t-172.5 -36q-154 0 -242 94.5t-88 245.5zM950 504q0 -41 17.5 -67.5t46.5 -26.5q40 0 71 45t31 96q0 40 -16 68t-45 28q-42 0 -73.5 -42.5t-31.5 -100.5z" />
    <glyph glyph-name="A" unicode="A" horiz-adv-x="1523" 
d="M969 219h-336l-101 -219h-522l735 1434h512l256 -1434h-518zM942 584l-31 295l-131 -295h162z" />
    <glyph glyph-name="B" unicode="B" horiz-adv-x="1273" 
d="M61 0l240 1434h621q220 0 344.5 -96t124.5 -255q0 -210 -201 -333q62 -37 96.5 -108t34.5 -148q0 -149 -79 -262.5t-216 -172.5t-311 -59h-654zM711 891h90q43 0 69.5 28.5t26.5 63.5q0 28 -18 48t-52 20h-90zM625 385h90q46 0 80 33.5t34 77.5q0 35 -22.5 58.5
t-58.5 23.5h-91z" />
    <glyph glyph-name="C" unicode="C" horiz-adv-x="1312" 
d="M125 602q0 173 69.5 330.5t188.5 274t288.5 185t360.5 68.5q279 0 459 -141l-225 -410q-93 111 -250 111q-141 0 -241.5 -100.5t-100.5 -251.5q0 -116 67 -185t174 -69q153 0 297 112l84 -411q-221 -142 -512 -142q-299 0 -479 173t-180 456z" />
    <glyph glyph-name="D" unicode="D" horiz-adv-x="1390" 
d="M61 0l240 1434h512q321 0 507.5 -160t186.5 -440q0 -247 -120.5 -437.5t-332.5 -293.5t-481 -103h-512zM737 1024l-104 -614h31q140 0 224.5 100.5t84.5 282.5q0 115 -54 173t-151 58h-31z" />
    <glyph glyph-name="E" unicode="E" horiz-adv-x="1017" 
d="M61 0l240 1434h895l-68 -404h-376l-21 -119h336l-61 -379h-336l-23 -129h377l-68 -403h-895z" />
    <glyph glyph-name="F" unicode="F" horiz-adv-x="987" 
d="M61 0l240 1434h889l-68 -404h-370l-27 -166h336l-66 -383h-336l-79 -481h-519z" />
    <glyph glyph-name="G" unicode="G" horiz-adv-x="1529" 
d="M788 -27q-156 0 -282.5 47.5t-209.5 132t-127 199.5t-44 250q0 139 44.5 269t127.5 236t194 185.5t251 123.5t292 44q385 0 570 -233l-340 -312q-102 105 -246 105q-141 0 -242.5 -101.5t-101.5 -256.5q0 -116 64.5 -186t176.5 -70q111 0 185 38l8 56h-162l58 346h626
l-106 -637q-310 -236 -736 -236z" />
    <glyph glyph-name="H" unicode="H" horiz-adv-x="1466" 
d="M61 0l240 1434h520l-86 -516h303l86 516h521l-240 -1434h-520l86 514h-303l-86 -514h-521z" />
    <glyph glyph-name="I" unicode="I" horiz-adv-x="643" 
d="M61 0l240 1434h520l-239 -1434h-521z" />
    <glyph glyph-name="J" unicode="J" horiz-adv-x="858" 
d="M27 25l116 391q59 -15 109 -15q91 0 104 78l160 955h522l-174 -1035q-69 -411 -553 -411q-147 0 -284 37z" />
    <glyph glyph-name="K" unicode="K" horiz-adv-x="1431" 
d="M61 0l240 1434h520l-86 -521l332 521h567l-469 -684l244 -750h-578l-151 590l-98 -590h-521z" />
    <glyph glyph-name="L" unicode="L" horiz-adv-x="1001" 
d="M61 0l240 1434h520l-172 -1031h393l-67 -403h-914z" />
    <glyph glyph-name="M" unicode="M" horiz-adv-x="1875" 
d="M952 1434l90 -816l361 816h651l-239 -1434h-506l114 690l-237 -581h-459l-45 581l-115 -690h-506l240 1434h651z" />
    <glyph glyph-name="N" unicode="N" horiz-adv-x="1474" 
d="M61 0l240 1434h526l199 -674l113 674h514l-240 -1434h-526l-199 674l-113 -674h-514z" />
    <glyph glyph-name="O" unicode="O" horiz-adv-x="1617" 
d="M805 -27q-159 0 -288.5 48.5t-214.5 134t-131 200.5t-46 250q0 173 69 329.5t189.5 272t295 184t374.5 68.5q160 0 289.5 -48.5t214.5 -134t130.5 -200.5t45.5 -248q0 -174 -69 -331t-189.5 -273t-294.5 -184t-375 -68zM981 1032q-139 0 -224 -110.5t-85 -272.5
q0 -112 53 -180t152 -68q138 0 223.5 110.5t85.5 272.5q0 111 -53.5 179.5t-151.5 68.5z" />
    <glyph glyph-name="P" unicode="P" horiz-adv-x="1206" 
d="M61 0l240 1434h602q216 0 335.5 -113.5t119.5 -298.5q0 -161 -79.5 -291.5t-220 -205t-313.5 -74.5h-108l-76 -451h-500zM700 827h48q50 0 88 35t38 92q0 40 -23.5 65t-64.5 25h-51z" />
    <glyph glyph-name="Q" unicode="Q" horiz-adv-x="1624" 
d="M805 -27q-159 0 -288.5 48.5t-214.5 134t-131 200.5t-46 250q0 173 69 329.5t189.5 272t295 184t374.5 68.5q160 0 289.5 -48.5t214.5 -134t130.5 -200.5t45.5 -248q0 -249 -148 -464l101 -105l-345 -330l-127 129q-192 -86 -409 -86zM981 1032q-139 0 -224 -110.5
t-85 -272.5q0 -112 53 -180t152 -68q138 0 223.5 110.5t85.5 272.5q0 111 -53.5 179.5t-151.5 68.5z" />
    <glyph glyph-name="R" unicode="R" horiz-adv-x="1294" 
d="M61 0l240 1434h637q219 0 341 -112.5t122 -287.5q0 -143 -86 -257t-211 -177l227 -600h-563l-125 463l-78 -463h-504zM707 844h61q52 0 86.5 35t34.5 79q0 35 -23.5 60.5t-64.5 25.5h-62z" />
    <glyph glyph-name="S" unicode="S" horiz-adv-x="1181" 
d="M696 436q0 24 -26 46.5t-67 44t-91 46.5t-100.5 59t-91.5 75t-67 102.5t-26 134.5q0 149 80.5 267t222.5 183.5t318 65.5q94 0 175 -23.5t135 -60t94.5 -82.5t60.5 -89.5t26 -82.5l-399 -209q-15 52 -52 91.5t-83 39.5q-22 0 -35.5 -12t-13.5 -31q0 -28 35 -57t87 -53.5
t113.5 -62t113.5 -80t87 -110.5t35 -149q0 -228 -178 -372t-463 -144q-98 0 -180.5 25t-137 63.5t-95.5 90t-62.5 99t-30.5 95.5l403 201q30 -69 74.5 -110.5t91.5 -41.5t47 41z" />
    <glyph glyph-name="T" unicode="T" horiz-adv-x="1142" 
d="M311 0l172 1030h-280l67 404h1084l-68 -404h-282l-173 -1030h-520z" />
    <glyph glyph-name="U" unicode="U" horiz-adv-x="1445" 
d="M717 -27q-158 0 -276 43.5t-187 122t-94 186.5t-4 238l145 871h520l-147 -883q-12 -72 19 -111t95 -39q66 0 111 39t57 111l148 883h520l-145 -871q-44 -266 -245.5 -428t-516.5 -162z" />
    <glyph glyph-name="V" unicode="V" horiz-adv-x="1593" 
d="M1059 0h-524l-281 1434h563l86 -840l369 840h547z" />
    <glyph glyph-name="W" unicode="W" horiz-adv-x="2166" 
d="M1257 0l-49 752l-299 -752h-522l-133 1434h555l2 -789l307 789h410l45 -789l264 789h555l-612 -1434h-523z" />
    <glyph glyph-name="X" unicode="X" horiz-adv-x="1523" 
d="M967 0l-131 387l-250 -387h-574l570 719l-334 715h583l105 -351l215 351h600l-561 -715l326 -719h-549z" />
    <glyph glyph-name="Y" unicode="Y" horiz-adv-x="1449" 
d="M985 0h-520l102 612l-311 822h547l76 -408l211 408h583l-586 -822z" />
    <glyph glyph-name="Z" unicode="Z" horiz-adv-x="1277" 
d="M27 0l45 268l667 766h-524l66 400h1204l-45 -267l-672 -764h551l-68 -403h-1224z" />
    <glyph glyph-name="bracketleft" unicode="[" horiz-adv-x="700" 
d="M-29 -416l353 2110h622l-59 -359h-162l-233 -1392h161l-59 -359h-623z" />
    <glyph glyph-name="backslash" unicode="\" horiz-adv-x="997" 
d="M655 1536l320 -1757h-410l-319 1757h409z" />
    <glyph glyph-name="bracketright" unicode="]" horiz-adv-x="700" 
d="M942 1694l-352 -2110h-623l60 359h161l234 1392h-162l59 359h623z" />
    <glyph glyph-name="asciicircum" unicode="^" horiz-adv-x="1230" 
d="M870 643l-88 320l-194 -320h-438l518 791h376l252 -791h-426z" />
    <glyph glyph-name="underscore" unicode="_" horiz-adv-x="1296" 
d="M4 -45h1272l-53 -324h-1272z" />
    <glyph glyph-name="grave" unicode="`" horiz-adv-x="999" 
d="M920 1493l90 -319h-363l-201 319h474z" />
    <glyph glyph-name="a" unicode="a" horiz-adv-x="1138" 
d="M76 266q0 127 66.5 219.5t173.5 137.5t239 45q95 0 186 -41l9 41q6 36 -28 56.5t-101 20.5q-136 0 -283 -67l-113 299q118 66 258.5 103.5t280.5 37.5q96 0 171.5 -17.5t125.5 -48.5t85 -74.5t48.5 -96t17 -112.5t-9.5 -124l-108 -645h-400l-8 72q-120 -99 -280 -99
q-147 0 -238.5 74t-91.5 219zM535 352q0 -27 23 -43t58 -16q39 0 70 21t31 55q0 27 -22.5 43t-57.5 16q-41 0 -71.5 -21.5t-30.5 -54.5z" />
    <glyph glyph-name="b" unicode="b" horiz-adv-x="1310" 
d="M51 0l248 1479h467l-74 -445q42 32 115.5 57t144.5 25q205 0 315.5 -125t110.5 -332q0 -192 -73 -347t-214.5 -247t-328.5 -92q-82 0 -148.5 25.5t-105.5 64.5l-10 -63h-447zM592 502q0 -70 31.5 -114t91.5 -44q83 0 135.5 69t52.5 177q0 71 -32 115.5t-89 44.5
q-84 0 -137 -69t-53 -179z" />
    <glyph glyph-name="c" unicode="c" horiz-adv-x="1021" 
d="M111 465q0 137 58 259t155.5 208t229.5 136t277 50q96 0 184 -27.5t146 -72.5l-162 -350q-75 75 -178 75q-102 0 -171.5 -67.5t-69.5 -159.5q0 -73 47.5 -120.5t128.5 -47.5q120 0 207 80l47 -354q-167 -101 -359 -101q-239 0 -389.5 137.5t-150.5 354.5z" />
    <glyph glyph-name="d" unicode="d" horiz-adv-x="1300" 
d="M1497 1479l-248 -1479h-446l10 63q-121 -90 -283 -90q-205 0 -314.5 126t-109.5 335q0 192 73 346t214 245t328 91q71 0 137 -25t98 -57l74 445h467zM891 594q0 73 -32.5 114.5t-90.5 41.5q-81 0 -134.5 -72.5t-53.5 -177.5q0 -74 31 -115t89 -41q86 0 138.5 73.5
t52.5 176.5z" />
    <glyph glyph-name="e" unicode="e" horiz-adv-x="1214" 
d="M1260 438h-695q3 -51 45 -82.5t107 -31.5q116 0 201 77l286 -172q-30 -31 -52.5 -52.5t-80.5 -63.5t-115 -69t-144 -49t-179 -22q-125 0 -225 39t-164 107.5t-97.5 158t-33.5 193.5q0 130 53.5 249.5t144 206.5t217.5 139t267 52q239 0 369 -127.5t130 -339.5
q0 -49 -8.5 -102.5t-17.5 -82.5zM621 672h223q5 45 -21.5 75.5t-74.5 30.5q-45 0 -80 -30.5t-47 -75.5z" />
    <glyph glyph-name="f" unicode="f" horiz-adv-x="770" 
d="M127 0l125 750h-109l58 340h110q17 102 70 182t129.5 128t166 72.5t185.5 24.5q97 0 152 -14l-58 -344q-50 8 -84 8q-40 0 -68.5 -17t-31.5 -40h156l-58 -340h-151l-125 -750h-467z" />
    <glyph glyph-name="g" unicode="g" horiz-adv-x="1302" 
d="M119 -287l178 318q25 -12 63.5 -25t107.5 -27t130 -14q74 0 132 24.5t65 71.5l4 27q-110 -74 -260 -74q-193 0 -311.5 119.5t-118.5 323.5q0 139 49.5 262.5t133 210t196 136.5t235.5 50q83 0 149 -23.5t105 -62.5l10 60h447l-158 -938q-24 -142 -85.5 -248.5
t-153 -170.5t-202.5 -95t-243 -31q-120 0 -258 32t-215 74zM891 596q0 71 -32 112.5t-87 41.5q-83 0 -137.5 -71t-54.5 -173q0 -72 33 -113t94 -41q82 0 133 72.5t51 171.5z" />
    <glyph glyph-name="h" unicode="h" horiz-adv-x="1196" 
d="M963 1116q179 0 255.5 -112.5t43.5 -307.5l-117 -696h-467l108 643q7 46 -11 71t-54 25q-38 0 -63 -28t-31 -68l-109 -643h-467l248 1479h467l-82 -482q48 46 123.5 82.5t155.5 36.5z" />
    <glyph glyph-name="i" unicode="i" 
d="M51 0l182 1090h467l-182 -1090h-467zM471 1116q-102 0 -160.5 55.5t-58.5 141.5q0 110 84 187t213 77q102 0 160.5 -55.5t58.5 -143.5q0 -109 -84.5 -185.5t-212.5 -76.5z" />
    <glyph glyph-name="j" unicode="j" 
d="M55 27l178 1063h467l-180 -1076q-24 -146 -100.5 -238t-188.5 -130.5t-266 -38.5q-27 0 -70 5.5t-57 10.5l56 328q28 -4 59 -4q40 0 68 21t34 59zM471 1116q-102 0 -160.5 55.5t-58.5 141.5q0 110 84 187t213 77q101 0 159 -55.5t58 -143.5q0 -109 -84 -185.5t-211 -76.5
z" />
    <glyph glyph-name="k" unicode="k" horiz-adv-x="1245" 
d="M51 0l248 1479h467l-127 -762l240 373h512l-359 -521l195 -569h-514l-125 420l-70 -420h-467z" />
    <glyph glyph-name="l" unicode="l" 
d="M51 0l248 1479h467l-248 -1479h-467z" />
    <glyph glyph-name="m" unicode="m" horiz-adv-x="1759" 
d="M1825 696l-117 -696h-467l111 666q6 35 -9.5 54t-44.5 19q-27 0 -48 -19.5t-27 -53.5l-111 -666h-461l111 666q6 35 -10 54t-45 19q-26 0 -49 -19.5t-29 -53.5l-111 -666h-467l182 1090h447l-14 -84q53 46 129.5 78t148.5 32q171 0 240 -110q141 110 303 110
q78 0 141 -22t103.5 -60.5t67 -91.5t31 -115t-4.5 -131z" />
    <glyph glyph-name="n" unicode="n" horiz-adv-x="1187" 
d="M952 1116q177 0 255.5 -113t45.5 -307l-116 -696h-467l108 643q7 47 -9 71.5t-52 24.5q-37 0 -60 -27.5t-30 -68.5l-109 -643h-467l182 1090h447l-14 -91q49 48 125 82.5t161 34.5z" />
    <glyph glyph-name="o" unicode="o" horiz-adv-x="1286" 
d="M1358 631q0 -181 -94.5 -332t-260 -238.5t-366.5 -87.5q-242 0 -385 137.5t-143 352.5q0 136 55.5 257.5t151 208.5t229.5 138t284 51q242 0 385.5 -136t143.5 -351zM584 498q0 -71 29.5 -113.5t86.5 -42.5q82 0 133.5 73t51.5 179q0 72 -30.5 114t-86.5 42
q-82 0 -133 -72t-51 -180z" />
    <glyph glyph-name="p" unicode="p" horiz-adv-x="1300" 
d="M-12 -375l245 1465h447l-12 -64q53 40 127.5 65t156.5 25q205 0 314.5 -126t109.5 -335q0 -192 -73 -346t-214.5 -245t-328.5 -91q-70 0 -136 25t-98 57l-71 -430h-467zM590 496q0 -72 33 -114t90 -42q81 0 135.5 72.5t54.5 177.5q0 74 -31.5 114.5t-89.5 40.5
q-86 0 -139 -73.5t-53 -175.5z" />
    <glyph glyph-name="q" unicode="q" horiz-adv-x="1300" 
d="M1434 1090l-246 -1465h-467l72 430q-42 -32 -117 -57t-146 -25q-205 0 -314.5 124.5t-109.5 332.5q0 192 73.5 347t215 247t328.5 92q82 0 147 -25t105 -65l12 64h447zM891 588q0 70 -31.5 113.5t-91.5 43.5q-83 0 -134.5 -68.5t-51.5 -176.5q0 -72 30.5 -116t87.5 -44
q84 0 137.5 69t53.5 179z" />
    <glyph glyph-name="r" unicode="r" horiz-adv-x="817" 
d="M965 1116l-70 -422q-43 15 -80 15q-77 0 -136.5 -54t-74.5 -147l-86 -508h-467l182 1090h457l-20 -119q45 54 125.5 99.5t169.5 45.5z" />
    <glyph glyph-name="s" unicode="s" horiz-adv-x="1003" 
d="M55 160l232 264q46 -38 124.5 -71.5t127.5 -33.5t49 25q0 12 -14 20t-50 19q-55 17 -92 31t-89 42.5t-83.5 60t-54.5 82t-23 110.5q0 120 70.5 214t189.5 144.5t263 50.5q149 0 252 -50t165 -122l-262 -250q-34 35 -82 58.5t-94 23.5q-51 0 -51 -30q0 -14 21 -25t75 -27
q48 -15 82.5 -28t82 -39t77.5 -55.5t51.5 -77t21.5 -103.5q0 -201 -135 -310.5t-381 -109.5q-146 0 -277 57.5t-196 129.5z" />
    <glyph glyph-name="t" unicode="t" horiz-adv-x="825" 
d="M338 1090l39 227h454l-38 -227h170l-58 -340h-170l-53 -322q-7 -39 20.5 -55.5t69.5 -16.5l76 6l-62 -358q-76 -20 -182 -20q-226 0 -326.5 107.5t-64.5 324.5l55 334h-98l57 340h111z" />
    <glyph glyph-name="u" unicode="u" horiz-adv-x="1187" 
d="M434 -27q-186 0 -268.5 106t-50.5 298l118 713h467l-108 -644q-7 -47 9 -71.5t52 -24.5q37 0 60 27.5t30 68.5l109 644h467l-182 -1090h-447l15 84q-43 -43 -119 -77t-152 -34z" />
    <glyph glyph-name="v" unicode="v" horiz-adv-x="1275" 
d="M901 0h-520l-184 1090h487l35 -553l219 553h500z" />
    <glyph glyph-name="w" unicode="w" horiz-adv-x="1789" 
d="M983 0l-22 401l-152 -401h-504l-106 1090h508l-21 -537l184 537h414l4 -541l162 541h508l-473 -1090h-502z" />
    <glyph glyph-name="x" unicode="x" horiz-adv-x="1228" 
d="M752 0l-84 256l-170 -256h-502l432 553l-246 537h502l61 -244l144 244h522l-428 -537l250 -553h-481z" />
    <glyph glyph-name="y" unicode="y" horiz-adv-x="1277" 
d="M653 -367h-440l217 422l-233 1035h489l41 -515l223 515h496z" />
    <glyph glyph-name="z" unicode="z" horiz-adv-x="999" 
d="M29 0l41 240l430 499h-342l59 351h924l-41 -240l-436 -498h356l-59 -352h-932z" />
    <glyph glyph-name="braceleft" unicode="{" horiz-adv-x="870" 
d="M115 442l65 396q71 0 115 33.5t61 132.5l31 184q27 164 129 279.5t255 171t345 55.5l-59 -359q-96 0 -145 -37.5t-62 -109.5l-47 -277q-17 -101 -86 -172.5t-152 -99.5q74 -28 119.5 -99t28.5 -171l-47 -281q-11 -71 25 -108t132 -37l-59 -359q-293 0 -447 130.5
t-114 375.5l30 186q17 99 -15 132.5t-103 33.5z" />
    <glyph glyph-name="bar" unicode="|" horiz-adv-x="645" 
d="M8 -537l385 2302h447l-385 -2302h-447z" />
    <glyph glyph-name="braceright" unicode="}" horiz-adv-x="870" 
d="M969 838l-66 -396q-71 0 -115 -33.5t-61 -132.5l-31 -186q-27 -164 -129 -279.5t-255 -171t-345 -55.5l60 359q183 0 206 145l48 281q17 100 86 171t151 99q-74 28 -118 99.5t-27 172.5l45 277q12 72 -25 109.5t-133 37.5l59 359q293 0 447.5 -130.5t114.5 -375.5
l-31 -184q-10 -43 -5 -73t13 -48t27.5 -28t38 -13.5t45.5 -3.5z" />
    <glyph glyph-name="asciitilde" unicode="~" horiz-adv-x="1159" 
d="M537 844q62 0 150 -36t130 -36q30 0 53 19t29 55h377q-34 -206 -155 -328.5t-292 -122.5q-62 0 -150 36t-130 36q-30 0 -53 -19t-29 -55h-377q34 206 155 328.5t292 122.5z" />
    <glyph glyph-name="exclamdown" unicode="&#xa1;" horiz-adv-x="671" 
d="M227 887q0 107 88 187.5t211 80.5q102 0 163 -59t61 -146q0 -110 -88 -190t-216 -80q-99 0 -159 58.5t-60 148.5zM33 -305l194 956h435l-125 -956h-504z" />
    <glyph glyph-name="cent" unicode="&#xa2;" horiz-adv-x="1021" 
d="M133 608q0 240 164.5 418t413.5 223l30 185h303l-32 -193q103 -27 172 -80l-162 -350q-76 76 -178 76t-172 -68t-70 -160q0 -73 47.5 -120t128.5 -47q122 0 207 79l47 -354q-98 -60 -205 -82l-22 -135h-303l20 133q-178 40 -283.5 167.5t-105.5 307.5z" />
    <glyph glyph-name="sterling" unicode="&#xa3;" horiz-adv-x="1230" 
d="M141 555l54 315h94l22 134q35 204 193 330t399 126q91 0 166 -24t121.5 -60t80 -83.5t49 -89.5t21.5 -83l-419 -141q-11 90 -70 90q-27 0 -47.5 -20t-26.5 -56l-20 -123h291l-54 -315h-290l-31 -184h577l-61 -371h-1149l61 371h103l31 184h-95z" />
    <glyph glyph-name="yen" unicode="&#xa5;" horiz-adv-x="1449" 
d="M985 0h-520l45 276h-262l45 275h264l12 70h-264l47 274h111l-207 539h547l76 -408l211 408h583l-387 -539h117l-47 -274h-266l-13 -70h266l-45 -275h-268z" />
    <glyph glyph-name="section" unicode="&#xa7;" horiz-adv-x="1130" 
d="M586 502l110 -60q19 3 31 16t12 29q0 21 -20 37l-111 60q-19 -3 -31 -16t-12 -29t21 -37zM127 487q0 95 51.5 174t153.5 132q-47 46 -74 111.5t-27 135.5q0 198 159.5 329.5t412.5 131.5q96 0 178 -27t134 -67t90.5 -91t57 -95t23.5 -82l-407 -164q-38 143 -115 143
q-22 0 -37.5 -13.5t-15.5 -39.5q0 -40 65 -84l211 -141q189 -127 189 -301q0 -95 -52 -174t-155 -132q47 -46 73.5 -111t26.5 -136q0 -198 -159 -329.5t-412 -131.5q-96 0 -177.5 27t-134 67t-91 91t-57 95t-24.5 82l408 164q16 -60 45.5 -101.5t71.5 -41.5q21 0 37 13.5
t16 39.5q0 38 -68 84l-211 141q-186 125 -186 301z" />
    <glyph glyph-name="dieresis" unicode="&#xa8;" horiz-adv-x="999" 
d="M305 1313q0 83 62 143t161 60q78 0 121 -42.5t43 -107.5q0 -85 -61 -143t-162 -58q-79 0 -121.5 41t-42.5 107zM754 1313q0 83 62 143t161 60q78 0 121 -42.5t43 -107.5q0 -85 -61 -143t-162 -58q-79 0 -121.5 41t-42.5 107z" />
    <glyph glyph-name="copyright" unicode="&#xa9;" horiz-adv-x="1628" 
d="M154 608q0 175 71 333.5t191 273t286 182t349 67.5q146 0 270 -48.5t209.5 -134t133.5 -204t48 -254.5q0 -230 -121 -426.5t-327.5 -311t-448.5 -114.5q-147 0 -271.5 49t-209.5 134.5t-132.5 202.5t-47.5 251zM426 637q0 -191 113 -309.5t307 -118.5q167 0 304 78.5
t214.5 214t77.5 299.5q0 189 -114 307.5t-308 118.5q-167 0 -303.5 -78t-213.5 -213t-77 -299zM545 662q0 123 62.5 227t169 164.5t229.5 60.5q201 0 286 -168l-237 -155q-27 61 -86 61q-52 0 -89.5 -45.5t-37.5 -114.5q0 -47 22.5 -75.5t59.5 -28.5q61 0 106 61l187 -157
q-142 -166 -343 -166q-148 0 -238.5 95.5t-90.5 240.5z" />
    <glyph glyph-name="ordfeminine" unicode="&#xaa;" horiz-adv-x="864" 
d="M176 831q0 94 51 162t132 99.5t180 31.5q73 0 133 -26l4 24q5 27 -16.5 44.5t-67.5 17.5q-102 0 -213 -51l-88 221q77 50 186 80t215 30q98 0 169 -28t106 -76t48.5 -111.5t-1.5 -134.5l-80 -479h-299l-4 53q-90 -74 -209 -74q-109 0 -177.5 55t-68.5 162zM522 897
q0 -41 60 -41q26 0 46.5 13.5t20.5 39.5q0 19 -15.5 30t-37.5 11q-30 0 -52 -14t-22 -39z" />
    <glyph glyph-name="guillemotleft" unicode="&#xab;" horiz-adv-x="1210" 
d="M334 219l-162 387l293 387h387l-291 -387l160 -387h-387zM791 219l-162 387l293 387h387l-291 -387l160 -387h-387z" />
    <glyph glyph-name="registered" unicode="&#xae;" horiz-adv-x="944" 
d="M629 1016h-29l-25 -142h-143l76 443h209q66 0 104.5 -34t38.5 -89q0 -58 -26.5 -97t-67.5 -55l53 -168h-149zM678 1200h-47l-13 -74h48q18 0 30.5 11.5t12.5 31.5q0 13 -8.5 22t-22.5 9zM203 1024q0 134 66 248t182.5 181t257.5 67q181 0 288 -102t107 -261
q0 -134 -65 -248t-183.5 -182t-265.5 -68q-176 0 -281.5 102.5t-105.5 262.5zM338 1040q0 -115 70 -187.5t192 -72.5q163 0 266 104t103 259q0 115 -71.5 184.5t-199.5 69.5q-154 0 -257 -102.5t-103 -254.5z" />
    <glyph glyph-name="macron" unicode="&#xaf;" horiz-adv-x="919" 
d="M322 1186l49 299h673l-49 -299h-673z" />
    <glyph glyph-name="degree" unicode="&#xb0;" horiz-adv-x="833" 
d="M989 1133q0 -109 -59 -203t-163.5 -150.5t-229.5 -56.5q-152 0 -242 88.5t-90 222.5q0 109 59 203t163.5 150.5t229.5 56.5q152 0 242 -88.5t90 -222.5zM539 1067q0 -61 45 -61q33 0 52 28.5t19 65.5q0 61 -45 61q-33 0 -52 -28.5t-19 -65.5z" />
    <glyph glyph-name="twosuperior" unicode="&#xb2;" horiz-adv-x="788" 
d="M143 614l21 111q9 50 38 96.5t67.5 81t83 66t87.5 56.5t78 48t56.5 45.5t21.5 42.5q0 13 -8.5 22t-24.5 9q-55 0 -84 -82l-256 76q13 32 32.5 64t55 69.5t79 65t107.5 46.5t138 19q133 0 226 -62.5t93 -164.5q0 -55 -24 -103.5t-60 -81.5t-78.5 -63t-79 -49.5t-62.5 -39
t-29 -34.5h280l-39 -238h-719z" />
    <glyph glyph-name="threesuperior" unicode="&#xb3;" horiz-adv-x="778" 
d="M504 956h-121l25 150l116 90h-254l39 238h647l-32 -191l-166 -127q67 -21 104 -75t37 -123q0 -102 -58 -176.5t-149 -109t-203 -34.5q-88 0 -152.5 24.5t-99 65t-50 83.5t-15.5 89l256 47q4 -24 22.5 -37.5t45.5 -13.5t46 16t19 39q0 17 -14 31t-43 14z" />
    <glyph glyph-name="acute" unicode="&#xb4;" horiz-adv-x="999" 
d="M383 1174l197 319h483l-297 -319h-383z" />
    <glyph glyph-name="paragraph" unicode="&#xb6;" horiz-adv-x="1216" 
d="M395 -92l123 735q-146 10 -231.5 103.5t-85.5 234.5q0 126 67.5 230.5t181.5 163.5t250 59h320l-254 -1526h-371zM793 -92l254 1526h372l-254 -1526h-372z" />
    <glyph glyph-name="periodcentered" unicode="&#xb7;" horiz-adv-x="548" 
d="M123 608q0 110 87 190.5t212 80.5q101 0 161 -58.5t60 -148.5q0 -108 -88 -188.5t-213 -80.5q-100 0 -159.5 58.5t-59.5 146.5z" />
    <glyph glyph-name="cedilla" unicode="&#xb8;" horiz-adv-x="919" 
d="M315 63h269l-45 -131q61 -12 96 -54.5t35 -102.5q0 -119 -94 -193t-252 -74q-95 0 -193 43l84 197q32 -14 72 -14q26 0 42.5 12t16.5 31q0 15 -14.5 25t-40.5 10q-16 0 -31.5 -3t-23.5 -5l-7 -3z" />
    <glyph glyph-name="onesuperior" unicode="&#xb9;" horiz-adv-x="657" 
d="M319 1096l-30 268l233 70h287l-137 -820h-355l84 506z" />
    <glyph glyph-name="ordmasculine" unicode="&#xba;" horiz-adv-x="997" 
d="M1143 1098q0 -133 -72 -244.5t-197 -175.5t-274 -64q-179 0 -288 103t-109 262q0 134 72 245.5t196.5 175.5t271.5 64q181 0 290.5 -103t109.5 -263zM553 1008q0 -53 26 -87t68 -34q61 0 103.5 52.5t42.5 129.5q0 55 -26 89t-69 34q-60 0 -102.5 -53t-42.5 -131z" />
    <glyph glyph-name="guillemotright" unicode="&#xbb;" horiz-adv-x="1210" 
d="M1243 606l-293 -387h-387l291 387l-162 387h387zM786 606l-292 -387h-388l291 387l-161 387h387z" />
    <glyph glyph-name="onequarter" unicode="&#xbc;" horiz-adv-x="1816" 
d="M1350 0l20 127h-373l37 221l422 471h373l-76 -454h88l-39 -238h-88l-20 -127h-344zM1436 524l-142 -159h115zM674 -84h-406l1022 1602h408zM289 1096l-31 268l234 70h286l-137 -820h-354l84 506z" />
    <glyph glyph-name="onehalf" unicode="&#xbd;" horiz-adv-x="1845" 
d="M653 -84h-405l1022 1602h407zM289 1096l-31 268l234 70h286l-137 -820h-354l84 506zM1063 0l20 111q11 58 48 111t84.5 89.5t101 72t97.5 60.5t73 52t29 51q0 13 -8.5 22t-24.5 9q-55 0 -84 -82l-256 75q13 32 32.5 64t55 69.5t78.5 65.5t107 47t138 19q133 0 226.5 -63
t93.5 -165q0 -65 -33 -120.5t-81.5 -92t-96.5 -65t-84 -52t-39 -40.5h281l-39 -238h-719z" />
    <glyph glyph-name="threequarters" unicode="&#xbe;" horiz-adv-x="1892" 
d="M504 956h-121l25 150l116 90h-254l39 238h647l-32 -191l-166 -127q67 -21 104 -75t37 -123q0 -102 -58 -176.5t-149 -109t-203 -34.5q-88 0 -152.5 24.5t-99 65t-50 83.5t-15.5 89l256 47q4 -24 22.5 -37.5t45.5 -13.5t46 16t19 39q0 17 -14 31t-43 14zM1427 0l21 127
h-373l37 221l424 471h373l-76 -454h88l-41 -238h-88l-20 -127h-345zM1516 524l-142 -159h115zM752 -84h-406l1022 1602h408z" />
    <glyph glyph-name="questiondown" unicode="&#xbf;" horiz-adv-x="1036" 
d="M895 655l-16 -92q-12 -70 -55.5 -134t-96.5 -109t-104 -84t-85 -75.5t-34 -68.5q0 -23 13.5 -38t39.5 -15q37 0 70.5 31.5t54.5 79.5l336 -158q-172 -320 -551 -320q-199 0 -321.5 98t-122.5 259q0 65 21 121.5t54.5 98t74.5 78t83.5 68t79 61t62.5 63.5t32 69l12 67h453
zM975 954q0 -110 -87 -190t-212 -80q-102 0 -162.5 58.5t-60.5 148.5q0 108 87.5 188t213.5 80q100 0 160.5 -59t60.5 -146z" />
    <glyph glyph-name="Agrave" unicode="&#xc0;" horiz-adv-x="1523" 
d="M969 219h-336l-101 -219h-522l735 1434h512l256 -1434h-518zM942 584l-31 295l-131 -295h162zM1163 1837l90 -319h-362l-201 319h473z" />
    <glyph glyph-name="Aacute" unicode="&#xc1;" horiz-adv-x="1523" 
d="M969 219h-336l-101 -219h-522l735 1434h512l256 -1434h-518zM942 584l-31 295l-131 -295h162zM770 1518l197 319h483l-297 -319h-383z" />
    <glyph glyph-name="Acircumflex" unicode="&#xc2;" horiz-adv-x="1523" 
d="M969 219h-336l-101 -219h-522l735 1434h512l256 -1434h-518zM942 584l-31 295l-131 -295h162zM1065 1518l-35 79l-63 -79h-392l271 319h446l164 -319h-391z" />
    <glyph glyph-name="Atilde" unicode="&#xc3;" horiz-adv-x="1523" 
d="M969 219h-336l-101 -219h-522l735 1434h512l256 -1434h-518zM942 584l-31 295l-131 -295h162zM1169 1507q-52 0 -122.5 30t-96.5 30q-24 0 -41.5 -16.5t-21.5 -45.5h-309q27 161 116.5 255.5t223.5 94.5q52 0 122.5 -29.5t96.5 -29.5q24 0 41.5 16.5t21.5 45.5h309
q-27 -161 -116.5 -256t-223.5 -95z" />
    <glyph glyph-name="Adieresis" unicode="&#xc4;" horiz-adv-x="1523" 
d="M969 219h-336l-101 -219h-522l735 1434h512l256 -1434h-518zM942 584l-31 295l-131 -295h162zM627 1657q0 83 62 143t161 60q78 0 121 -42.5t43 -107.5q0 -85 -61 -143t-162 -58q-79 0 -121.5 41t-42.5 107zM1075 1657q0 83 62 143t161 60q78 0 121 -42.5t43 -107.5
q0 -85 -61 -143t-162 -58q-79 0 -121.5 41t-42.5 107z" />
    <glyph glyph-name="Aring" unicode="&#xc5;" horiz-adv-x="1523" 
d="M969 219h-336l-101 -219h-522l735 1434h512l256 -1434h-518zM942 584l-31 295l-131 -295h162zM788 1698q0 109 91.5 182.5t212.5 73.5q99 0 163 -55t64 -142q0 -110 -90 -183t-213 -73q-98 0 -163 55t-65 142zM987 1716q0 -26 14.5 -42.5t40.5 -16.5q34 0 58 24t24 58
q0 25 -15.5 42t-41.5 17q-32 0 -56 -24t-24 -58z" />
    <glyph glyph-name="AE" unicode="&#xc6;" horiz-adv-x="1880" 
d="M924 0l37 219h-312l-141 -219h-535l1022 1434h1063l-67 -404h-377l-21 -119h336l-61 -379h-336l-23 -129h377l-67 -403h-895zM1075 905l-209 -321h156z" />
    <glyph glyph-name="Ccedilla" unicode="&#xc7;" horiz-adv-x="1312" 
d="M125 602q0 173 69.5 330.5t188.5 274t288.5 185t360.5 68.5q279 0 459 -141l-225 -410q-93 111 -250 111q-141 0 -241.5 -100.5t-100.5 -251.5q0 -116 67 -185t174 -69q153 0 297 112l84 -411q-210 -134 -475 -142l-14 -41q61 -12 96 -54.5t35 -102.5q0 -119 -94 -193
t-252 -74q-95 0 -193 43l84 197q32 -14 72 -14q26 0 42.5 12t16.5 31q0 15 -14.5 25t-40.5 10q-16 0 -31 -3t-22 -5l-8 -3l65 201q-205 57 -321.5 215.5t-116.5 384.5z" />
    <glyph glyph-name="Egrave" unicode="&#xc8;" horiz-adv-x="1017" 
d="M61 0l240 1434h895l-68 -404h-376l-21 -119h336l-61 -379h-336l-23 -129h377l-68 -403h-895zM930 1837l90 -319h-363l-200 319h473z" />
    <glyph glyph-name="Eacute" unicode="&#xc9;" horiz-adv-x="1017" 
d="M61 0l240 1434h895l-68 -404h-376l-21 -119h336l-61 -379h-336l-23 -129h377l-68 -403h-895zM524 1487l197 319h483l-297 -319h-383z" />
    <glyph glyph-name="Ecircumflex" unicode="&#xca;" horiz-adv-x="1017" 
d="M61 0l240 1434h895l-68 -404h-376l-21 -119h336l-61 -379h-336l-23 -129h377l-68 -403h-895zM811 1518l-35 79l-63 -79h-391l270 319h446l164 -319h-391z" />
    <glyph glyph-name="Edieresis" unicode="&#xcb;" horiz-adv-x="1017" 
d="M61 0l240 1434h895l-68 -404h-376l-21 -119h336l-61 -379h-336l-23 -129h377l-68 -403h-895zM373 1657q0 83 62 143t161 60q78 0 121 -42.5t43 -107.5q0 -85 -61 -143t-162 -58q-79 0 -121.5 41t-42.5 107zM821 1657q0 83 62 143t161 60q78 0 121 -42.5t43 -107.5
q0 -85 -61 -143t-162 -58q-79 0 -121.5 41t-42.5 107z" />
    <glyph glyph-name="Igrave" unicode="&#xcc;" horiz-adv-x="643" 
d="M61 0l240 1434h520l-239 -1434h-521zM752 1837l90 -319h-363l-200 319h473z" />
    <glyph glyph-name="Iacute" unicode="&#xcd;" horiz-adv-x="643" 
d="M61 0l240 1434h520l-239 -1434h-521zM338 1518l197 319h483l-297 -319h-383z" />
    <glyph glyph-name="Icircumflex" unicode="&#xce;" horiz-adv-x="643" 
d="M61 0l240 1434h520l-239 -1434h-521zM625 1518l-35 79l-64 -79h-391l271 319h446l164 -319h-391z" />
    <glyph glyph-name="Idieresis" unicode="&#xcf;" horiz-adv-x="643" 
d="M61 0l240 1434h520l-239 -1434h-521zM193 1657q0 83 62 143t161 60q78 0 121 -42.5t43 -107.5q0 -85 -61.5 -143t-162.5 -58q-79 0 -121 41t-42 107zM641 1657q0 83 62 143t161 60q78 0 121 -42.5t43 -107.5q0 -85 -61 -143t-162 -58q-79 0 -121.5 41t-42.5 107z" />
    <glyph glyph-name="Eth" unicode="&#xd0;" horiz-adv-x="1478" 
d="M152 539l59 358h88l90 537h512q321 0 507.5 -160t186.5 -440q0 -247 -120 -437.5t-332 -293.5t-481 -103h-512l90 539h-88zM825 1024l-22 -127h125l-60 -358h-125l-22 -129h31q140 0 224.5 100.5t84.5 282.5q0 114 -54.5 172.5t-150.5 58.5h-31z" />
    <glyph glyph-name="Ntilde" unicode="&#xd1;" horiz-adv-x="1474" 
d="M61 0l240 1434h526l199 -674l113 674h514l-240 -1434h-526l-199 674l-113 -674h-514zM1171 1485q-52 0 -122.5 29.5t-96.5 29.5q-24 0 -41.5 -16t-21.5 -45h-309q27 161 116.5 255.5t223.5 94.5q52 0 122.5 -29.5t96.5 -29.5q24 0 41.5 16t21.5 45h309
q-27 -161 -116.5 -255.5t-223.5 -94.5z" />
    <glyph glyph-name="Ograve" unicode="&#xd2;" horiz-adv-x="1617" 
d="M805 -27q-159 0 -288.5 48.5t-214.5 134t-131 200.5t-46 250q0 173 69 329.5t189.5 272t295 184t374.5 68.5q160 0 289.5 -48.5t214.5 -134t130.5 -200.5t45.5 -248q0 -174 -69 -331t-189.5 -273t-294.5 -184t-375 -68zM981 1032q-139 0 -224 -110.5t-85 -272.5
q0 -112 53 -180t152 -68q138 0 223.5 110.5t85.5 272.5q0 111 -53.5 179.5t-151.5 68.5zM1217 1837l90 -319h-363l-201 319h474z" />
    <glyph glyph-name="Oacute" unicode="&#xd3;" horiz-adv-x="1617" 
d="M805 -27q-159 0 -288.5 48.5t-214.5 134t-131 200.5t-46 250q0 173 69 329.5t189.5 272t295 184t374.5 68.5q160 0 289.5 -48.5t214.5 -134t130.5 -200.5t45.5 -248q0 -174 -69 -331t-189.5 -273t-294.5 -184t-375 -68zM981 1032q-139 0 -224 -110.5t-85 -272.5
q0 -112 53 -180t152 -68q138 0 223.5 110.5t85.5 272.5q0 111 -53.5 179.5t-151.5 68.5zM852 1518l197 319h483l-297 -319h-383z" />
    <glyph glyph-name="Ocircumflex" unicode="&#xd4;" horiz-adv-x="1617" 
d="M805 -27q-159 0 -288.5 48.5t-214.5 134t-131 200.5t-46 250q0 173 69 329.5t189.5 272t295 184t374.5 68.5q160 0 289.5 -48.5t214.5 -134t130.5 -200.5t45.5 -248q0 -174 -69 -331t-189.5 -273t-294.5 -184t-375 -68zM981 1032q-139 0 -224 -110.5t-85 -272.5
q0 -112 53 -180t152 -68q138 0 223.5 110.5t85.5 272.5q0 111 -53.5 179.5t-151.5 68.5zM1124 1518l-34 79l-64 -79h-391l270 319h447l164 -319h-392z" />
    <glyph glyph-name="Otilde" unicode="&#xd5;" horiz-adv-x="1617" 
d="M805 -27q-159 0 -288.5 48.5t-214.5 134t-131 200.5t-46 250q0 173 69 329.5t189.5 272t295 184t374.5 68.5q160 0 289.5 -48.5t214.5 -134t130.5 -200.5t45.5 -248q0 -174 -69 -331t-189.5 -273t-294.5 -184t-375 -68zM981 1032q-139 0 -224 -110.5t-85 -272.5
q0 -112 53 -180t152 -68q138 0 223.5 110.5t85.5 272.5q0 111 -53.5 179.5t-151.5 68.5zM1214 1507q-52 0 -122.5 30t-96.5 30q-24 0 -41.5 -16.5t-21.5 -45.5h-309q27 161 116.5 255.5t223.5 94.5q52 0 122.5 -29.5t96.5 -29.5q24 0 41.5 16.5t21.5 45.5h309
q-27 -161 -116.5 -256t-223.5 -95z" />
    <glyph glyph-name="Odieresis" unicode="&#xd6;" horiz-adv-x="1617" 
d="M805 -27q-159 0 -288.5 48.5t-214.5 134t-131 200.5t-46 250q0 173 69 329.5t189.5 272t295 184t374.5 68.5q160 0 289.5 -48.5t214.5 -134t130.5 -200.5t45.5 -248q0 -174 -69 -331t-189.5 -273t-294.5 -184t-375 -68zM981 1032q-139 0 -224 -110.5t-85 -272.5
q0 -112 53 -180t152 -68q138 0 223.5 110.5t85.5 272.5q0 111 -53.5 179.5t-151.5 68.5zM672 1640q0 83 62 143t161 60q79 0 121.5 -42t42.5 -107q0 -85 -61 -143t-162 -58q-79 0 -121.5 40.5t-42.5 106.5zM1120 1640q0 83 62 143t161 60q79 0 121.5 -42t42.5 -107
q0 -85 -61 -143t-162 -58q-79 0 -121.5 40.5t-42.5 106.5z" />
    <glyph glyph-name="multiply" unicode="&#xd7;" horiz-adv-x="1110" 
d="M705 889l315 278l229 -262l-325 -280l219 -271l-301 -252l-211 269l-318 -279l-227 262l326 281l-232 280l299 252z" />
    <glyph glyph-name="Oslash" unicode="&#xd8;" horiz-adv-x="1617" 
d="M805 -27q-189 0 -342 70l-121 -121l-205 195l105 106q-117 163 -117 383q0 173 69 329.5t189.5 272t295 184t374.5 68.5q192 0 340 -71l120 122l207 -194l-106 -107q119 -162 119 -381q0 -174 -69 -331t-189.5 -273t-294.5 -184t-375 -68zM877 401q135 0 220.5 107
t88.5 266l-365 -366q28 -7 56 -7zM981 1032q-137 0 -222 -108.5t-87 -266.5l362 369q-24 6 -53 6z" />
    <glyph glyph-name="Ugrave" unicode="&#xd9;" horiz-adv-x="1445" 
d="M717 -27q-158 0 -276 43.5t-187 122t-94 186.5t-4 238l145 871h520l-147 -883q-12 -72 19 -111t95 -39q66 0 111 39t57 111l148 883h520l-145 -871q-44 -266 -245.5 -428t-516.5 -162zM1130 1837l91 -319h-363l-201 319h473z" />
    <glyph glyph-name="Uacute" unicode="&#xda;" horiz-adv-x="1445" 
d="M717 -27q-158 0 -276 43.5t-187 122t-94 186.5t-4 238l145 871h520l-147 -883q-12 -72 19 -111t95 -39q66 0 111 39t57 111l148 883h520l-145 -871q-44 -266 -245.5 -428t-516.5 -162zM733 1518l197 319h483l-297 -319h-383z" />
    <glyph glyph-name="Ucircumflex" unicode="&#xdb;" horiz-adv-x="1445" 
d="M717 -27q-158 0 -276 43.5t-187 122t-94 186.5t-4 238l145 871h520l-147 -883q-12 -72 19 -111t95 -39q66 0 111 39t57 111l148 883h520l-145 -871q-44 -266 -245.5 -428t-516.5 -162zM1028 1518l-35 79l-63 -79h-391l270 319h446l164 -319h-391z" />
    <glyph glyph-name="Udieresis" unicode="&#xdc;" horiz-adv-x="1445" 
d="M717 -27q-158 0 -276 43.5t-187 122t-94 186.5t-4 238l145 871h520l-147 -883q-12 -72 19 -111t95 -39q66 0 111 39t57 111l148 883h520l-145 -871q-44 -266 -245.5 -428t-516.5 -162zM594 1640q0 83 62 143t161 60q79 0 121.5 -42t42.5 -107q0 -85 -61 -143t-162 -58
q-79 0 -121.5 40.5t-42.5 106.5zM1042 1640q0 83 62.5 143t161.5 60q79 0 121.5 -42t42.5 -107q0 -85 -61.5 -143t-162.5 -58q-79 0 -121.5 40.5t-42.5 106.5z" />
    <glyph glyph-name="Yacute" unicode="&#xdd;" horiz-adv-x="1449" 
d="M985 0h-520l102 612l-311 822h547l76 -408l211 408h583l-586 -822zM750 1487l196 319h484l-297 -319h-383z" />
    <glyph glyph-name="Thorn" unicode="&#xde;" horiz-adv-x="1206" 
d="M61 0l240 1434h520l-37 -222h82q214 0 334.5 -116t120.5 -295q0 -161 -79.5 -291t-219.5 -203.5t-313 -73.5h-86l-39 -233h-523zM688 625h35q42 0 76.5 33.5t34.5 82.5q0 35 -22 58.5t-52 23.5h-39z" />
    <glyph glyph-name="germandbls" unicode="&#xdf;" horiz-adv-x="1218" 
d="M682 682l53 326q54 0 80.5 24.5t26.5 61.5q0 24 -17 39.5t-47 15.5q-35 0 -55 -21t-25 -49l-180 -1079h-467l185 1104q14 85 53 153t93 112t124 73.5t142.5 42t152.5 12.5q225 0 356 -91.5t131 -240.5q0 -183 -162 -278q69 -47 113.5 -127.5t44.5 -186.5
q0 -120 -43.5 -222t-129 -181.5t-225 -124.5t-319.5 -45l58 342q80 0 133 59.5t53 137.5q0 59 -34 101t-95 42z" />
    <glyph glyph-name="agrave" unicode="&#xe0;" horiz-adv-x="1138" 
d="M76 266q0 127 66.5 219.5t173.5 137.5t239 45q95 0 186 -41l9 41q6 36 -28 56.5t-101 20.5q-136 0 -283 -67l-113 299q118 66 258.5 103.5t280.5 37.5q96 0 171.5 -17.5t125.5 -48.5t85 -74.5t48.5 -96t17 -112.5t-9.5 -124l-108 -645h-400l-8 72q-120 -99 -280 -99
q-147 0 -238.5 74t-91.5 219zM535 352q0 -27 23 -43t58 -16q39 0 70 21t31 55q0 27 -22.5 43t-57.5 16q-41 0 -71.5 -21.5t-30.5 -54.5zM926 1493l90 -319h-363l-200 319h473z" />
    <glyph glyph-name="aacute" unicode="&#xe1;" horiz-adv-x="1138" 
d="M76 266q0 127 66.5 219.5t173.5 137.5t239 45q95 0 186 -41l9 41q6 36 -28 56.5t-101 20.5q-136 0 -283 -67l-113 299q118 66 258.5 103.5t280.5 37.5q96 0 171.5 -17.5t125.5 -48.5t85 -74.5t48.5 -96t17 -112.5t-9.5 -124l-108 -645h-400l-8 72q-120 -99 -280 -99
q-147 0 -238.5 74t-91.5 219zM535 352q0 -27 23 -43t58 -16q39 0 70 21t31 55q0 27 -22.5 43t-57.5 16q-41 0 -71.5 -21.5t-30.5 -54.5zM535 1174l196 319h483l-296 -319h-383z" />
    <glyph glyph-name="acircumflex" unicode="&#xe2;" horiz-adv-x="1138" 
d="M76 266q0 127 66.5 219.5t173.5 137.5t239 45q95 0 186 -41l9 41q6 36 -28 56.5t-101 20.5q-136 0 -283 -67l-113 299q118 66 258.5 103.5t280.5 37.5q96 0 171.5 -17.5t125.5 -48.5t85 -74.5t48.5 -96t17 -112.5t-9.5 -124l-108 -645h-400l-8 72q-120 -99 -280 -99
q-147 0 -238.5 74t-91.5 219zM535 352q0 -27 23 -43t58 -16q39 0 70 21t31 55q0 27 -22.5 43t-57.5 16q-41 0 -71.5 -21.5t-30.5 -54.5zM829 1174l-34 79l-64 -79h-391l270 319h447l164 -319h-392z" />
    <glyph glyph-name="atilde" unicode="&#xe3;" horiz-adv-x="1138" 
d="M76 266q0 127 66.5 219.5t173.5 137.5t239 45q95 0 186 -41l9 41q6 36 -28 56.5t-101 20.5q-136 0 -283 -67l-113 299q118 66 258.5 103.5t280.5 37.5q96 0 171.5 -17.5t125.5 -48.5t85 -74.5t48.5 -96t17 -112.5t-9.5 -124l-108 -645h-400l-8 72q-120 -99 -280 -99
q-147 0 -238.5 74t-91.5 219zM535 352q0 -27 23 -43t58 -16q39 0 70 21t31 55q0 27 -22.5 43t-57.5 16q-41 0 -71.5 -21.5t-30.5 -54.5zM922 1163q-52 0 -123 30t-97 30q-24 0 -41.5 -16.5t-21.5 -45.5h-309q27 161 116.5 255.5t223.5 94.5q52 0 122.5 -29.5t96.5 -29.5
q24 0 41.5 16t21.5 45h310q-27 -161 -116.5 -255.5t-223.5 -94.5z" />
    <glyph glyph-name="adieresis" unicode="&#xe4;" horiz-adv-x="1138" 
d="M76 266q0 127 66.5 219.5t173.5 137.5t239 45q95 0 186 -41l9 41q6 36 -28 56.5t-101 20.5q-136 0 -283 -67l-113 299q118 66 258.5 103.5t280.5 37.5q96 0 171.5 -17.5t125.5 -48.5t85 -74.5t48.5 -96t17 -112.5t-9.5 -124l-108 -645h-400l-8 72q-120 -99 -280 -99
q-147 0 -238.5 74t-91.5 219zM535 352q0 -27 23 -43t58 -16q39 0 70 21t31 55q0 27 -22.5 43t-57.5 16q-41 0 -71.5 -21.5t-30.5 -54.5zM385 1313q0 83 62 143t161 60q78 0 121 -42.5t43 -107.5q0 -85 -61 -143t-162 -58q-79 0 -121.5 41t-42.5 107zM834 1313q0 83 62 143
t161 60q78 0 121 -42.5t43 -107.5q0 -85 -61.5 -143t-162.5 -58q-79 0 -121 41t-42 107z" />
    <glyph glyph-name="aring" unicode="&#xe5;" horiz-adv-x="1138" 
d="M76 266q0 127 66.5 219.5t173.5 137.5t239 45q95 0 186 -41l9 41q6 36 -28 56.5t-101 20.5q-136 0 -283 -67l-113 299q118 66 258.5 103.5t280.5 37.5q96 0 171.5 -17.5t125.5 -48.5t85 -74.5t48.5 -96t17 -112.5t-9.5 -124l-108 -645h-400l-8 72q-120 -99 -280 -99
q-147 0 -238.5 74t-91.5 219zM535 352q0 -27 23 -43t58 -16q39 0 70 21t31 55q0 27 -22.5 43t-57.5 16q-41 0 -71.5 -21.5t-30.5 -54.5zM561 1354q0 109 91 182.5t212 73.5q99 0 163.5 -55t64.5 -142q0 -110 -90.5 -183t-213.5 -73q-98 0 -162.5 55t-64.5 142zM760 1372
q0 -26 14.5 -42.5t40.5 -16.5q34 0 58 24t24 58q0 25 -15.5 42t-41.5 17q-32 0 -56 -24t-24 -58z" />
    <glyph glyph-name="ae" unicode="&#xe6;" horiz-adv-x="1818" 
d="M424 -27q-96 0 -172.5 30t-126 98t-49.5 165q0 127 66.5 219.5t173.5 137.5t239 45q95 0 186 -41l9 41q6 36 -28 56.5t-101 20.5q-136 0 -283 -67l-113 299q118 66 258.5 103.5t280.5 37.5q107 0 188.5 -26.5t126.5 -71.5q63 44 156 71t182 27q227 0 354 -128t127 -339
q0 -45 -8.5 -98.5t-17.5 -84.5l-8 -30h-695q3 -50 46.5 -81t107.5 -31q59 0 112.5 21.5t86.5 53.5l286 -172q-18 -26 -60.5 -64t-112 -83.5t-171 -77t-209.5 -31.5q-282 0 -413 181q-162 -181 -418 -181zM535 352q0 -27 23 -43t58 -16q39 0 70 21t31 55q0 27 -22.5 43
t-57.5 16q-41 0 -71.5 -21.5t-30.5 -54.5zM1225 672h223q5 45 -21.5 75.5t-74.5 30.5q-45 0 -80 -30.5t-47 -75.5z" />
    <glyph glyph-name="ccedilla" unicode="&#xe7;" horiz-adv-x="1021" 
d="M111 465q0 137 58 259t155.5 208t229.5 136t277 50q96 0 184 -27.5t146 -72.5l-162 -350q-75 75 -178 75q-102 0 -171.5 -67.5t-69.5 -159.5q0 -73 47.5 -120.5t128.5 -47.5q120 0 207 80l47 -354q-153 -91 -318 -99l-14 -43q61 -12 96 -54.5t35 -102.5q0 -119 -94 -193
t-252 -74q-95 0 -193 43l84 197q32 -14 72 -14q26 0 42.5 12t16.5 31q0 15 -14.5 25t-40.5 10q-16 0 -31 -3t-23 -5l-7 -3l67 207q-152 53 -238.5 173.5t-86.5 283.5z" />
    <glyph glyph-name="egrave" unicode="&#xe8;" horiz-adv-x="1214" 
d="M1260 438h-695q3 -51 45 -82.5t107 -31.5q116 0 201 77l286 -172q-30 -31 -52.5 -52.5t-80.5 -63.5t-115 -69t-144 -49t-179 -22q-125 0 -225 39t-164 107.5t-97.5 158t-33.5 193.5q0 130 53.5 249.5t144 206.5t217.5 139t267 52q239 0 369 -127.5t130 -339.5
q0 -49 -8.5 -102.5t-17.5 -82.5zM621 672h223q5 45 -21.5 75.5t-74.5 30.5q-45 0 -80 -30.5t-47 -75.5zM981 1493l90 -319h-362l-201 319h473z" />
    <glyph glyph-name="eacute" unicode="&#xe9;" horiz-adv-x="1214" 
d="M1260 438h-695q3 -51 45 -82.5t107 -31.5q116 0 201 77l286 -172q-30 -31 -52.5 -52.5t-80.5 -63.5t-115 -69t-144 -49t-179 -22q-125 0 -225 39t-164 107.5t-97.5 158t-33.5 193.5q0 130 53.5 249.5t144 206.5t217.5 139t267 52q239 0 369 -127.5t130 -339.5
q0 -49 -8.5 -102.5t-17.5 -82.5zM621 672h223q5 45 -21.5 75.5t-74.5 30.5q-45 0 -80 -30.5t-47 -75.5zM561 1174l197 319h483l-297 -319h-383z" />
    <glyph glyph-name="ecircumflex" unicode="&#xea;" horiz-adv-x="1214" 
d="M1260 438h-695q3 -51 45 -82.5t107 -31.5q116 0 201 77l286 -172q-30 -31 -52.5 -52.5t-80.5 -63.5t-115 -69t-144 -49t-179 -22q-125 0 -225 39t-164 107.5t-97.5 158t-33.5 193.5q0 130 53.5 249.5t144 206.5t217.5 139t267 52q239 0 369 -127.5t130 -339.5
q0 -49 -8.5 -102.5t-17.5 -82.5zM621 672h223q5 45 -21.5 75.5t-74.5 30.5q-45 0 -80 -30.5t-47 -75.5zM866 1174l-35 79l-63 -79h-391l270 319h447l163 -319h-391z" />
    <glyph glyph-name="edieresis" unicode="&#xeb;" horiz-adv-x="1214" 
d="M1260 438h-695q3 -51 45 -82.5t107 -31.5q116 0 201 77l286 -172q-30 -31 -52.5 -52.5t-80.5 -63.5t-115 -69t-144 -49t-179 -22q-125 0 -225 39t-164 107.5t-97.5 158t-33.5 193.5q0 130 53.5 249.5t144 206.5t217.5 139t267 52q239 0 369 -127.5t130 -339.5
q0 -49 -8.5 -102.5t-17.5 -82.5zM621 672h223q5 45 -21.5 75.5t-74.5 30.5q-45 0 -80 -30.5t-47 -75.5zM434 1313q0 83 62 143t161 60q78 0 121 -42.5t43 -107.5q0 -85 -61 -143t-162 -58q-79 0 -121.5 41t-42.5 107zM883 1313q0 83 62 143t161 60q78 0 121 -42.5t43 -107.5
q0 -85 -61 -143t-162 -58q-79 0 -121.5 41t-42.5 107z" />
    <glyph glyph-name="igrave" unicode="&#xec;" 
d="M51 0l182 1090h467l-182 -1090h-467zM631 1493l90 -319h-363l-200 319h473z" />
    <glyph glyph-name="iacute" unicode="&#xed;" 
d="M51 0l182 1090h467l-182 -1090h-467zM225 1174l197 319h483l-297 -319h-383z" />
    <glyph glyph-name="icircumflex" unicode="&#xee;" 
d="M51 0l182 1090h467l-182 -1090h-467zM530 1174l-34 79l-64 -79h-391l270 319h447l164 -319h-392z" />
    <glyph glyph-name="idieresis" unicode="&#xef;" 
d="M51 0l182 1090h467l-182 -1090h-467zM92 1313q0 83 62 143t161 60q78 0 121 -42.5t43 -107.5q0 -85 -61 -143t-162 -58q-79 0 -121.5 41t-42.5 107zM541 1313q0 83 62 143t161 60q78 0 121 -42.5t43 -107.5q0 -85 -61 -143t-162 -58q-79 0 -121.5 41t-42.5 107z" />
    <glyph glyph-name="eth" unicode="&#xf0;" horiz-adv-x="1253" 
d="M104 438q0 104 34 194t92.5 155.5t137.5 114.5t169 76t186 34q-14 39 -35 69l-346 -110l8 248l152 45q-29 31 -119 86l270 209q167 -64 283 -146l336 103l-12 -256l-123 -41q192 -243 192 -535q0 -104 -26.5 -204t-84 -192t-139.5 -162t-201 -111.5t-260 -41.5
q-121 0 -219.5 36.5t-162.5 99.5t-98 147.5t-34 181.5zM575 473q0 -61 26.5 -97t80.5 -36q76 0 119 62t43 149q0 59 -26.5 95t-78.5 36q-77 0 -120.5 -61.5t-43.5 -147.5z" />
    <glyph glyph-name="ntilde" unicode="&#xf1;" horiz-adv-x="1183" 
d="M952 1116q177 0 255.5 -113t45.5 -307l-116 -696h-467l108 643q7 47 -9 71.5t-52 24.5q-37 0 -60 -27.5t-30 -68.5l-109 -643h-467l182 1090h447l-14 -91q49 48 125 82.5t161 34.5zM961 1163q-52 0 -123 30t-97 30q-24 0 -41.5 -16.5t-21.5 -45.5h-309
q27 161 116.5 255.5t223.5 94.5q52 0 122.5 -29.5t96.5 -29.5q24 0 41.5 16t21.5 45h309q-27 -161 -116 -255.5t-223 -94.5z" />
    <glyph glyph-name="ograve" unicode="&#xf2;" horiz-adv-x="1302" 
d="M1358 631q0 -181 -94.5 -332t-260 -238.5t-366.5 -87.5q-242 0 -385 137.5t-143 352.5q0 136 55.5 257.5t151 208.5t229.5 138t284 51q242 0 385.5 -136t143.5 -351zM584 498q0 -71 29.5 -113.5t86.5 -42.5q82 0 133.5 73t51.5 179q0 72 -30.5 114t-86.5 42
q-82 0 -133 -72t-51 -180zM997 1493l90 -319h-362l-201 319h473z" />
    <glyph glyph-name="oacute" unicode="&#xf3;" horiz-adv-x="1302" 
d="M1358 631q0 -181 -94.5 -332t-260 -238.5t-366.5 -87.5q-242 0 -385 137.5t-143 352.5q0 136 55.5 257.5t151 208.5t229.5 138t284 51q242 0 385.5 -136t143.5 -351zM584 498q0 -71 29.5 -113.5t86.5 -42.5q82 0 133.5 73t51.5 179q0 72 -30.5 114t-86.5 42
q-82 0 -133 -72t-51 -180zM590 1174l196 319h484l-297 -319h-383z" />
    <glyph glyph-name="ocircumflex" unicode="&#xf4;" horiz-adv-x="1302" 
d="M1358 631q0 -181 -94.5 -332t-260 -238.5t-366.5 -87.5q-242 0 -385 137.5t-143 352.5q0 136 55.5 257.5t151 208.5t229.5 138t284 51q242 0 385.5 -136t143.5 -351zM584 498q0 -71 29.5 -113.5t86.5 -42.5q82 0 133.5 73t51.5 179q0 72 -30.5 114t-86.5 42
q-82 0 -133 -72t-51 -180zM903 1174l-35 79l-63 -79h-391l270 319h446l164 -319h-391z" />
    <glyph glyph-name="otilde" unicode="&#xf5;" horiz-adv-x="1302" 
d="M1358 631q0 -181 -94.5 -332t-260 -238.5t-366.5 -87.5q-242 0 -385 137.5t-143 352.5q0 136 55.5 257.5t151 208.5t229.5 138t284 51q242 0 385.5 -136t143.5 -351zM584 498q0 -71 29.5 -113.5t86.5 -42.5q82 0 133.5 73t51.5 179q0 72 -30.5 114t-86.5 42
q-82 0 -133 -72t-51 -180zM1001 1163q-52 0 -122.5 30t-96.5 30q-24 0 -41.5 -16.5t-21.5 -45.5h-309q27 161 116.5 255.5t223.5 94.5q52 0 122.5 -29.5t96.5 -29.5q24 0 41.5 16t21.5 45h309q-27 -161 -116.5 -255.5t-223.5 -94.5z" />
    <glyph glyph-name="odieresis" unicode="&#xf6;" horiz-adv-x="1302" 
d="M1358 631q0 -181 -94.5 -332t-260 -238.5t-366.5 -87.5q-242 0 -385 137.5t-143 352.5q0 136 55.5 257.5t151 208.5t229.5 138t284 51q242 0 385.5 -136t143.5 -351zM584 498q0 -71 29.5 -113.5t86.5 -42.5q82 0 133.5 73t51.5 179q0 72 -30.5 114t-86.5 42
q-82 0 -133 -72t-51 -180zM463 1313q0 83 62 143t161 60q78 0 121 -42.5t43 -107.5q0 -85 -61 -143t-162 -58q-79 0 -121.5 41t-42.5 107zM911 1313q0 83 62.5 143t161.5 60q78 0 120.5 -42.5t42.5 -107.5q0 -85 -61 -143t-162 -58q-79 0 -121.5 41t-42.5 107z" />
    <glyph glyph-name="divide" unicode="&#xf7;" horiz-adv-x="1099" 
d="M518 1014q0 91 73 159t165 68q74 0 122 -50.5t48 -123.5q0 -91 -72.5 -159t-165.5 -68q-73 0 -121.5 50.5t-48.5 123.5zM383 203q0 91 72.5 159t165.5 68q73 0 121.5 -50.5t48.5 -123.5q0 -91 -72.5 -159t-165.5 -68q-73 0 -121.5 50.5t-48.5 123.5zM98 469l56 332h1058
l-55 -332h-1059z" />
    <glyph glyph-name="oslash" unicode="&#xf8;" horiz-adv-x="1286" 
d="M1358 631q0 -181 -94.5 -332t-260 -238.5t-366.5 -87.5q-188 0 -322 86l-108 -94l-121 139l98 86q-75 116 -75 273q0 136 55.5 257.5t151 208.5t229.5 138t284 51q188 0 322 -88l102 88l121 -139l-92 -80q76 -118 76 -268zM768 750q-74 0 -123.5 -59t-58.5 -152l229 200
q-26 11 -47 11zM700 342q72 0 122 59t61 150l-232 -199q23 -10 49 -10z" />
    <glyph glyph-name="ugrave" unicode="&#xf9;" horiz-adv-x="1185" 
d="M434 -27q-186 0 -268.5 106t-50.5 298l118 713h467l-108 -644q-7 -47 9 -71.5t52 -24.5q37 0 60 27.5t30 68.5l109 644h467l-182 -1090h-447l15 84q-43 -43 -119 -77t-152 -34zM963 1493l90 -319h-363l-201 319h474z" />
    <glyph glyph-name="uacute" unicode="&#xfa;" horiz-adv-x="1185" 
d="M434 -27q-186 0 -268.5 106t-50.5 298l118 713h467l-108 -644q-7 -47 9 -71.5t52 -24.5q37 0 60 27.5t30 68.5l109 644h467l-182 -1090h-447l15 84q-43 -43 -119 -77t-152 -34zM541 1174l196 319h484l-297 -319h-383z" />
    <glyph glyph-name="ucircumflex" unicode="&#xfb;" horiz-adv-x="1185" 
d="M434 -27q-186 0 -268.5 106t-50.5 298l118 713h467l-108 -644q-7 -47 9 -71.5t52 -24.5q37 0 60 27.5t30 68.5l109 644h467l-182 -1090h-447l15 84q-43 -43 -119 -77t-152 -34zM842 1174l-35 79l-64 -79h-391l271 319h446l164 -319h-391z" />
    <glyph glyph-name="udieresis" unicode="&#xfc;" horiz-adv-x="1185" 
d="M434 -27q-186 0 -268.5 106t-50.5 298l118 713h467l-108 -644q-7 -47 9 -71.5t52 -24.5q37 0 60 27.5t30 68.5l109 644h467l-182 -1090h-447l15 84q-43 -43 -119 -77t-152 -34zM401 1313q0 83 62.5 143t161.5 60q78 0 120.5 -42.5t42.5 -107.5q0 -85 -61 -143t-162 -58
q-79 0 -121.5 41t-42.5 107zM850 1313q0 83 62 143t161 60q78 0 121 -42.5t43 -107.5q0 -85 -61 -143t-162 -58q-79 0 -121.5 41t-42.5 107z" />
    <glyph glyph-name="yacute" unicode="&#xfd;" horiz-adv-x="1277" 
d="M653 -367h-440l217 422l-233 1035h489l41 -515l223 515h496zM616 1174l197 319h483l-297 -319h-383z" />
    <glyph glyph-name="thorn" unicode="&#xfe;" horiz-adv-x="1300" 
d="M-12 -375l309 1854h467l-72 -437q114 74 260 74q205 0 314.5 -126t109.5 -335q0 -192 -73 -346t-214.5 -245t-328.5 -91q-70 0 -136 25t-98 57l-71 -430h-467zM590 496q0 -72 33 -114t90 -42q81 0 135.5 72.5t54.5 177.5q0 74 -31.5 114.5t-89.5 40.5q-86 0 -139 -73.5
t-53 -175.5z" />
    <glyph glyph-name="ydieresis" unicode="&#xff;" horiz-adv-x="1277" 
d="M653 -367h-440l217 422l-233 1035h489l41 -515l223 515h496zM453 1313q0 83 62 143t161 60q78 0 121 -42.5t43 -107.5q0 -85 -61.5 -143t-162.5 -58q-79 0 -121 41t-42 107zM901 1313q0 83 62 143t161 60q78 0 121 -42.5t43 -107.5q0 -85 -61 -143t-162 -58
q-79 0 -121.5 41t-42.5 107z" />
    <glyph glyph-name="Amacron" unicode="&#x100;" horiz-adv-x="1523" 
d="M969 219h-336l-101 -219h-522l735 1434h512l256 -1434h-518zM942 584l-31 295l-131 -295h162zM682 1530l49 299h674l-49 -299h-674z" />
    <glyph glyph-name="amacron" unicode="&#x101;" horiz-adv-x="1138" 
d="M76 266q0 127 66.5 219.5t173.5 137.5t239 45q95 0 186 -41l9 41q6 36 -28 56.5t-101 20.5q-136 0 -283 -67l-113 299q118 66 258.5 103.5t280.5 37.5q96 0 171.5 -17.5t125.5 -48.5t85 -74.5t48.5 -96t17 -112.5t-9.5 -124l-108 -645h-400l-8 72q-120 -99 -280 -99
q-147 0 -238.5 74t-91.5 219zM535 352q0 -27 23 -43t58 -16q39 0 70 21t31 55q0 27 -22.5 43t-57.5 16q-41 0 -71.5 -21.5t-30.5 -54.5zM459 1186l49 299h674l-49 -299h-674z" />
    <glyph glyph-name="Abreve" unicode="&#x102;" horiz-adv-x="1523" 
d="M969 219h-336l-101 -219h-522l735 1434h512l256 -1434h-518zM942 584l-31 295l-131 -295h162zM1010 1503q-183 0 -270 95t-60 253h346q-16 -92 27 -92q45 0 61 92h348q-27 -158 -147 -253t-305 -95z" />
    <glyph glyph-name="abreve" unicode="&#x103;" horiz-adv-x="1138" 
d="M76 266q0 127 66.5 219.5t173.5 137.5t239 45q95 0 186 -41l9 41q6 36 -28 56.5t-101 20.5q-136 0 -283 -67l-113 299q118 66 258.5 103.5t280.5 37.5q96 0 171.5 -17.5t125.5 -48.5t85 -74.5t48.5 -96t17 -112.5t-9.5 -124l-108 -645h-400l-8 72q-120 -99 -280 -99
q-147 0 -238.5 74t-91.5 219zM535 352q0 -27 23 -43t58 -16q39 0 70 21t31 55q0 27 -22.5 43t-57.5 16q-41 0 -71.5 -21.5t-30.5 -54.5zM780 1159q-183 0 -269.5 95t-59.5 253h346q-16 -92 26 -92q46 0 62 92h348q-27 -158 -147.5 -253t-305.5 -95z" />
    <glyph glyph-name="Aogonek" unicode="&#x104;" horiz-adv-x="1523" 
d="M1006 -270q0 64 41 123t94 94.5t108 52.5h-254l-26 219h-336l-101 -219h-522l735 1434h512l256 -1434q-36 -14 -65 -42t-29 -60q0 -25 22 -37.5t54 -12.5l-45 -266q-106 -31 -186 -31q-258 0 -258 179zM942 584l-31 295l-131 -295h162z" />
    <glyph glyph-name="aogonek" unicode="&#x105;" horiz-adv-x="1138" 
d="M586 -270q0 64 41 123t94 94.5t108 52.5h-135l-8 72q-120 -99 -280 -99q-147 0 -238.5 74t-91.5 219q0 127 66.5 219.5t173.5 137.5t239 45q95 0 186 -41l9 41q6 36 -28 56.5t-101 20.5q-136 0 -283 -67l-113 299q118 66 258.5 103.5t280.5 37.5q96 0 171.5 -17.5
t125.5 -48.5t85 -74.5t48.5 -96t17 -112.5t-9.5 -124l-108 -645q-36 -14 -65.5 -42t-29.5 -60q0 -25 22 -37.5t54 -12.5l-45 -266q-106 -31 -186 -31q-258 0 -258 179zM535 352q0 -27 23 -43t58 -16q39 0 70 21t31 55q0 27 -22.5 43t-57.5 16q-41 0 -71.5 -21.5t-30.5 -54.5
z" />
    <glyph glyph-name="Cacute" unicode="&#x106;" horiz-adv-x="1312" 
d="M125 602q0 173 69.5 330.5t188.5 274t288.5 185t360.5 68.5q279 0 459 -141l-225 -410q-93 111 -250 111q-141 0 -241.5 -100.5t-100.5 -251.5q0 -116 67 -185t174 -69q153 0 297 112l84 -411q-221 -142 -512 -142q-299 0 -479 173t-180 456zM797 1518l196 319h484
l-297 -319h-383z" />
    <glyph glyph-name="cacute" unicode="&#x107;" horiz-adv-x="1021" 
d="M111 465q0 137 58 259t155.5 208t229.5 136t277 50q96 0 184 -27.5t146 -72.5l-162 -350q-75 75 -178 75q-102 0 -171.5 -67.5t-69.5 -159.5q0 -73 47.5 -120.5t128.5 -47.5q120 0 207 80l47 -354q-167 -101 -359 -101q-239 0 -389.5 137.5t-150.5 354.5zM580 1174
l196 319h484l-297 -319h-383z" />
    <glyph glyph-name="Ccircumflex" unicode="&#x108;" horiz-adv-x="1312" 
d="M125 602q0 173 69.5 330.5t188.5 274t288.5 185t360.5 68.5q279 0 459 -141l-225 -410q-93 111 -250 111q-141 0 -241.5 -100.5t-100.5 -251.5q0 -116 67 -185t174 -69q153 0 297 112l84 -411q-221 -142 -512 -142q-299 0 -479 173t-180 456zM1126 1518l-34 79l-64 -79
h-391l270 319h447l164 -319h-392z" />
    <glyph glyph-name="ccircumflex" unicode="&#x109;" horiz-adv-x="1021" 
d="M111 465q0 137 58 259t155.5 208t229.5 136t277 50q96 0 184 -27.5t146 -72.5l-162 -350q-75 75 -178 75q-102 0 -171.5 -67.5t-69.5 -159.5q0 -73 47.5 -120.5t128.5 -47.5q120 0 207 80l47 -354q-167 -101 -359 -101q-239 0 -389.5 137.5t-150.5 354.5zM870 1174
l-34 79l-64 -79h-391l270 319h447l164 -319h-392z" />
    <glyph glyph-name="Cdotaccent" unicode="&#x10a;" horiz-adv-x="1312" 
d="M125 602q0 173 69.5 330.5t188.5 274t288.5 185t360.5 68.5q279 0 459 -141l-225 -410q-93 111 -250 111q-141 0 -241.5 -100.5t-100.5 -251.5q0 -116 67 -185t174 -69q153 0 297 112l84 -411q-221 -142 -512 -142q-299 0 -479 173t-180 456zM1059 1505q-93 0 -146 49
t-53 127q0 105 74 172.5t194 67.5q94 0 145.5 -47t51.5 -127q0 -105 -73 -173.5t-193 -68.5z" />
    <glyph glyph-name="cdotaccent" unicode="&#x10b;" horiz-adv-x="1021" 
d="M111 465q0 137 58 259t155.5 208t229.5 136t277 50q96 0 184 -27.5t146 -72.5l-162 -350q-75 75 -178 75q-102 0 -171.5 -67.5t-69.5 -159.5q0 -73 47.5 -120.5t128.5 -47.5q120 0 207 80l47 -354q-167 -101 -359 -101q-239 0 -389.5 137.5t-150.5 354.5zM846 1161
q-93 0 -146 49t-53 127q0 105 74 172.5t194 67.5q94 0 145.5 -47t51.5 -127q0 -105 -73 -173.5t-193 -68.5z" />
    <glyph glyph-name="Ccaron" unicode="&#x10c;" horiz-adv-x="1312" 
d="M125 602q0 173 69.5 330.5t188.5 274t288.5 185t360.5 68.5q279 0 459 -141l-225 -410q-93 111 -250 111q-141 0 -241.5 -100.5t-100.5 -251.5q0 -116 67 -185t174 -69q153 0 297 112l84 -411q-221 -142 -512 -142q-299 0 -479 173t-180 456zM1110 1757l64 80h391
l-271 -319h-446l-164 319h391z" />
    <glyph glyph-name="ccaron" unicode="&#x10d;" horiz-adv-x="1021" 
d="M111 465q0 137 58 259t155.5 208t229.5 136t277 50q96 0 184 -27.5t146 -72.5l-162 -350q-75 75 -178 75q-102 0 -171.5 -67.5t-69.5 -159.5q0 -73 47.5 -120.5t128.5 -47.5q120 0 207 80l47 -354q-167 -101 -359 -101q-239 0 -389.5 137.5t-150.5 354.5zM874 1413l64 80
h391l-270 -319h-447l-163 319h391z" />
    <glyph glyph-name="Dcaron" unicode="&#x10e;" horiz-adv-x="1390" 
d="M61 0l240 1434h512q321 0 507.5 -160t186.5 -440q0 -247 -120.5 -437.5t-332.5 -293.5t-481 -103h-512zM737 1024l-104 -614h31q140 0 224.5 100.5t84.5 282.5q0 115 -54 173t-151 58h-31zM893 1757l63 80h392l-271 -319h-446l-164 319h391z" />
    <glyph glyph-name="dcaron" unicode="&#x10f;" horiz-adv-x="1302" 
d="M1501 1122l74 357h319l-161 -357h-232zM1497 1479l-248 -1479h-446l10 63q-121 -90 -283 -90q-205 0 -314.5 126t-109.5 335q0 192 73 346t214 245t328 91q71 0 137 -25t98 -57l74 445h467zM891 594q0 73 -32.5 114.5t-90.5 41.5q-81 0 -134.5 -72.5t-53.5 -177.5
q0 -74 31 -115t89 -41q86 0 138.5 73.5t52.5 176.5z" />
    <glyph glyph-name="Dcroat" unicode="&#x110;" horiz-adv-x="1478" 
d="M152 539l59 358h88l90 537h512q321 0 507.5 -160t186.5 -440q0 -247 -120 -437.5t-332 -293.5t-481 -103h-512l90 539h-88zM825 1024l-22 -127h125l-60 -358h-125l-22 -129h31q140 0 224.5 100.5t84.5 282.5q0 114 -54.5 172.5t-150.5 58.5h-31z" />
    <glyph glyph-name="dcroat" unicode="&#x111;" horiz-adv-x="1349" 
d="M1497 1479l-10 -66h74l-43 -252h-74l-195 -1161h-446l10 63q-118 -90 -283 -90q-205 0 -314.5 126t-109.5 335q0 192 73 346t214 245t328 91q71 0 137 -25t98 -57l21 127h-203l43 252h203l10 66h467zM891 594q0 73 -32.5 114.5t-90.5 41.5q-81 0 -134.5 -72.5
t-53.5 -177.5q0 -74 31 -115t89 -41q86 0 138.5 73.5t52.5 176.5z" />
    <glyph glyph-name="Emacron" unicode="&#x112;" horiz-adv-x="1017" 
d="M61 0l240 1434h895l-68 -404h-376l-21 -119h336l-61 -379h-336l-23 -129h377l-68 -403h-895zM428 1530l49 299h674l-49 -299h-674z" />
    <glyph glyph-name="emacron" unicode="&#x113;" horiz-adv-x="1214" 
d="M1260 438h-695q3 -51 45 -82.5t107 -31.5q116 0 201 77l286 -172q-30 -31 -52.5 -52.5t-80.5 -63.5t-115 -69t-144 -49t-179 -22q-125 0 -225 39t-164 107.5t-97.5 158t-33.5 193.5q0 130 53.5 249.5t144 206.5t217.5 139t267 52q239 0 369 -127.5t130 -339.5
q0 -49 -8.5 -102.5t-17.5 -82.5zM621 672h223q5 45 -21.5 75.5t-74.5 30.5q-45 0 -80 -30.5t-47 -75.5zM483 1186l49 299h674l-49 -299h-674z" />
    <glyph glyph-name="Ebreve" unicode="&#x114;" horiz-adv-x="1017" 
d="M61 0l240 1434h895l-68 -404h-376l-21 -119h336l-61 -379h-336l-23 -129h377l-68 -403h-895zM756 1503q-183 0 -270 95t-60 253h346q-16 -92 27 -92q45 0 61 92h348q-27 -158 -147 -253t-305 -95z" />
    <glyph glyph-name="ebreve" unicode="&#x115;" horiz-adv-x="1214" 
d="M1260 438h-695q3 -51 45 -82.5t107 -31.5q116 0 201 77l286 -172q-30 -31 -52.5 -52.5t-80.5 -63.5t-115 -69t-144 -49t-179 -22q-125 0 -225 39t-164 107.5t-97.5 158t-33.5 193.5q0 130 53.5 249.5t144 206.5t217.5 139t267 52q239 0 369 -127.5t130 -339.5
q0 -49 -8.5 -102.5t-17.5 -82.5zM621 672h223q5 45 -21.5 75.5t-74.5 30.5q-45 0 -80 -30.5t-47 -75.5zM817 1159q-183 0 -270 95t-60 253h347q-16 -92 26 -92q46 0 62 92h348q-27 -158 -147.5 -253t-305.5 -95z" />
    <glyph glyph-name="Edotaccent" unicode="&#x116;" horiz-adv-x="1017" 
d="M61 0l240 1434h895l-68 -404h-376l-21 -119h336l-61 -379h-336l-23 -129h377l-68 -403h-895zM760 1505q-93 0 -146 49t-53 127q0 105 74 172.5t194 67.5q94 0 145.5 -47t51.5 -127q0 -105 -73 -173.5t-193 -68.5z" />
    <glyph glyph-name="edotaccent" unicode="&#x117;" horiz-adv-x="1214" 
d="M1260 438h-695q3 -51 45 -82.5t107 -31.5q116 0 201 77l286 -172q-30 -31 -52.5 -52.5t-80.5 -63.5t-115 -69t-144 -49t-179 -22q-125 0 -225 39t-164 107.5t-97.5 158t-33.5 193.5q0 130 53.5 249.5t144 206.5t217.5 139t267 52q239 0 369 -127.5t130 -339.5
q0 -49 -8.5 -102.5t-17.5 -82.5zM621 672h223q5 45 -21.5 75.5t-74.5 30.5q-45 0 -80 -30.5t-47 -75.5zM829 1161q-93 0 -145.5 48.5t-52.5 127.5q0 105 74 172.5t194 67.5q94 0 145.5 -47t51.5 -127q0 -105 -73.5 -173.5t-193.5 -68.5z" />
    <glyph glyph-name="Eogonek" unicode="&#x118;" horiz-adv-x="1017" 
d="M61 0l240 1434h895l-68 -404h-376l-21 -119h336l-61 -379h-336l-23 -129h377l-68 -403q-41 -16 -70.5 -43t-29.5 -59q0 -25 22 -37.5t54 -12.5l-45 -266q-106 -31 -187 -31q-258 0 -258 179q0 49 23.5 95t61 80t78.5 58.5t81 36.5h-625z" />
    <glyph glyph-name="eogonek" unicode="&#x119;" horiz-adv-x="1214" 
d="M326 -270q0 81 58 148.5t138 103.5q-196 31 -302.5 165t-106.5 324q0 130 53.5 249.5t144 206.5t217.5 139t267 52q239 0 369 -127.5t130 -339.5q0 -49 -8.5 -102.5t-17.5 -82.5l-8 -28h-695q3 -51 45 -82.5t107 -31.5q116 0 201 77l286 -172q-33 -33 -53.5 -51.5
t-72 -58.5t-114.5 -70t-135 -49q-36 -16 -63 -43t-27 -59q0 -25 22 -37.5t54 -12.5l-45 -266q-106 -31 -186 -31q-258 0 -258 179zM621 672h223q5 45 -21.5 75.5t-74.5 30.5q-45 0 -80 -30.5t-47 -75.5z" />
    <glyph glyph-name="Ecaron" unicode="&#x11a;" horiz-adv-x="1017" 
d="M61 0l240 1434h895l-68 -404h-376l-21 -119h336l-61 -379h-336l-23 -129h377l-68 -403h-895zM801 1757l63 80h391l-270 -319h-446l-164 319h391z" />
    <glyph glyph-name="ecaron" unicode="&#x11b;" horiz-adv-x="1214" 
d="M1260 438h-695q3 -51 45 -82.5t107 -31.5q116 0 201 77l286 -172q-30 -31 -52.5 -52.5t-80.5 -63.5t-115 -69t-144 -49t-179 -22q-125 0 -225 39t-164 107.5t-97.5 158t-33.5 193.5q0 130 53.5 249.5t144 206.5t217.5 139t267 52q239 0 369 -127.5t130 -339.5
q0 -49 -8.5 -102.5t-17.5 -82.5zM621 672h223q5 45 -21.5 75.5t-74.5 30.5q-45 0 -80 -30.5t-47 -75.5zM860 1413l64 80h391l-271 -319h-446l-164 319h391z" />
    <glyph glyph-name="Gcircumflex" unicode="&#x11c;" horiz-adv-x="1529" 
d="M788 -27q-156 0 -282.5 47.5t-209.5 132t-127 199.5t-44 250q0 139 44.5 269t127.5 236t194 185.5t251 123.5t292 44q385 0 570 -233l-340 -312q-102 105 -246 105q-141 0 -242.5 -101.5t-101.5 -256.5q0 -116 64.5 -186t176.5 -70q111 0 185 38l8 56h-162l58 346h626
l-106 -637q-310 -236 -736 -236zM1128 1518l-34 79l-64 -79h-391l270 319h447l164 -319h-392z" />
    <glyph glyph-name="gcircumflex" unicode="&#x11d;" horiz-adv-x="1302" 
d="M119 -287l178 318q25 -12 63.5 -25t107.5 -27t130 -14q74 0 132 24.5t65 71.5l4 27q-110 -74 -260 -74q-193 0 -311.5 119.5t-118.5 323.5q0 139 49.5 262.5t133 210t196 136.5t235.5 50q83 0 149 -23.5t105 -62.5l10 60h447l-158 -938q-24 -142 -85.5 -248.5
t-153 -170.5t-202.5 -95t-243 -31q-120 0 -258 32t-215 74zM891 596q0 71 -32 112.5t-87 41.5q-83 0 -137.5 -71t-54.5 -173q0 -72 33 -113t94 -41q82 0 133 72.5t51 171.5zM897 1174l-35 79l-63 -79h-391l270 319h446l164 -319h-391z" />
    <glyph glyph-name="Gbreve" unicode="&#x11e;" horiz-adv-x="1529" 
d="M788 -27q-156 0 -282.5 47.5t-209.5 132t-127 199.5t-44 250q0 139 44.5 269t127.5 236t194 185.5t251 123.5t292 44q385 0 570 -233l-340 -312q-102 105 -246 105q-141 0 -242.5 -101.5t-101.5 -256.5q0 -116 64.5 -186t176.5 -70q111 0 185 38l8 56h-162l58 346h626
l-106 -637q-310 -236 -736 -236zM1075 1503q-183 0 -270 95t-60 253h347q-16 -92 26 -92q46 0 62 92h348q-27 -158 -147.5 -253t-305.5 -95z" />
    <glyph glyph-name="gbreve" unicode="&#x11f;" horiz-adv-x="1302" 
d="M119 -287l178 318q25 -12 63.5 -25t107.5 -27t130 -14q74 0 132 24.5t65 71.5l4 27q-110 -74 -260 -74q-193 0 -311.5 119.5t-118.5 323.5q0 139 49.5 262.5t133 210t196 136.5t235.5 50q83 0 149 -23.5t105 -62.5l10 60h447l-158 -938q-24 -142 -85.5 -248.5
t-153 -170.5t-202.5 -95t-243 -31q-120 0 -258 32t-215 74zM891 596q0 71 -32 112.5t-87 41.5q-83 0 -137.5 -71t-54.5 -173q0 -72 33 -113t94 -41q82 0 133 72.5t51 171.5zM842 1159q-183 0 -270 95t-60 253h346q-16 -92 27 -92q45 0 61 92h348q-27 -158 -147 -253
t-305 -95z" />
    <glyph glyph-name="Gdotaccent" unicode="&#x120;" horiz-adv-x="1529" 
d="M788 -27q-156 0 -282.5 47.5t-209.5 132t-127 199.5t-44 250q0 139 44.5 269t127.5 236t194 185.5t251 123.5t292 44q385 0 570 -233l-340 -312q-102 105 -246 105q-141 0 -242.5 -101.5t-101.5 -256.5q0 -116 64.5 -186t176.5 -70q111 0 185 38l8 56h-162l58 346h626
l-106 -637q-310 -236 -736 -236zM1057 1505q-93 0 -146 49t-53 127q0 105 74 172.5t194 67.5q94 0 145.5 -47t51.5 -127q0 -105 -73 -173.5t-193 -68.5z" />
    <glyph glyph-name="gdotaccent" unicode="&#x121;" horiz-adv-x="1302" 
d="M119 -287l178 318q25 -12 63.5 -25t107.5 -27t130 -14q74 0 132 24.5t65 71.5l4 27q-110 -74 -260 -74q-193 0 -311.5 119.5t-118.5 323.5q0 139 49.5 262.5t133 210t196 136.5t235.5 50q83 0 149 -23.5t105 -62.5l10 60h447l-158 -938q-24 -142 -85.5 -248.5
t-153 -170.5t-202.5 -95t-243 -31q-120 0 -258 32t-215 74zM891 596q0 71 -32 112.5t-87 41.5q-83 0 -137.5 -71t-54.5 -173q0 -72 33 -113t94 -41q82 0 133 72.5t51 171.5zM846 1161q-93 0 -146 49t-53 127q0 105 74 172.5t194 67.5q94 0 145.5 -47t51.5 -127
q0 -105 -73 -173.5t-193 -68.5z" />
    <glyph glyph-name="Gcommaaccent" unicode="&#x122;" horiz-adv-x="1529" 
d="M788 -27q-156 0 -282.5 47.5t-209.5 132t-127 199.5t-44 250q0 139 44.5 269t127.5 236t194 185.5t251 123.5t292 44q385 0 570 -233l-340 -312q-102 105 -246 105q-141 0 -242.5 -101.5t-101.5 -256.5q0 -116 64.5 -186t176.5 -70q111 0 185 38l8 56h-162l58 346h626
l-106 -637q-310 -236 -736 -236zM578 -289q0 93 72 159.5t169 66.5q77 0 126.5 -45.5t49.5 -131.5q0 -135 -90.5 -264.5t-232.5 -218.5l-111 150q97 62 135 127q-57 15 -87.5 58t-30.5 99z" />
    <glyph glyph-name="gcommaaccent" unicode="&#x123;" horiz-adv-x="1302" 
d="M119 -287l178 318q25 -12 63.5 -25t107.5 -27t130 -14q74 0 132 24.5t65 71.5l4 27q-110 -74 -260 -74q-193 0 -311.5 119.5t-118.5 323.5q0 139 49.5 262.5t133 210t196 136.5t235.5 50q83 0 149 -23.5t105 -62.5l10 60h447l-158 -938q-24 -142 -85.5 -248.5
t-153 -170.5t-202.5 -95t-243 -31q-120 0 -258 32t-215 74zM891 596q0 71 -32 112.5t-87 41.5q-83 0 -137.5 -71t-54.5 -173q0 -72 33 -113t94 -41q82 0 133 72.5t51 171.5zM1087 1391q0 -93 -72 -159.5t-169 -66.5q-77 0 -126.5 45t-49.5 131q0 136 90.5 265.5t232.5 218.5
l111 -150q-97 -62 -135 -127q57 -15 87.5 -58t30.5 -99z" />
    <glyph glyph-name="Hcircumflex" unicode="&#x124;" horiz-adv-x="1466" 
d="M61 0l240 1434h520l-86 -516h303l86 516h521l-240 -1434h-520l86 514h-303l-86 -514h-521zM1040 1518l-34 79l-64 -79h-391l270 319h447l164 -319h-392z" />
    <glyph glyph-name="hcircumflex" unicode="&#x125;" horiz-adv-x="1196" 
d="M963 1116q179 0 255.5 -112.5t43.5 -307.5l-117 -696h-467l108 643q7 46 -11 71t-54 25q-38 0 -63 -28t-31 -68l-109 -643h-467l248 1479h467l-82 -482q48 46 123.5 82.5t155.5 36.5zM924 1518l-35 79l-64 -79h-391l271 319h446l164 -319h-391z" />
    <glyph glyph-name="Hbar" unicode="&#x126;" horiz-adv-x="1466" 
d="M61 0l240 1434h520l-86 -516h303l86 516h521l-240 -1434h-520l86 514h-303l-86 -514h-521zM657 1530l50 299h673l-49 -299h-674z" />
    <glyph glyph-name="hbar" unicode="&#x127;" horiz-adv-x="1249" 
d="M229 1161l41 252h70l12 66h467l-12 -66h246l-41 -252h-248l-27 -164q48 46 123.5 82.5t155.5 36.5q179 0 255.5 -112.5t43.5 -307.5l-117 -696h-467l109 643q7 46 -11.5 71t-54.5 25q-38 0 -63 -28t-31 -68l-109 -643h-467l195 1161h-70z" />
    <glyph glyph-name="Itilde" unicode="&#x128;" horiz-adv-x="643" 
d="M61 0l240 1434h520l-239 -1434h-521zM729 1507q-52 0 -122.5 30t-96.5 30q-24 0 -42 -16.5t-22 -45.5h-309q27 161 116.5 255.5t223.5 94.5q52 0 122.5 -29.5t96.5 -29.5q24 0 42 16.5t22 45.5h309q-27 -161 -116.5 -256t-223.5 -95z" />
    <glyph glyph-name="itilde" unicode="&#x129;" 
d="M51 0l182 1090h467l-182 -1090h-467zM635 1163q-52 0 -122.5 30t-96.5 30q-24 0 -42 -16.5t-22 -45.5h-309q27 161 116.5 255.5t223.5 94.5q52 0 122.5 -29.5t96.5 -29.5q24 0 42 16.5t22 44.5h309q-27 -161 -116.5 -255.5t-223.5 -94.5z" />
    <glyph glyph-name="Imacron" unicode="&#x12a;" horiz-adv-x="643" 
d="M61 0l240 1434h520l-239 -1434h-521zM242 1530l49 299h674l-50 -299h-673z" />
    <glyph glyph-name="imacron" unicode="&#x12b;" 
d="M51 0l182 1090h467l-182 -1090h-467zM147 1186l50 299h673l-49 -299h-674z" />
    <glyph glyph-name="Ibreve" unicode="&#x12c;" horiz-adv-x="643" 
d="M61 0l240 1434h520l-239 -1434h-521zM569 1503q-183 0 -269.5 95t-59.5 253h346q-16 -92 26 -92q46 0 62 92h348q-27 -158 -147.5 -253t-305.5 -95z" />
    <glyph glyph-name="ibreve" unicode="&#x12d;" 
d="M51 0l182 1090h467l-182 -1090h-467zM475 1159q-183 0 -270 95t-60 253h347q-16 -92 26 -92q46 0 62 92h348q-27 -158 -147.5 -253t-305.5 -95z" />
    <glyph glyph-name="Iogonek" unicode="&#x12e;" horiz-adv-x="643" 
d="M61 0l240 1434h520l-239 -1434q-39 -14 -70 -42t-31 -60q0 -25 22 -37.5t54 -12.5l-45 -266q-106 -31 -186 -31q-258 0 -258 179q0 64 41 123t94 94.5t108 52.5h-250z" />
    <glyph glyph-name="iogonek" unicode="&#x12f;" 
d="M51 0l182 1090h467l-182 -1090q-41 -15 -70.5 -42t-29.5 -60q0 -25 22 -37.5t54 -12.5l-45 -266q-106 -31 -187 -31q-258 0 -258 179q0 49 23.5 95t61 80t78.5 58.5t81 36.5h-197zM471 1116q-102 0 -160.5 54t-58.5 139q0 110 83 185t212 75q102 0 160.5 -54t58.5 -141
q0 -109 -83 -183.5t-212 -74.5z" />
    <glyph glyph-name="Idotaccent" unicode="&#x130;" horiz-adv-x="643" 
d="M61 0l240 1434h520l-239 -1434h-521zM578 1505q-93 0 -146 49t-53 127q0 105 74 172.5t194 67.5q94 0 145.5 -47t51.5 -127q0 -105 -73 -173.5t-193 -68.5z" />
    <glyph glyph-name="dotlessi" unicode="&#x131;" 
d="M51 0l182 1090h467l-182 -1090h-467z" />
    <glyph glyph-name="IJ" unicode="&#x132;" horiz-adv-x="1501" 
d="M61 0l240 1434h520l-239 -1434h-521zM670 25l116 391q59 -15 109 -15q91 0 104 78l160 955h522l-174 -1035q-69 -411 -553 -411q-147 0 -284 37z" />
    <glyph glyph-name="ij" unicode="&#x133;" horiz-adv-x="1138" 
d="M51 0l182 1090h467l-182 -1090h-467zM471 1116q-102 0 -160.5 55.5t-58.5 141.5q0 110 84 187t213 77q102 0 160.5 -55.5t58.5 -143.5q0 -109 -84.5 -185.5t-212.5 -76.5zM625 27l178 1063h467l-180 -1076q-24 -146 -100.5 -238t-188.5 -130.5t-266 -38.5q-27 0 -70 5.5
t-57 10.5l55 328q28 -4 59 -4q40 0 68.5 21t34.5 59zM1040 1116q-102 0 -160.5 55.5t-58.5 141.5q0 110 84 187t213 77q101 0 159 -55.5t58 -143.5q0 -109 -84 -185.5t-211 -76.5z" />
    <glyph glyph-name="Jcircumflex" unicode="&#x134;" horiz-adv-x="858" 
d="M27 25l116 391q59 -15 109 -15q91 0 104 78l160 955h522l-174 -1035q-69 -411 -553 -411q-147 0 -284 37zM834 1518l-35 79l-64 -79h-391l270 319h447l164 -319h-391z" />
    <glyph glyph-name="jcircumflex" unicode="&#x135;" 
d="M57 37l176 1053h467l-180 -1076q-24 -146 -100.5 -238t-188.5 -130.5t-266 -38.5q-28 0 -82 6t-67 10l57 340q37 -6 82 -6q39 0 67 20.5t35 59.5zM532 1174l-34 79l-64 -79h-391l270 319h447l164 -319h-392z" />
    <glyph glyph-name="Kcommaaccent" unicode="&#x136;" horiz-adv-x="1431" 
d="M61 0l240 1434h520l-86 -521l332 521h567l-469 -684l244 -750h-578l-151 590l-98 -590h-521zM434 -289q0 93 72 159.5t170 66.5q77 0 126.5 -45.5t49.5 -131.5q0 -135 -91 -264.5t-233 -218.5l-110 150q97 62 135 127q-57 15 -88 58t-31 99z" />
    <glyph glyph-name="kcommaaccent" unicode="&#x137;" horiz-adv-x="1245" 
d="M51 0l248 1479h467l-127 -762l240 373h512l-359 -521l195 -569h-514l-125 420l-70 -420h-467zM313 -289q0 93 72 159.5t170 66.5q77 0 126.5 -45.5t49.5 -131.5q0 -135 -90.5 -264.5t-232.5 -218.5l-111 150q97 62 135 127q-57 15 -88 58t-31 99z" />
    <glyph glyph-name="kgreenlandic" unicode="&#x138;" horiz-adv-x="1245" 
d="M51 0l180 1090h467l-59 -373l240 373h512l-359 -521l195 -569h-514l-125 420l-70 -420h-467z" />
    <glyph glyph-name="Lacute" unicode="&#x139;" horiz-adv-x="1001" 
d="M61 0l240 1434h520l-172 -1031h393l-67 -403h-914zM348 1518l197 319h483l-297 -319h-383z" />
    <glyph glyph-name="lacute" unicode="&#x13a;" 
d="M51 0l248 1479h467l-248 -1479h-467zM303 1518l197 319h483l-297 -319h-383z" />
    <glyph glyph-name="Lcommaaccent" unicode="&#x13b;" horiz-adv-x="1001" 
d="M61 0l240 1434h520l-172 -1031h393l-67 -403h-914zM233 -289q0 93 72 159.5t170 66.5q77 0 126.5 -45.5t49.5 -131.5q0 -135 -90.5 -264.5t-232.5 -218.5l-111 150q97 62 135 127q-57 15 -88 58t-31 99z" />
    <glyph glyph-name="lcommaaccent" unicode="&#x13c;" 
d="M51 0l248 1479h467l-248 -1479h-467zM35 -289q0 93 72 159.5t169 66.5q77 0 127 -45.5t50 -131.5q0 -135 -91 -264.5t-233 -218.5l-111 150q99 63 136 127q-57 15 -88 58t-31 99z" />
    <glyph glyph-name="Lcaron" unicode="&#x13d;" horiz-adv-x="1001" 
d="M831 1077l74 357h320l-162 -357h-232zM61 0l240 1434h520l-172 -1031h393l-67 -403h-914z" />
    <glyph glyph-name="lcaron" unicode="&#x13e;" 
d="M770 1122l74 357h319l-162 -357h-231zM51 0l248 1479h467l-248 -1479h-467z" />
    <glyph glyph-name="Ldot" unicode="&#x13f;" horiz-adv-x="1128" 
d="M61 0l240 1434h520l-172 -1031h393l-67 -403h-914zM758 723q0 110 87 190t212 80q101 0 161 -58.5t60 -148.5q0 -108 -87.5 -188t-213.5 -80q-100 0 -159.5 58.5t-59.5 146.5z" />
    <glyph glyph-name="ldot" unicode="&#x140;" horiz-adv-x="1118" 
d="M51 0l248 1479h467l-248 -1479h-467zM715 741q0 110 87 190.5t212 80.5q101 0 161 -58.5t60 -148.5q0 -108 -87.5 -188t-213.5 -80q-100 0 -159.5 58.5t-59.5 145.5z" />
    <glyph glyph-name="Lslash" unicode="&#x141;" horiz-adv-x="1077" 
d="M74 303l63 385l127 68l113 678h520l-68 -414l187 90l-68 -397l-186 -88l-37 -222h393l-67 -403h-914l62 367z" />
    <glyph glyph-name="lslash" unicode="&#x142;" horiz-adv-x="710" 
d="M80 336l67 405l105 52l115 686h467l-72 -430l104 51l-67 -414l-107 -51l-104 -635h-467l63 385z" />
    <glyph glyph-name="Nacute" unicode="&#x143;" horiz-adv-x="1474" 
d="M61 0l240 1434h526l199 -674l113 674h514l-240 -1434h-526l-199 674l-113 -674h-514zM713 1518l196 319h484l-297 -319h-383z" />
    <glyph glyph-name="nacute" unicode="&#x144;" horiz-adv-x="1187" 
d="M952 1116q177 0 255.5 -113t45.5 -307l-116 -696h-467l108 643q7 47 -9 71.5t-52 24.5q-37 0 -60 -27.5t-30 -68.5l-109 -643h-467l182 1090h447l-14 -91q49 48 125 82.5t161 34.5zM477 1174l197 319h483l-297 -319h-383z" />
    <glyph glyph-name="Ncommaaccent" unicode="&#x145;" horiz-adv-x="1474" 
d="M61 0l240 1434h526l199 -674l113 674h514l-240 -1434h-526l-199 674l-113 -674h-514zM483 -289q0 93 72 159.5t170 66.5q77 0 126.5 -45.5t49.5 -131.5q0 -135 -90.5 -264.5t-232.5 -218.5l-111 150q97 62 135 127q-57 15 -88 58t-31 99z" />
    <glyph glyph-name="ncommaaccent" unicode="&#x146;" horiz-adv-x="1187" 
d="M952 1116q177 0 255.5 -113t45.5 -307l-116 -696h-467l108 643q7 47 -9 71.5t-52 24.5q-37 0 -60 -27.5t-30 -68.5l-109 -643h-467l182 1090h447l-14 -91q49 48 125 82.5t161 34.5zM340 -289q0 93 72 159.5t170 66.5q77 0 126.5 -45.5t49.5 -131.5q0 -135 -91 -264.5
t-233 -218.5l-110 150q97 62 135 127q-57 15 -88 58t-31 99z" />
    <glyph glyph-name="Ncaron" unicode="&#x147;" horiz-adv-x="1474" 
d="M61 0l240 1434h526l199 -674l113 674h514l-240 -1434h-526l-199 674l-113 -674h-514zM1030 1757l64 80h391l-271 -319h-446l-164 319h391z" />
    <glyph glyph-name="ncaron" unicode="&#x148;" horiz-adv-x="1187" 
d="M952 1116q177 0 255.5 -113t45.5 -307l-116 -696h-467l108 643q7 47 -9 71.5t-52 24.5q-37 0 -60 -27.5t-30 -68.5l-109 -643h-467l182 1090h447l-14 -91q49 48 125 82.5t161 34.5zM829 1413l64 80h391l-270 -319h-447l-164 319h392z" />
    <glyph glyph-name="napostrophe" unicode="&#x149;" horiz-adv-x="1368" 
d="M1133 1116q177 0 255.5 -113t45.5 -307l-117 -696h-467l108 643q7 47 -9 71.5t-52 24.5q-37 0 -60 -27.5t-30 -68.5l-109 -643h-467l183 1090h446l-14 -91q49 48 125.5 82.5t161.5 34.5zM53 1333q0 93 72 159.5t170 66.5q77 0 126.5 -45.5t49.5 -131.5q0 -135 -91 -264.5
t-233 -218.5l-110 150q97 62 135 127q-57 15 -88 58t-31 99z" />
    <glyph glyph-name="Eng" unicode="&#x14a;" horiz-adv-x="1474" 
d="M575 -379l111 354q55 -14 109 -14q97 0 110 78l-217 635l-113 -674h-514l240 1434h526l205 -641l107 641h514l-240 -1438q-69 -412 -553 -412q-148 0 -285 37z" />
    <glyph glyph-name="eng" unicode="&#x14b;" horiz-adv-x="1187" 
d="M952 1116q177 0 255.5 -113t45.5 -307l-114 -682q-24 -146 -100.5 -238t-188.5 -130.5t-266 -38.5q-28 0 -81.5 5.5t-68.5 10.5l53 322q39 -6 84 -6q40 0 67.5 20.5t33.5 58.5l106 625q7 47 -9 71.5t-52 24.5q-37 0 -60 -27.5t-30 -68.5l-109 -643h-467l182 1090h447
l-14 -91q49 48 125 82.5t161 34.5z" />
    <glyph glyph-name="Omacron" unicode="&#x14c;" horiz-adv-x="1617" 
d="M805 -27q-159 0 -288.5 48.5t-214.5 134t-131 200.5t-46 250q0 173 69 329.5t189.5 272t295 184t374.5 68.5q160 0 289.5 -48.5t214.5 -134t130.5 -200.5t45.5 -248q0 -174 -69 -331t-189.5 -273t-294.5 -184t-375 -68zM981 1032q-139 0 -224 -110.5t-85 -272.5
q0 -112 53 -180t152 -68q138 0 223.5 110.5t85.5 272.5q0 111 -53.5 179.5t-151.5 68.5zM725 1530l49 299h674l-49 -299h-674z" />
    <glyph glyph-name="omacron" unicode="&#x14d;" horiz-adv-x="1302" 
d="M1358 631q0 -181 -94.5 -332t-260 -238.5t-366.5 -87.5q-242 0 -385 137.5t-143 352.5q0 136 55.5 257.5t151 208.5t229.5 138t284 51q242 0 385.5 -136t143.5 -351zM584 498q0 -71 29.5 -113.5t86.5 -42.5q82 0 133.5 73t51.5 179q0 72 -30.5 114t-86.5 42
q-82 0 -133 -72t-51 -180zM512 1186l49 299h674l-49 -299h-674z" />
    <glyph glyph-name="Obreve" unicode="&#x14e;" horiz-adv-x="1617" 
d="M805 -27q-159 0 -288.5 48.5t-214.5 134t-131 200.5t-46 250q0 173 69 329.5t189.5 272t295 184t374.5 68.5q160 0 289.5 -48.5t214.5 -134t130.5 -200.5t45.5 -248q0 -174 -69 -331t-189.5 -273t-294.5 -184t-375 -68zM981 1032q-139 0 -224 -110.5t-85 -272.5
q0 -112 53 -180t152 -68q138 0 223.5 110.5t85.5 272.5q0 111 -53.5 179.5t-151.5 68.5zM1069 1503q-183 0 -270 95t-60 253h346q-16 -92 27 -92q46 0 62 92h348q-27 -158 -147.5 -253t-305.5 -95z" />
    <glyph glyph-name="obreve" unicode="&#x14f;" horiz-adv-x="1302" 
d="M1358 631q0 -181 -94.5 -332t-260 -238.5t-366.5 -87.5q-242 0 -385 137.5t-143 352.5q0 136 55.5 257.5t151 208.5t229.5 138t284 51q242 0 385.5 -136t143.5 -351zM584 498q0 -71 29.5 -113.5t86.5 -42.5q82 0 133.5 73t51.5 179q0 72 -30.5 114t-86.5 42
q-82 0 -133 -72t-51 -180zM846 1159q-183 0 -270 95t-60 253h346q-16 -92 27 -92q45 0 61 92h348q-27 -158 -147 -253t-305 -95z" />
    <glyph glyph-name="Ohungarumlaut" unicode="&#x150;" horiz-adv-x="1617" 
d="M805 -27q-159 0 -288.5 48.5t-214.5 134t-131 200.5t-46 250q0 173 69 329.5t189.5 272t295 184t374.5 68.5q160 0 289.5 -48.5t214.5 -134t130.5 -200.5t45.5 -248q0 -174 -69 -331t-189.5 -273t-294.5 -184t-375 -68zM981 1032q-139 0 -224 -110.5t-85 -272.5
q0 -112 53 -180t152 -68q138 0 223.5 110.5t85.5 272.5q0 111 -53.5 179.5t-151.5 68.5zM641 1518l195 319h387l-232 -319h-350zM1075 1518l195 319h387l-232 -319h-350z" />
    <glyph glyph-name="ohungarumlaut" unicode="&#x151;" horiz-adv-x="1302" 
d="M1358 631q0 -181 -94.5 -332t-260 -238.5t-366.5 -87.5q-242 0 -385 137.5t-143 352.5q0 136 55.5 257.5t151 208.5t229.5 138t284 51q242 0 385.5 -136t143.5 -351zM584 498q0 -71 29.5 -113.5t86.5 -42.5q82 0 133.5 73t51.5 179q0 72 -30.5 114t-86.5 42
q-82 0 -133 -72t-51 -180zM418 1174l194 319h387l-231 -319h-350zM852 1174l195 319h387l-232 -319h-350z" />
    <glyph glyph-name="OE" unicode="&#x152;" horiz-adv-x="2056" 
d="M805 -27q-159 0 -288.5 48.5t-214.5 134t-131 200.5t-46 250q0 173 69 329.5t189.5 272t295 184t374.5 68.5q111 0 225 -26h956l-67 -404h-469q18 -68 20 -119h387l-63 -379h-385q-21 -58 -64 -129h469l-67 -403h-957q-125 -27 -233 -27zM981 1032q-139 0 -224 -110.5
t-85 -272.5q0 -112 53 -180t152 -68q138 0 223.5 110.5t85.5 272.5q0 111 -53.5 179.5t-151.5 68.5z" />
    <glyph glyph-name="oe" unicode="&#x153;" horiz-adv-x="1994" 
d="M2040 438h-694q3 -51 44.5 -82.5t106.5 -31.5q116 0 201 77l287 -172q-248 -256 -572 -256q-213 0 -348 125q-186 -125 -428 -125t-385 137.5t-143 352.5q0 136 55.5 257.5t151 208.5t229.5 138t284 51q220 0 365 -119q167 119 381 119q239 0 369.5 -127.5t130.5 -339.5
q0 -49 -8.5 -102.5t-17.5 -82.5zM584 498q0 -71 29.5 -113.5t86.5 -42.5q82 0 133.5 73t51.5 179q0 72 -30.5 114t-86.5 42q-82 0 -133 -72t-51 -180zM1401 672h223q5 45 -21.5 75.5t-74.5 30.5q-45 0 -80 -30.5t-47 -75.5z" />
    <glyph glyph-name="Racute" unicode="&#x154;" horiz-adv-x="1294" 
d="M61 0l240 1434h637q219 0 341 -112.5t122 -287.5q0 -143 -86 -257t-211 -177l227 -600h-563l-125 463l-78 -463h-504zM707 844h61q52 0 86.5 35t34.5 79q0 35 -23.5 60.5t-64.5 25.5h-62zM588 1518l196 319h484l-297 -319h-383z" />
    <glyph glyph-name="racute" unicode="&#x155;" horiz-adv-x="817" 
d="M965 1116l-70 -422q-43 15 -80 15q-77 0 -136.5 -54t-74.5 -147l-86 -508h-467l182 1090h457l-20 -119q45 54 125.5 99.5t169.5 45.5zM338 1174l197 319h483l-297 -319h-383z" />
    <glyph glyph-name="Rcommaaccent" unicode="&#x156;" horiz-adv-x="1294" 
d="M61 0l240 1434h637q219 0 341 -112.5t122 -287.5q0 -143 -86 -257t-211 -177l227 -600h-563l-125 463l-78 -463h-504zM707 844h61q52 0 86.5 35t34.5 79q0 35 -23.5 60.5t-64.5 25.5h-62zM389 -289q0 93 72 159.5t170 66.5q77 0 126.5 -45.5t49.5 -131.5
q0 -135 -91 -264.5t-233 -218.5l-110 150q97 62 135 127q-57 15 -88 58t-31 99z" />
    <glyph glyph-name="rcommaaccent" unicode="&#x157;" horiz-adv-x="817" 
d="M965 1116l-70 -422q-43 15 -80 15q-77 0 -136.5 -54t-74.5 -147l-86 -508h-467l182 1090h457l-20 -119q45 54 125.5 99.5t169.5 45.5zM68 -289q0 93 72 159.5t169 66.5q77 0 126.5 -45.5t49.5 -131.5q0 -135 -90.5 -264.5t-232.5 -218.5l-111 150q97 62 135 127
q-57 15 -87.5 58t-30.5 99z" />
    <glyph glyph-name="Rcaron" unicode="&#x158;" horiz-adv-x="1294" 
d="M61 0l240 1434h637q219 0 341 -112.5t122 -287.5q0 -143 -86 -257t-211 -177l227 -600h-563l-125 463l-78 -463h-504zM707 844h61q52 0 86.5 35t34.5 79q0 35 -23.5 60.5t-64.5 25.5h-62zM846 1757l63 80h391l-270 -319h-446l-164 319h391z" />
    <glyph glyph-name="rcaron" unicode="&#x159;" horiz-adv-x="817" 
d="M965 1116l-70 -422q-43 15 -80 15q-77 0 -136.5 -54t-74.5 -147l-86 -508h-467l182 1090h457l-20 -119q45 54 125.5 99.5t169.5 45.5zM645 1413l64 80h391l-271 -319h-446l-164 319h391z" />
    <glyph glyph-name="Sacute" unicode="&#x15a;" horiz-adv-x="1181" 
d="M696 436q0 24 -26 46.5t-67 44t-91 46.5t-100.5 59t-91.5 75t-67 102.5t-26 134.5q0 149 80.5 267t222.5 183.5t318 65.5q94 0 175 -23.5t135 -60t94.5 -82.5t60.5 -89.5t26 -82.5l-399 -209q-15 52 -52 91.5t-83 39.5q-22 0 -35.5 -12t-13.5 -31q0 -28 35 -57t87 -53.5
t113.5 -62t113.5 -80t87 -110.5t35 -149q0 -228 -178 -372t-463 -144q-98 0 -180.5 25t-137 63.5t-95.5 90t-62.5 99t-30.5 95.5l403 201q30 -69 74.5 -110.5t91.5 -41.5t47 41zM629 1518l196 319h484l-297 -319h-383z" />
    <glyph glyph-name="sacute" unicode="&#x15b;" horiz-adv-x="1003" 
d="M55 160l232 264q46 -38 124.5 -71.5t127.5 -33.5t49 25q0 12 -14 20t-50 19q-55 17 -92 31t-89 42.5t-83.5 60t-54.5 82t-23 110.5q0 120 70.5 214t189.5 144.5t263 50.5q149 0 252 -50t165 -122l-262 -250q-34 35 -82 58.5t-94 23.5q-51 0 -51 -30q0 -14 21 -25t75 -27
q48 -15 82.5 -28t82 -39t77.5 -55.5t51.5 -77t21.5 -103.5q0 -201 -135 -310.5t-381 -109.5q-146 0 -277 57.5t-196 129.5zM481 1174l197 319h483l-297 -319h-383z" />
    <glyph glyph-name="Scircumflex" unicode="&#x15c;" horiz-adv-x="1181" 
d="M696 436q0 24 -26 46.5t-67 44t-91 46.5t-100.5 59t-91.5 75t-67 102.5t-26 134.5q0 149 80.5 267t222.5 183.5t318 65.5q94 0 175 -23.5t135 -60t94.5 -82.5t60.5 -89.5t26 -82.5l-399 -209q-15 52 -52 91.5t-83 39.5q-22 0 -35.5 -12t-13.5 -31q0 -28 35 -57t87 -53.5
t113.5 -62t113.5 -80t87 -110.5t35 -149q0 -228 -178 -372t-463 -144q-98 0 -180.5 25t-137 63.5t-95.5 90t-62.5 99t-30.5 95.5l403 201q30 -69 74.5 -110.5t91.5 -41.5t47 41zM913 1518l-34 79l-64 -79h-391l270 319h447l164 -319h-392z" />
    <glyph glyph-name="scircumflex" unicode="&#x15d;" horiz-adv-x="1003" 
d="M55 160l232 264q46 -38 124.5 -71.5t127.5 -33.5t49 25q0 12 -14 20t-50 19q-55 17 -92 31t-89 42.5t-83.5 60t-54.5 82t-23 110.5q0 120 70.5 214t189.5 144.5t263 50.5q149 0 252 -50t165 -122l-262 -250q-34 35 -82 58.5t-94 23.5q-51 0 -51 -30q0 -14 21 -25t75 -27
q48 -15 82.5 -28t82 -39t77.5 -55.5t51.5 -77t21.5 -103.5q0 -201 -135 -310.5t-381 -109.5q-146 0 -277 57.5t-196 129.5zM774 1174l-35 79l-63 -79h-391l270 319h446l164 -319h-391z" />
    <glyph glyph-name="Scedilla" unicode="&#x15e;" horiz-adv-x="1181" 
d="M696 436q0 24 -26 46.5t-67 44t-91 46.5t-100.5 59t-91.5 75t-67 102.5t-26 134.5q0 149 80.5 267t222.5 183.5t318 65.5q94 0 175 -23.5t135 -60t94.5 -82.5t60.5 -89.5t26 -82.5l-399 -209q-15 52 -52 91.5t-83 39.5q-22 0 -35.5 -12t-13.5 -31q0 -28 35 -57t87 -53.5
t113.5 -62t113.5 -80t87 -110.5t35 -149q0 -207 -148 -345.5t-393 -163.5l-14 -48q61 -12 96 -54.5t35 -102.5q0 -119 -94 -193t-252 -74q-95 0 -193 43l84 197q32 -14 72 -14q26 0 42.5 12t16.5 31q0 15 -14.5 25t-40.5 10q-16 0 -31.5 -3t-22.5 -5l-8 -3l62 193
q-80 20 -144.5 60.5t-104 91t-63 100.5t-32.5 100l403 201q30 -69 74.5 -110.5t91.5 -41.5t47 41z" />
    <glyph glyph-name="scedilla" unicode="&#x15f;" horiz-adv-x="1003" 
d="M55 160l232 264q46 -38 124.5 -71.5t127.5 -33.5t49 25q0 12 -14 20t-50 19q-55 17 -92 31t-89 42.5t-83.5 60t-54.5 82t-23 110.5q0 120 70.5 214t189.5 144.5t263 50.5q149 0 252 -50t165 -122l-262 -250q-34 35 -82 58.5t-94 23.5q-51 0 -51 -30q0 -14 21 -25t75 -27
q48 -15 82.5 -28t82 -39t77.5 -55.5t51.5 -77t21.5 -103.5q0 -184 -113 -291.5t-323 -124.5l-14 -45q61 -12 96 -54.5t35 -102.5q0 -119 -94 -193t-252 -74q-95 0 -193 43l84 197q32 -14 72 -14q26 0 42.5 12t16.5 31q0 15 -14.5 25t-40.5 10q-16 0 -31 -3t-23 -5l-7 -3
l63 197q-94 23 -172 68.5t-121 93.5z" />
    <glyph glyph-name="Scaron" unicode="&#x160;" horiz-adv-x="1181" 
d="M696 436q0 24 -26 46.5t-67 44t-91 46.5t-100.5 59t-91.5 75t-67 102.5t-26 134.5q0 149 80.5 267t222.5 183.5t318 65.5q94 0 175 -23.5t135 -60t94.5 -82.5t60.5 -89.5t26 -82.5l-399 -209q-15 52 -52 91.5t-83 39.5q-22 0 -35.5 -12t-13.5 -31q0 -28 35 -57t87 -53.5
t113.5 -62t113.5 -80t87 -110.5t35 -149q0 -228 -178 -372t-463 -144q-98 0 -180.5 25t-137 63.5t-95.5 90t-62.5 99t-30.5 95.5l403 201q30 -69 74.5 -110.5t91.5 -41.5t47 41zM905 1757l64 80h391l-270 -319h-447l-164 319h391z" />
    <glyph glyph-name="scaron" unicode="&#x161;" horiz-adv-x="1003" 
d="M55 160l232 264q46 -38 124.5 -71.5t127.5 -33.5t49 25q0 12 -14 20t-50 19q-55 17 -92 31t-89 42.5t-83.5 60t-54.5 82t-23 110.5q0 120 70.5 214t189.5 144.5t263 50.5q149 0 252 -50t165 -122l-262 -250q-34 35 -82 58.5t-94 23.5q-51 0 -51 -30q0 -14 21 -25t75 -27
q48 -15 82.5 -28t82 -39t77.5 -55.5t51.5 -77t21.5 -103.5q0 -201 -135 -310.5t-381 -109.5q-146 0 -277 57.5t-196 129.5zM770 1413l64 80h391l-271 -319h-446l-164 319h391z" />
    <glyph glyph-name="Tcommaaccent" unicode="&#x162;" horiz-adv-x="1142" 
d="M311 0l172 1030h-280l67 404h1084l-68 -404h-282l-173 -1030h-520zM315 -289q0 93 72 159.5t170 66.5q77 0 126.5 -45.5t49.5 -131.5q0 -135 -90.5 -264.5t-232.5 -218.5l-111 150q97 62 135 127q-57 15 -88 58t-31 99z" />
    <glyph glyph-name="tcommaaccent" unicode="&#x163;" horiz-adv-x="788" 
d="M319 1090l39 227h455l-39 -227h170l-57 -340h-170l-53 -322q-7 -39 20.5 -55.5t69.5 -16.5l75 6l-61 -358q-76 -20 -182 -20q-226 0 -326.5 107.5t-64.5 324.5l55 334h-98l57 340h110zM184 -289q0 93 72 159.5t170 66.5q77 0 126.5 -45.5t49.5 -131.5
q0 -135 -90.5 -264.5t-232.5 -218.5l-111 150q97 62 135 127q-57 15 -88 58t-31 99z" />
    <glyph glyph-name="Tcaron" unicode="&#x164;" horiz-adv-x="1142" 
d="M311 0l172 1030h-280l67 404h1084l-68 -404h-282l-173 -1030h-520zM868 1757l64 80h391l-270 -319h-447l-164 319h392z" />
    <glyph glyph-name="tcaron" unicode="&#x165;" horiz-adv-x="806" 
d="M823 1122l74 357h320l-162 -357h-232zM319 1090l39 227h455l-39 -227h170l-57 -340h-170l-53 -322q-7 -39 20.5 -55.5t69.5 -16.5l75 6l-61 -358q-76 -20 -182 -20q-226 0 -326.5 107.5t-64.5 324.5l55 334h-98l57 340h110z" />
    <glyph glyph-name="Tbar" unicode="&#x166;" horiz-adv-x="1142" 
d="M246 563l49 299h160l28 168h-280l67 404h1084l-68 -404h-282l-29 -168h158l-50 -299h-157l-95 -563h-520l95 563h-160z" />
    <glyph glyph-name="tbar" unicode="&#x167;" horiz-adv-x="788" 
d="M319 1090l39 227h455l-39 -227h170l-57 -340h-170l-10 -66h118l-45 -270h-118q0 -31 27 -44.5t65 -13.5l75 6l-59 -358q-78 -20 -184 -20q-226 0 -326.5 106.5t-64.5 323.5h-99l45 270h99l10 66h-98l57 340h110z" />
    <glyph glyph-name="Utilde" unicode="&#x168;" horiz-adv-x="1445" 
d="M717 -27q-158 0 -276 43.5t-187 122t-94 186.5t-4 238l145 871h520l-147 -883q-12 -72 19 -111t95 -39q66 0 111 39t57 111l148 883h520l-145 -871q-44 -266 -245.5 -428t-516.5 -162zM1130 1507q-52 0 -122.5 30t-96.5 30q-24 0 -41.5 -16.5t-21.5 -45.5h-309
q27 161 116.5 255.5t223.5 94.5q52 0 122.5 -29.5t96.5 -29.5q24 0 41.5 16.5t21.5 45.5h309q-27 -161 -116.5 -256t-223.5 -95z" />
    <glyph glyph-name="utilde" unicode="&#x169;" horiz-adv-x="1185" 
d="M434 -27q-186 0 -268.5 106t-50.5 298l118 713h467l-108 -644q-7 -47 9 -71.5t52 -24.5q37 0 60 27.5t30 68.5l109 644h467l-182 -1090h-447l15 84q-43 -43 -119 -77t-152 -34zM942 1163q-52 0 -122.5 30t-96.5 30q-24 0 -42 -16.5t-22 -45.5h-309q27 161 116.5 255.5
t223.5 94.5q52 0 122.5 -29.5t96.5 -29.5q24 0 42 16.5t22 44.5h309q-27 -161 -116.5 -255.5t-223.5 -94.5z" />
    <glyph glyph-name="Umacron" unicode="&#x16a;" horiz-adv-x="1445" 
d="M717 -27q-158 0 -276 43.5t-187 122t-94 186.5t-4 238l145 871h520l-147 -883q-12 -72 19 -111t95 -39q66 0 111 39t57 111l148 883h520l-145 -871q-44 -266 -245.5 -428t-516.5 -162zM641 1530l49 299h674l-49 -299h-674z" />
    <glyph glyph-name="umacron" unicode="&#x16b;" horiz-adv-x="1185" 
d="M434 -27q-186 0 -268.5 106t-50.5 298l118 713h467l-108 -644q-7 -47 9 -71.5t52 -24.5q37 0 60 27.5t30 68.5l109 644h467l-182 -1090h-447l15 84q-43 -43 -119 -77t-152 -34zM455 1186l49 299h674l-50 -299h-673z" />
    <glyph glyph-name="Ubreve" unicode="&#x16c;" horiz-adv-x="1445" 
d="M717 -27q-158 0 -276 43.5t-187 122t-94 186.5t-4 238l145 871h520l-147 -883q-12 -72 19 -111t95 -39q66 0 111 39t57 111l148 883h520l-145 -871q-44 -266 -245.5 -428t-516.5 -162zM971 1503q-183 0 -270 95t-60 253h346q-16 -92 27 -92q45 0 61 92h348
q-27 -158 -147 -253t-305 -95z" />
    <glyph glyph-name="ubreve" unicode="&#x16d;" horiz-adv-x="1185" 
d="M434 -27q-186 0 -268.5 106t-50.5 298l118 713h467l-108 -644q-7 -47 9 -71.5t52 -24.5q37 0 60 27.5t30 68.5l109 644h467l-182 -1090h-447l15 84q-43 -43 -119 -77t-152 -34zM782 1159q-183 0 -269.5 95t-59.5 253h346q-16 -92 26 -92q46 0 62 92h348
q-27 -158 -147.5 -253t-305.5 -95z" />
    <glyph glyph-name="Uring" unicode="&#x16e;" horiz-adv-x="1445" 
d="M717 -27q-158 0 -276 43.5t-187 122t-94 186.5t-4 238l145 871h520l-147 -883q-12 -72 19 -111t95 -39q66 0 111 39t57 111l148 883h520l-145 -871q-44 -266 -245.5 -428t-516.5 -162zM745 1698q0 109 91.5 182.5t212.5 73.5q99 0 163 -55t64 -142q0 -110 -90 -183
t-213 -73q-98 0 -163 55t-65 142zM944 1716q0 -26 14.5 -42.5t40.5 -16.5q34 0 58 24t24 58q0 25 -15.5 42t-41.5 17q-32 0 -56 -24t-24 -58z" />
    <glyph glyph-name="uring" unicode="&#x16f;" horiz-adv-x="1185" 
d="M434 -27q-186 0 -268.5 106t-50.5 298l118 713h467l-108 -644q-7 -47 9 -71.5t52 -24.5q37 0 60 27.5t30 68.5l109 644h467l-182 -1090h-447l15 84q-43 -43 -119 -77t-152 -34zM563 1354q0 109 91 182.5t212 73.5q99 0 163.5 -55t64.5 -142q0 -110 -90 -183t-213 -73
q-98 0 -163 55t-65 142zM762 1372q0 -26 14.5 -42.5t40.5 -16.5q34 0 58 24t24 58q0 25 -15.5 42t-41.5 17q-32 0 -56 -24t-24 -58z" />
    <glyph glyph-name="Uhungarumlaut" unicode="&#x170;" horiz-adv-x="1445" 
d="M717 -27q-158 0 -276 43.5t-187 122t-94 186.5t-4 238l145 871h520l-147 -883q-12 -72 19 -111t95 -39q66 0 111 39t57 111l148 883h520l-145 -871q-44 -266 -245.5 -428t-516.5 -162zM555 1518l195 319h387l-232 -319h-350zM989 1518l195 319h387l-232 -319h-350z" />
    <glyph glyph-name="uhungarumlaut" unicode="&#x171;" horiz-adv-x="1185" 
d="M434 -27q-186 0 -268.5 106t-50.5 298l118 713h467l-108 -644q-7 -47 9 -71.5t52 -24.5q37 0 60 27.5t30 68.5l109 644h467l-182 -1090h-447l15 84q-43 -43 -119 -77t-152 -34zM358 1174l195 319h387l-231 -319h-351zM793 1174l194 319h387l-231 -319h-350z" />
    <glyph glyph-name="Uogonek" unicode="&#x172;" horiz-adv-x="1445" 
d="M440 -270q0 79 55.5 143.5t133.5 103.5q-270 23 -392 181t-81 405l145 871h520l-147 -883q-12 -72 19 -111t95 -39q66 0 111 39t57 111l148 883h520l-145 -871q-36 -214 -175 -362.5t-360 -200.5q-36 -16 -63 -43t-27 -59q0 -25 22 -37.5t54 -12.5l-45 -266
q-106 -31 -187 -31q-258 0 -258 179z" />
    <glyph glyph-name="uogonek" unicode="&#x173;" horiz-adv-x="1187" 
d="M629 -270q0 64 41 123t94 94.5t108 52.5h-182l15 84q-43 -43 -119 -77t-152 -34q-186 0 -268.5 106t-50.5 298l118 713h467l-108 -644q-7 -47 9 -71.5t52 -24.5q37 0 60 27.5t30 68.5l109 644h467l-182 -1090q-36 -14 -65.5 -42t-29.5 -60q0 -25 22 -37.5t54 -12.5
l-45 -266q-106 -31 -186 -31q-258 0 -258 179z" />
    <glyph glyph-name="Wcircumflex" unicode="&#x174;" horiz-adv-x="2166" 
d="M1257 0l-49 752l-299 -752h-522l-133 1434h555l2 -789l307 789h410l45 -789l264 789h555l-612 -1434h-523zM1386 1518l-34 79l-64 -79h-391l270 319h447l164 -319h-392z" />
    <glyph glyph-name="wcircumflex" unicode="&#x175;" horiz-adv-x="1789" 
d="M983 0l-22 401l-152 -401h-504l-106 1090h508l-21 -537l184 537h414l4 -541l162 541h508l-473 -1090h-502zM1143 1174l-35 79l-64 -79h-391l271 319h446l164 -319h-391z" />
    <glyph glyph-name="Ycircumflex" unicode="&#x176;" horiz-adv-x="1449" 
d="M985 0h-520l102 612l-311 822h547l76 -408l211 408h583l-586 -822zM1028 1518l-35 79l-63 -79h-391l270 319h446l164 -319h-391z" />
    <glyph glyph-name="ycircumflex" unicode="&#x177;" horiz-adv-x="1277" 
d="M653 -367h-440l217 422l-233 1035h489l41 -515l223 515h496zM891 1174l-35 79l-63 -79h-392l271 319h446l164 -319h-391z" />
    <glyph glyph-name="Ydieresis" unicode="&#x178;" horiz-adv-x="1449" 
d="M985 0h-520l102 612l-311 822h547l76 -408l211 408h583l-586 -822zM586 1632q0 83 62 143t161 60q79 0 121.5 -42t42.5 -107q0 -85 -61 -143t-162 -58q-79 0 -121.5 40.5t-42.5 106.5zM1034 1632q0 83 62 143t161 60q79 0 121.5 -42t42.5 -107q0 -85 -61 -143t-162 -58
q-79 0 -121.5 40.5t-42.5 106.5z" />
    <glyph glyph-name="Zacute" unicode="&#x179;" horiz-adv-x="1277" 
d="M27 0l45 268l667 766h-524l66 400h1204l-45 -267l-672 -764h551l-68 -403h-1224zM633 1518l196 319h484l-297 -319h-383z" />
    <glyph glyph-name="zacute" unicode="&#x17a;" horiz-adv-x="999" 
d="M29 0l41 240l430 499h-342l59 351h924l-41 -240l-436 -498h356l-59 -352h-932zM459 1174l196 319h484l-297 -319h-383z" />
    <glyph glyph-name="Zdotaccent" unicode="&#x17b;" horiz-adv-x="1277" 
d="M27 0l45 268l667 766h-524l66 400h1204l-45 -267l-672 -764h551l-68 -403h-1224zM903 1505q-93 0 -145.5 48.5t-52.5 127.5q0 105 74 172.5t194 67.5q93 0 144.5 -47t51.5 -127q0 -105 -73 -173.5t-193 -68.5z" />
    <glyph glyph-name="zdotaccent" unicode="&#x17c;" horiz-adv-x="999" 
d="M29 0l41 240l430 499h-342l59 351h924l-41 -240l-436 -498h356l-59 -352h-932zM694 1161q-93 0 -145.5 48.5t-52.5 127.5q0 105 74 172.5t194 67.5q94 0 145.5 -47t51.5 -127q0 -105 -73.5 -173.5t-193.5 -68.5z" />
    <glyph glyph-name="Zcaron" unicode="&#x17d;" horiz-adv-x="1277" 
d="M27 0l45 268l667 766h-524l66 400h1204l-45 -267l-672 -764h551l-68 -403h-1224zM950 1757l64 80h391l-270 -319h-447l-164 319h391z" />
    <glyph glyph-name="zcaron" unicode="&#x17e;" horiz-adv-x="999" 
d="M29 0l41 240l430 499h-342l59 351h924l-41 -240l-436 -498h356l-59 -352h-932zM735 1413l64 80h391l-270 -319h-447l-164 319h391z" />
    <glyph glyph-name="florin" unicode="&#x192;" horiz-adv-x="1034" 
d="M700 590l-102 -588q-66 -383 -516 -383q-75 0 -178 21l57 340q53 -11 86 -11q36 0 63 18.5t33 53.5l99 549h-101l15 336h143l29 155q16 86 53 153.5t86 110t113 70t128.5 38.5t137.5 11q98 0 180 -16l-59 -344q-38 10 -76 10q-42 0 -70.5 -18.5t-34.5 -53.5l-20 -116h133
l-14 -336h-185z" />
    <glyph glyph-name="Aringacute" unicode="&#x1fa;" horiz-adv-x="1523" 
d="M969 219h-336l-101 -219h-522l738 1438v20q0 110 90 183t211 73q99 0 163 -54.5t64 -141.5q0 -40 -21 -82l258 -1436h-518zM827 1753l181 309h483l-281 -309h-383zM942 584l-29 305l-133 -305h162zM944 1477q0 -25 15.5 -42.5t41.5 -17.5q32 0 56 24t24 58
q0 25 -15.5 42.5t-41.5 17.5q-32 0 -56 -24t-24 -58z" />
    <glyph glyph-name="aringacute" unicode="&#x1fb;" horiz-adv-x="1138" 
d="M653 1638l191 295h483l-299 -295h-375zM76 266q0 127 66.5 219.5t173.5 137.5t239 45q95 0 186 -41l9 41q6 36 -28 56.5t-101 20.5q-136 0 -283 -67l-113 299q118 66 258.5 103.5t280.5 37.5q96 0 171.5 -17.5t125.5 -48.5t85 -74.5t48.5 -96t17 -112.5t-9.5 -124
l-108 -645h-400l-8 72q-120 -99 -280 -99q-147 0 -238.5 74t-91.5 219zM535 352q0 -27 23 -43t58 -16q39 0 70 21t31 55q0 27 -22.5 43t-57.5 16q-41 0 -71.5 -21.5t-30.5 -54.5zM563 1348q0 109 91 182.5t212 73.5q99 0 163.5 -55t64.5 -142q0 -110 -90 -183t-213 -73
q-98 0 -163 55t-65 142zM762 1366q0 -26 14.5 -42.5t40.5 -16.5q34 0 58 24t24 58q0 25 -15.5 42t-41.5 17q-32 0 -56 -24t-24 -58z" />
    <glyph glyph-name="AEacute" unicode="&#x1fc;" horiz-adv-x="1880" 
d="M924 0l37 219h-312l-141 -219h-535l1022 1434h1063l-67 -404h-377l-21 -119h336l-61 -379h-336l-23 -129h377l-67 -403h-895zM1075 905l-209 -321h156zM1143 1487l196 319h484l-297 -319h-383z" />
    <glyph glyph-name="aeacute" unicode="&#x1fd;" horiz-adv-x="1818" 
d="M424 -27q-96 0 -172.5 30t-126 98t-49.5 165q0 127 66.5 219.5t173.5 137.5t239 45q95 0 186 -41l9 41q6 36 -28 56.5t-101 20.5q-136 0 -283 -67l-113 299q118 66 258.5 103.5t280.5 37.5q107 0 188.5 -26.5t126.5 -71.5q63 44 156 71t182 27q227 0 354 -128t127 -339
q0 -45 -8.5 -98.5t-17.5 -84.5l-8 -30h-695q3 -50 46.5 -81t107.5 -31q59 0 112.5 21.5t86.5 53.5l286 -172q-18 -26 -60.5 -64t-112 -83.5t-171 -77t-209.5 -31.5q-282 0 -413 181q-162 -181 -418 -181zM535 352q0 -27 23 -43t58 -16q39 0 70 21t31 55q0 27 -22.5 43
t-57.5 16q-41 0 -71.5 -21.5t-30.5 -54.5zM1225 672h223q5 45 -21.5 75.5t-74.5 30.5q-45 0 -80 -30.5t-47 -75.5zM860 1174l197 319h483l-297 -319h-383z" />
    <glyph glyph-name="Oslashacute" unicode="&#x1fe;" horiz-adv-x="1617" 
d="M805 -27q-189 0 -342 70l-121 -121l-205 195l105 106q-117 163 -117 383q0 173 69 329.5t189.5 272t295 184t374.5 68.5q192 0 340 -71l120 122l207 -194l-106 -107q119 -162 119 -381q0 -174 -69 -331t-189.5 -273t-294.5 -184t-375 -68zM877 401q135 0 220.5 107
t88.5 266l-365 -366q28 -7 56 -7zM981 1032q-137 0 -222 -108.5t-87 -266.5l362 369q-24 6 -53 6zM852 1518l197 319h483l-297 -319h-383z" />
    <glyph glyph-name="oslashacute" unicode="&#x1ff;" horiz-adv-x="1234" 
d="M1358 631q0 -181 -94.5 -332t-260 -238.5t-366.5 -87.5q-188 0 -322 86l-108 -94l-121 139l98 86q-75 116 -75 273q0 136 55.5 257.5t151 208.5t229.5 138t284 51q188 0 322 -88l102 88l121 -139l-92 -80q76 -118 76 -268zM768 750q-74 0 -123.5 -59t-58.5 -152l229 200
q-26 11 -47 11zM700 342q72 0 122 59t61 150l-232 -199q23 -10 49 -10zM590 1174l196 319h484l-297 -319h-383z" />
    <glyph glyph-name="Scommaaccent" unicode="&#x218;" horiz-adv-x="1181" 
d="M696 436q0 24 -26 46.5t-67 44t-91 46.5t-100.5 59t-91.5 75t-67 102.5t-26 134.5q0 149 80.5 267t222.5 183.5t318 65.5q94 0 175 -23.5t135 -60t94.5 -82.5t60.5 -89.5t26 -82.5l-399 -209q-15 52 -52 91.5t-83 39.5q-22 0 -35.5 -12t-13.5 -31q0 -28 35 -57t87 -53.5
t113.5 -62t113.5 -80t87 -110.5t35 -149q0 -228 -178 -372t-463 -144q-98 0 -180.5 25t-137 63.5t-95.5 90t-62.5 99t-30.5 95.5l403 201q30 -69 74.5 -110.5t91.5 -41.5t47 41zM346 -289q0 93 72 159.5t170 66.5q77 0 126.5 -45.5t49.5 -131.5q0 -135 -91 -264.5
t-233 -218.5l-110 150q97 62 135 127q-57 15 -88 58t-31 99z" />
    <glyph glyph-name="scommaaccent" unicode="&#x219;" horiz-adv-x="1003" 
d="M55 160l232 264q46 -38 124.5 -71.5t127.5 -33.5t49 25q0 12 -14 20t-50 19q-55 17 -92 31t-89 42.5t-83.5 60t-54.5 82t-23 110.5q0 120 70.5 214t189.5 144.5t263 50.5q149 0 252 -50t165 -122l-262 -250q-34 35 -82 58.5t-94 23.5q-51 0 -51 -30q0 -14 21 -25t75 -27
q48 -15 82.5 -28t82 -39t77.5 -55.5t51.5 -77t21.5 -103.5q0 -201 -135 -310.5t-381 -109.5q-146 0 -277 57.5t-196 129.5zM248 -289q0 93 72 159.5t169 66.5q77 0 127 -45.5t50 -131.5q0 -135 -91 -264.5t-233 -218.5l-111 150q99 63 136 127q-57 15 -88 58t-31 99z" />
    <glyph glyph-name="uni021A" unicode="&#x21a;" horiz-adv-x="1142" 
d="M311 0l172 1030h-280l67 404h1084l-68 -404h-282l-173 -1030h-520zM315 -289q0 93 72 159.5t170 66.5q77 0 126.5 -45.5t49.5 -131.5q0 -135 -90.5 -264.5t-232.5 -218.5l-111 150q97 62 135 127q-57 15 -88 58t-31 99z" />
    <glyph glyph-name="uni021B" unicode="&#x21b;" horiz-adv-x="825" 
d="M338 1090l39 227h454l-38 -227h170l-58 -340h-170l-53 -322q-7 -39 20.5 -55.5t69.5 -16.5l76 6l-62 -358q-76 -20 -182 -20q-226 0 -326.5 107.5t-64.5 324.5l55 334h-98l57 340h111zM211 -289q0 93 72 159.5t170 66.5q77 0 126.5 -45.5t49.5 -131.5q0 -135 -91 -264.5
t-233 -218.5l-110 150q97 62 135 127q-57 15 -88 58t-31 99z" />
    <glyph glyph-name="dotlessj" unicode="&#x237;" 
d="M57 37l176 1053h467l-180 -1076q-24 -146 -100.5 -238t-188.5 -130.5t-266 -38.5q-28 0 -82 6t-67 10l57 340q37 -6 82 -6q39 0 67 20.5t35 59.5z" />
    <glyph glyph-name="circumflex" unicode="&#x2c6;" horiz-adv-x="921" 
d="M707 1174l-35 79l-64 -79h-391l270 319h447l164 -319h-391z" />
    <glyph glyph-name="caron" unicode="&#x2c7;" horiz-adv-x="921" 
d="M696 1413l64 80h391l-270 -319h-447l-164 319h392z" />
    <glyph glyph-name="breve" unicode="&#x2d8;" horiz-adv-x="917" 
d="M649 1159q-183 0 -270 95t-60 253h347q-16 -92 26 -92q46 0 62 92h348q-27 -158 -147.5 -253t-305.5 -95z" />
    <glyph glyph-name="dotaccent" unicode="&#x2d9;" horiz-adv-x="917" 
d="M653 1161q-93 0 -145.5 48.5t-52.5 127.5q0 105 74 172.5t194 67.5q94 0 145.5 -47t51.5 -127q0 -105 -73.5 -173.5t-193.5 -68.5z" />
    <glyph glyph-name="ring" unicode="&#x2da;" horiz-adv-x="917" 
d="M424 1354q0 109 91 182.5t212 73.5q99 0 163 -55t64 -142q0 -110 -90 -183t-213 -73q-98 0 -162.5 55t-64.5 142zM623 1372q0 -26 14.5 -42.5t40.5 -16.5q34 0 58 24t24 58q0 25 -16 42t-42 17q-32 0 -55.5 -24t-23.5 -58z" />
    <glyph glyph-name="ogonek" unicode="&#x2db;" horiz-adv-x="921" 
d="M182 -270q0 49 23.5 95t61 80t78.5 58.5t81 36.5h264q-36 -14 -65 -42t-29 -60q0 -25 22 -37.5t54 -12.5l-45 -266q-106 -31 -187 -31q-258 0 -258 179z" />
    <glyph glyph-name="tilde" unicode="&#x2dc;" horiz-adv-x="919" 
d="M809 1163q-52 0 -122.5 30t-96.5 30q-24 0 -42 -16.5t-22 -45.5h-309q27 161 116.5 255.5t223.5 94.5q52 0 122.5 -29.5t96.5 -29.5q24 0 42 16.5t22 44.5h309q-27 -161 -116.5 -255.5t-223.5 -94.5z" />
    <glyph glyph-name="hungarumlaut" unicode="&#x2dd;" horiz-adv-x="1042" 
d="M236 1174l194 319h387l-231 -319h-350zM670 1174l194 319h387l-231 -319h-350z" />
    <glyph glyph-name="Wgrave" unicode="&#x1e80;" horiz-adv-x="2166" 
d="M1257 0l-49 752l-299 -752h-522l-133 1434h555l2 -789l307 789h410l45 -789l264 789h555l-612 -1434h-523zM1421 1837l90 -319h-362l-201 319h473z" />
    <glyph glyph-name="wgrave" unicode="&#x1e81;" horiz-adv-x="1789" 
d="M983 0l-22 401l-152 -401h-504l-106 1090h508l-21 -537l184 537h414l4 -541l162 541h508l-473 -1090h-502zM1217 1493l90 -319h-363l-201 319h474z" />
    <glyph glyph-name="Wacute" unicode="&#x1e82;" horiz-adv-x="2166" 
d="M1257 0l-49 752l-299 -752h-522l-133 1434h555l2 -789l307 789h410l45 -789l264 789h555l-612 -1434h-523zM1126 1518l197 319h483l-297 -319h-383z" />
    <glyph glyph-name="wacute" unicode="&#x1e83;" horiz-adv-x="1789" 
d="M983 0l-22 401l-152 -401h-504l-106 1090h508l-21 -537l184 537h414l4 -541l162 541h508l-473 -1090h-502zM858 1174l197 319h483l-297 -319h-383z" />
    <glyph glyph-name="Wdieresis" unicode="&#x1e84;" horiz-adv-x="2166" 
d="M1257 0l-49 752l-299 -752h-522l-133 1434h555l2 -789l307 789h410l45 -789l264 789h555l-612 -1434h-523zM942 1638q0 83 62 143t161 60q79 0 121.5 -42t42.5 -107q0 -85 -61 -143t-162 -58q-79 0 -121.5 40.5t-42.5 106.5zM1391 1638q0 83 62 143t161 60
q79 0 121.5 -42t42.5 -107q0 -85 -61.5 -143t-162.5 -58q-79 0 -121 40.5t-42 106.5z" />
    <glyph glyph-name="wdieresis" unicode="&#x1e85;" horiz-adv-x="1789" 
d="M983 0l-22 401l-152 -401h-504l-106 1090h508l-21 -537l184 537h414l4 -541l162 541h508l-473 -1090h-502zM700 1313q0 83 62.5 143t161.5 60q78 0 120.5 -42.5t42.5 -107.5q0 -85 -61 -143t-162 -58q-79 0 -121.5 41t-42.5 107zM1149 1313q0 83 62 143t161 60
q78 0 121 -42.5t43 -107.5q0 -85 -61 -143t-162 -58q-79 0 -121.5 41t-42.5 107z" />
    <glyph glyph-name="Ygrave" unicode="&#x1ef2;" horiz-adv-x="1449" 
d="M985 0h-520l102 612l-311 822h547l76 -408l211 408h583l-586 -822zM1104 1837l90 -319h-363l-200 319h473z" />
    <glyph glyph-name="ygrave" unicode="&#x1ef3;" horiz-adv-x="1275" 
d="M653 -367h-440l217 422l-233 1035h489l41 -515l223 515h496zM965 1493l90 -319h-363l-200 319h473z" />
    <glyph glyph-name="endash" unicode="&#x2013;" horiz-adv-x="1443" 
d="M158 467l57 342h1284l-57 -342h-1284z" />
    <glyph glyph-name="emdash" unicode="&#x2014;" horiz-adv-x="2017" 
d="M170 467l57 342h1831l-57 -342h-1831z" />
    <glyph glyph-name="quoteleft" unicode="&#x2018;" horiz-adv-x="694" 
d="M764 973q0 -110 -87 -190.5t-212 -80.5q-99 0 -159 57.5t-60 158.5q0 159 114 330t306 284l147 -205q-50 -27 -102 -73.5t-80 -88.5q66 -25 99.5 -76t33.5 -116z" />
    <glyph glyph-name="quoteright" unicode="&#x2019;" horiz-adv-x="694" 
d="M303 1262q0 110 87 190t212 80q99 0 159 -57t60 -158q0 -159 -114 -330.5t-306 -284.5l-147 205q51 28 103.5 74.5t78.5 87.5q-65 25 -99 77t-34 116z" />
    <glyph glyph-name="quotesinglbase" unicode="&#x201a;" horiz-adv-x="550" 
d="M51 178q0 110 87 190.5t212 80.5q99 0 159 -57.5t60 -158.5q0 -159 -113.5 -330t-305.5 -284l-148 205q51 28 103.5 74.5t78.5 87.5q-65 25 -99 76.5t-34 115.5z" />
    <glyph glyph-name="quotedblleft" unicode="&#x201c;" horiz-adv-x="1269" 
d="M764 973q0 -110 -87 -190.5t-212 -80.5q-99 0 -159 57.5t-60 158.5q0 159 114 330t306 284l147 -205q-50 -27 -102 -73.5t-80 -88.5q66 -25 99.5 -76t33.5 -116zM1339 973q0 -110 -87 -190.5t-212 -80.5q-99 0 -159 57.5t-60 158.5q0 159 114 330t306 284l148 -205
q-51 -27 -103 -73.5t-80 -88.5q66 -25 99.5 -76t33.5 -116z" />
    <glyph glyph-name="quotedblright" unicode="&#x201d;" horiz-adv-x="1269" 
d="M879 1262q0 110 87 190t212 80q99 0 159 -57t60 -158q0 -159 -114 -330.5t-306 -284.5l-148 205q51 28 104 74.5t79 87.5q-65 25 -99 77t-34 116zM303 1262q0 110 87 190t212 80q99 0 159 -57t60 -158q0 -159 -114 -330.5t-306 -284.5l-147 205q51 28 103.5 74.5
t78.5 87.5q-65 25 -99 77t-34 116z" />
    <glyph glyph-name="quotedblbase" unicode="&#x201e;" horiz-adv-x="1269" 
d="M698 178q0 110 87 190.5t212 80.5q99 0 159.5 -57.5t60.5 -158.5q0 -159 -114 -330t-306 -284l-148 205q51 28 103.5 74.5t78.5 87.5q-65 25 -99 76.5t-34 115.5zM123 178q0 110 87 190.5t212 80.5q99 0 159 -57.5t60 -158.5q0 -159 -114 -330t-306 -284l-147 205
q51 28 103.5 74.5t78.5 87.5q-65 25 -99 76.5t-34 115.5z" />
    <glyph glyph-name="dagger" unicode="&#x2020;" horiz-adv-x="976" 
d="M258 0l125 752h-242l62 362h241l54 320h460l-53 -320h240l-62 -362h-239l-125 -752h-461z" />
    <glyph glyph-name="daggerdbl" unicode="&#x2021;" horiz-adv-x="974" 
d="M68 307l59 359h242l16 98h-242l62 362h241l52 308h460l-51 -308h240l-62 -362h-239l-17 -98h240l-59 -359h-240l-51 -307h-461l51 307h-241z" />
    <glyph glyph-name="bullet" unicode="&#x2022;" horiz-adv-x="831" 
d="M463 283q-134 0 -216.5 86t-82.5 215q0 164 123.5 283.5t292.5 119.5q133 0 216 -86.5t83 -214.5q0 -164 -123.5 -283.5t-292.5 -119.5z" />
    <glyph glyph-name="perthousand" unicode="&#x2030;" horiz-adv-x="2686" 
d="M190 0l1295 1434h393l-1294 -1434h-394zM1022 1141q0 -171 -137.5 -294.5t-331.5 -123.5q-155 0 -249.5 90.5t-94.5 228.5q0 171 136.5 294.5t330.5 123.5q156 0 251 -90.5t95 -228.5zM563 1075q0 -25 10.5 -40t28.5 -15q27 0 45.5 26t18.5 62q0 25 -10.5 40t-28.5 15
q-27 0 -45.5 -26t-18.5 -62zM1858 391q0 -171 -136.5 -294.5t-330.5 -123.5q-157 0 -252 91t-95 229q0 171 137.5 294.5t331.5 123.5q155 0 250 -91t95 -229zM1401 326q0 -25 10.5 -40.5t28.5 -15.5q27 0 45 26t18 62q0 25 -10.5 40.5t-28.5 15.5q-27 0 -45 -26t-18 -62z
M2714 391q0 -171 -136.5 -294.5t-330.5 -123.5q-155 0 -250.5 91t-95.5 229q0 171 137.5 294.5t331.5 123.5q155 0 249.5 -91t94.5 -229zM2257 326q0 -25 10.5 -40.5t28.5 -15.5q27 0 45 26t18 62q0 25 -10.5 40.5t-28.5 15.5q-27 0 -45 -26t-18 -62z" />
    <glyph glyph-name="guilsinglleft" unicode="&#x2039;" horiz-adv-x="753" 
d="M334 219l-162 387l293 387h387l-291 -387l160 -387h-387z" />
    <glyph glyph-name="guilsinglright" unicode="&#x203a;" horiz-adv-x="753" 
d="M786 606l-292 -387h-388l291 387l-161 387h387z" />
    <glyph glyph-name="fraction" unicode="&#x2044;" horiz-adv-x="1130" 
d="M377 -84h-406l1022 1602h408z" />
    <glyph glyph-name="Euro" unicode="&#x20ac;" horiz-adv-x="1409" 
d="M115 440l41 246h94l10 55h-94l43 260h151q113 196 325 328.5t454 132.5q247 0 397 -102l-225 -340q-90 55 -205 55q-121 0 -223 -74h329l-71 -260h-389q-11 -26 -11 -55h383l-63 -246h-260q54 -71 196 -71q59 0 123 18.5t111 46.5l104 -334q-69 -54 -179.5 -90.5
t-240.5 -36.5q-267 0 -441 127.5t-210 339.5h-149z" />
    <glyph glyph-name="numero" unicode="&#x2116;" horiz-adv-x="2318" 
d="M1548 324l58 335h759l-57 -335h-760zM61 0l240 1434h526l199 -674l113 674h514l-240 -1434h-526l-199 674l-113 -674h-514zM2005 1061q0 -64 35 -64q26 0 44.5 32.5t18.5 68.5q0 63 -35 63q-26 0 -44.5 -32t-18.5 -68zM1647 1026q0 115 62 215t171 159.5t238 59.5
q157 0 251.5 -93.5t94.5 -233.5q0 -177 -138 -306t-335 -129q-157 0 -250.5 93.5t-93.5 234.5z" />
    <glyph glyph-name="trademark" unicode="&#x2122;" horiz-adv-x="1714" 
d="M360 694l86 512h-172l39 228h609l-39 -228h-172l-86 -512h-265zM1438 774h-234l-37 258l-57 -338h-254l125 740h336l49 -365l176 365h340l-125 -740h-254l58 338z" />
    <glyph glyph-name="minus" unicode="&#x2212;" horiz-adv-x="1099" 
d="M98 469l56 332h1058l-55 -332h-1059z" />
    <glyph glyph-name="commaaccent" unicode="&#xf6c3;" horiz-adv-x="727" 
d="M109 -289q0 93 72 159.5t169 66.5q77 0 126.5 -45.5t49.5 -131.5q0 -135 -90.5 -264.5t-232.5 -218.5l-111 150q97 62 135 127q-57 15 -87.5 58t-30.5 99z" />
    <glyph glyph-name="hyphen.caps" horiz-adv-x="829" 
d="M162 545l59 352h688l-59 -352h-688z" />
    <glyph glyph-name="endash.caps" horiz-adv-x="1443" 
d="M160 555l57 342h1284l-57 -342h-1284z" />
    <glyph glyph-name="emdash.caps" horiz-adv-x="1966" 
d="M160 555l57 342h1831l-57 -342h-1831z" />
    <glyph glyph-name="guillemotleft.caps" horiz-adv-x="1210" 
d="M350 326l-162 387l293 387h387l-290 -387l159 -387h-387zM807 326l-162 387l293 387h387l-291 -387l160 -387h-387z" />
    <glyph glyph-name="guillemotright.caps" horiz-adv-x="1210" 
d="M1262 713l-293 -387h-387l290 387l-161 387h387zM805 713l-293 -387h-387l291 387l-162 387h387z" />
    <glyph glyph-name="guilsinglleft.caps" horiz-adv-x="753" 
d="M350 326l-162 387l293 387h387l-290 -387l159 -387h-387z" />
    <glyph glyph-name="guilsinglright.caps" horiz-adv-x="753" 
d="M805 713l-293 -387h-387l291 387l-162 387h387z" />
    <glyph glyph-name="parenleft.caps" horiz-adv-x="780" 
d="M70 166l182 1098q42 247 228.5 376t477.5 129l-59 -358q-88 0 -130.5 -37t-55.5 -110l-185 -1098q-11 -73 19.5 -110.5t118.5 -37.5l-60 -358q-291 0 -434.5 129.5t-101.5 376.5z" />
    <glyph glyph-name="parenright.caps" horiz-adv-x="780" 
d="M950 1264l-184 -1098q-27 -165 -123.5 -279.5t-244.5 -170.5t-339 -56l60 358q88 0 131.5 37.5t54.5 110.5l184 1098q11 73 -19 110t-118 37l60 358q291 0 434.5 -129t103.5 -376z" />
    <glyph glyph-name="bracketleft.caps" horiz-adv-x="700" 
d="M-16 -340l352 2109h622l-59 -358h-162l-233 -1393h162l-60 -358h-622z" />
    <glyph glyph-name="bracketright.caps" horiz-adv-x="700" 
d="M958 1769l-352 -2109h-622l59 358h162l233 1393h-162l60 358h622z" />
    <glyph glyph-name="braceleft.caps" horiz-adv-x="870" 
d="M127 518l66 395q71 0 115 33.5t61 132.5l30 185q27 164 129 279t255 170.5t345 55.5l-59 -358q-96 0 -145 -37.5t-62 -109.5l-47 -277q-18 -102 -86 -173.5t-151 -98.5q74 -28 119 -99.5t28 -171.5l-47 -280q-11 -71 25.5 -108.5t132.5 -37.5l-60 -358q-293 0 -447 130.5
t-114 375.5l31 186q10 43 5 73t-13 48t-27.5 28t-38 13.5t-45.5 3.5z" />
    <glyph glyph-name="bar.caps" horiz-adv-x="643" 
d="M27 -428l385 2302h446l-385 -2302h-446z" />
    <glyph glyph-name="braceright.caps" horiz-adv-x="952" 
d="M1063 913l-66 -395q-71 0 -115 -33.5t-61 -132.5l-30 -186q-27 -164 -129.5 -279.5t-255.5 -171t-345 -55.5l60 358q184 0 207 146l47 280q17 100 86 171.5t151 99.5q-74 28 -118 99.5t-27 172.5l45 277q12 72 -25 109.5t-133 37.5l60 358q293 0 447 -130t114 -375
l-31 -185q-10 -43 -5 -73t13 -48t27.5 -28t38 -13.5t45.5 -3.5z" />
    <glyph glyph-name="slash.caps" horiz-adv-x="997" 
d="M-41 -168l909 1757h410l-909 -1757h-410z" />
    <glyph glyph-name="backslash.caps" horiz-adv-x="997" 
d="M664 1589l319 -1757h-410l-319 1757h410z" />
    <glyph glyph-name="exclamdown.caps" horiz-adv-x="671" 
d="M279 1192q0 107 88 187.5t211 80.5q101 0 162 -59t61 -146q0 -110 -88.5 -190t-214.5 -80q-99 0 -159 58.5t-60 148.5zM84 0l195 956h434l-125 -956h-504z" />
    <glyph glyph-name="questiondown.caps" horiz-adv-x="1036" 
d="M946 956l-16 -92q-12 -70 -55.5 -134t-96.5 -109t-104 -84t-85 -75.5t-34 -68.5q0 -23 13.5 -38t39.5 -15q37 0 70.5 31.5t54.5 79.5l336 -158q-172 -320 -551 -320q-199 0 -321.5 98t-122.5 259q0 65 21 121.5t54.5 98t74.5 78t83.5 68t79 61t62.5 63.5t32 69l13 67h452
zM1026 1255q0 -110 -87 -190t-212 -80q-102 0 -162.5 58.5t-60.5 148.5q0 108 87.5 188t213.5 80q100 0 160.5 -59t60.5 -146z" />
    <glyph glyph-name="periodcentered.caps" 
d="M141 674q0 110 87 190t212 80q101 0 161.5 -58.5t60.5 -148.5q0 -107 -88 -187.5t-214 -80.5q-99 0 -159 59t-60 146z" />
    <glyph glyph-name="bullet.caps" horiz-adv-x="831" 
d="M479 373q-134 0 -216.5 86t-82.5 215q0 107 57 200.5t153 148t206 54.5q134 0 216.5 -86t82.5 -215q0 -164 -123.5 -283.5t-292.5 -119.5z" />
    <glyph glyph-name="zero.tab" horiz-adv-x="1298" 
d="M647 -27q-290 0 -400.5 185t-51.5 559q59 373 228.5 558t459.5 185t401.5 -185t52.5 -558q-60 -374 -230 -559t-460 -185zM713 383q69 0 123 334q51 338 -17 338q-72 0 -123 -338q-54 -334 17 -334z" />
    <glyph glyph-name="one.tab" horiz-adv-x="1298" 
d="M1190 0h-1047l66 387h319l103 621l-273 -76l-39 362l480 140h377l-175 -1047h254z" />
    <glyph glyph-name="two.tab" horiz-adv-x="1298" 
d="M109 0l34 203q16 92 63.5 174.5t111 143t136.5 115t142.5 99.5t126.5 87t92 88.5t35 93.5q0 23 -15 37t-38 14q-75 0 -115 -123l-422 102q160 426 623 426q212 0 348.5 -111.5t136.5 -275.5q0 -86 -31 -165t-81.5 -137.5t-111 -110t-122 -91t-113 -71.5t-85.5 -60.5
t-38 -50.5h484l-66 -387h-1095z" />
    <glyph glyph-name="three.tab" horiz-adv-x="1298" 
d="M1378 1434l-59 -355l-234 -184q93 -36 149 -121t56 -215q0 -170 -88 -305t-236.5 -208t-326.5 -73q-106 0 -190 27t-135.5 68.5t-86.5 98t-49.5 109t-17.5 107.5l446 94q0 -43 24.5 -69.5t59.5 -26.5q44 0 73.5 27.5t29.5 70.5q0 35 -25.5 58.5t-69.5 23.5h-219l45 281
l273 205h-463l65 387h979z" />
    <glyph glyph-name="four.tab" horiz-adv-x="1298" 
d="M82 291l49 295l674 848h559l-129 -770h141l-61 -373h-141l-50 -291h-495l49 291h-596zM582 664h157l45 268z" />
    <glyph glyph-name="five.tab" horiz-adv-x="1298" 
d="M686 385q39 0 73 30t34 85q0 38 -21.5 62t-58.5 24q-58 0 -90 -56l-400 58l174 846h965l-64 -387h-538l-25 -113q63 20 137 20q186 0 308.5 -111.5t122.5 -291.5q0 -158 -91 -292t-242.5 -210t-326.5 -76q-105 0 -191 26.5t-140 68t-91.5 96.5t-54 108t-19.5 107l459 98
q-3 -49 21 -70.5t59 -21.5z" />
    <glyph glyph-name="six.tab" horiz-adv-x="1298" 
d="M731 377q39 0 64.5 40.5t25.5 96.5q0 44 -18 72t-49 28q-41 0 -74 -22q-21 -100 -7.5 -157.5t58.5 -57.5zM995 1460q236 0 383 -102l-223 -359q-90 54 -197 54q-77 0 -124.5 -42t-63.5 -106q28 15 82 30t106 15q150 0 249.5 -94.5t99.5 -267.5q0 -130 -51.5 -245
t-138.5 -196t-207.5 -127.5t-254.5 -46.5q-250 0 -367.5 132t-117.5 370q0 80 10.5 164t37 182t66.5 187t106 173t149 145t200.5 97.5t255.5 36.5z" />
    <glyph glyph-name="seven.tab" horiz-adv-x="1298" 
d="M334 1434h1108l-47 -285l-643 -1149h-533l594 1053h-543z" />
    <glyph glyph-name="eight.tab" horiz-adv-x="1298" 
d="M645 -27q-236 0 -368 109.5t-132 296.5q0 118 55.5 219.5t145.5 165.5q-34 37 -54 94t-20 119q0 97 44 184.5t122.5 154t196.5 105.5t258 39q226 0 350.5 -105.5t124.5 -271.5q0 -98 -45 -180.5t-117 -138.5q45 -42 71 -110.5t26 -143.5q0 -236 -181.5 -386.5
t-476.5 -150.5zM831 1090q-38 0 -62 -36.5t-24 -84.5q0 -33 14 -51.5t40 -18.5q37 0 60.5 35.5t23.5 81.5q0 74 -52 74zM745 575q-49 0 -77.5 -44.5t-28.5 -94.5q0 -40 18 -64t50 -24q45 0 74.5 39.5t29.5 95.5q0 37 -16.5 64.5t-49.5 27.5z" />
    <glyph glyph-name="nine.tab" horiz-adv-x="1298" 
d="M805 1057q-39 0 -64.5 -40.5t-25.5 -96.5q0 -44 18 -72.5t49 -28.5q40 0 74 23q21 100 7.5 157.5t-58.5 57.5zM541 -27q-235 0 -383 103l223 358q37 -22 91 -37.5t106 -15.5q79 0 126.5 39.5t61.5 107.5q-28 -15 -82 -30t-106 -15q-150 0 -249.5 95t-99.5 268
q0 174 87 315t236.5 220t328.5 79q250 0 367.5 -132t117.5 -370q0 -80 -10.5 -164t-37 -182t-66.5 -187t-106 -173t-149 -145t-200.5 -97.5t-255.5 -36.5z" />
    </font>
</defs>
</svg>
